osu file format v14

[General]
AudioFilename: 01. X-encounter.mp3
AudioLeadIn: 0
PreviewTime: -1
Countdown: 1
SampleSet: Soft
StackLeniency: 0.7
Mode: 3
LetterboxInBreaks: 1
SpecialStyle: 0
WidescreenStoryboard: 1

[Editor]
DistanceSpacing: 0.8
BeatDivisor: 4
GridSize: 8
TimelineZoom: 1

[Metadata]
Title:X-encounter
TitleUnicode:X-encounter
Artist:Maon Kurosaki
ArtistUnicode:Maon Kurosaki
Creator:thalia_sama
Version:NM
Source:
Tags:
BeatmapID:692660
BeatmapSetID:309892

[Difficulty]
HPDrainRate:5
CircleSize:4
OverallDifficulty:5
ApproachRate:5
SliderMultiplier:1.4
SliderTickRate:1

[Events]
//Background and Video events
0,0,"Tokyo.Ravens.full.1795920.jpg",0,0
//Break Periods
//Storyboard Layer 0 (Background)
//Storyboard Layer 1 (Fail)
//Storyboard Layer 2 (Pass)
//Storyboard Layer 3 (Foreground)
//Storyboard Sound Samples

[TimingPoints]
47778.1956521739,434.782608695652,4,2,0,25,1,0

[HitObjects]
64,192,1365,5,0,0:0:0:0:
448,192,1473,1,0,0:0:0:0:
320,192,1582,1,0,0:0:0:0:
448,192,1691,1,0,0:0:0:0:
320,192,1799,1,0,0:0:0:0:
192,192,1908,1,0,0:0:0:0:
64,192,2017,1,0,0:0:0:0:
448,192,2343,1,0,0:0:0:0:
192,192,2452,1,0,0:0:0:0:
64,192,2669,1,0,0:0:0:0:
64,192,2995,1,0,0:0:0:0:
448,192,3104,1,0,0:0:0:0:
320,192,3212,1,0,0:0:0:0:
448,192,3321,1,0,0:0:0:0:
320,192,3430,1,0,0:0:0:0:
192,192,3539,1,0,0:0:0:0:
64,192,3647,1,0,0:0:0:0:
448,192,3973,1,0,0:0:0:0:
192,192,4082,1,0,0:0:0:0:
64,192,4299,1,0,0:0:0:0:
64,192,4626,1,0,0:0:0:0:
448,192,4734,1,0,0:0:0:0:
320,192,4843,1,0,0:0:0:0:
448,192,4952,1,0,0:0:0:0:
320,192,5060,1,0,0:0:0:0:
192,192,5169,1,0,0:0:0:0:
64,192,5278,1,0,0:0:0:0:
448,192,5604,1,0,0:0:0:0:
192,192,5712,1,0,0:0:0:0:
64,192,5930,1,0,0:0:0:0:
448,192,6039,1,0,0:0:0:0:
64,192,6256,1,0,0:0:0:0:
448,192,6365,1,0,0:0:0:0:
320,192,6473,1,0,0:0:0:0:
448,192,6582,1,0,0:0:0:0:
320,192,6691,1,0,0:0:0:0:
192,192,6799,1,0,0:0:0:0:
64,192,6908,1,0,0:0:0:0:
192,192,7017,1,0,0:0:0:0:
320,192,7126,1,0,0:0:0:0:
64,192,7343,1,0,0:0:0:0:
192,192,7452,1,0,0:0:0:0:
448,192,7669,1,0,0:0:0:0:
320,192,7778,1,0,0:0:0:0:
64,192,7995,1,0,0:0:0:0:
192,192,8104,1,0,0:0:0:0:
448,192,8212,1,0,0:0:0:0:
64,192,8321,1,0,0:0:0:0:
448,192,8430,1,0,0:0:0:0:
192,192,8539,1,0,0:0:0:0:
448,192,8647,1,0,0:0:0:0:
64,192,8756,1,0,0:0:0:0:
320,192,8865,1,0,0:0:0:0:
448,192,8973,1,0,0:0:0:0:
64,192,9191,1,0,0:0:0:0:
448,192,9299,1,0,0:0:0:0:
320,192,9517,1,0,0:0:0:0:
64,192,9626,1,0,0:0:0:0:
448,192,9843,1,0,0:0:0:0:
320,192,9952,1,0,0:0:0:0:
64,192,10060,1,0,0:0:0:0:
448,192,10169,1,0,0:0:0:0:
64,192,10278,1,0,0:0:0:0:
448,192,10386,1,0,0:0:0:0:
192,192,10495,1,0,0:0:0:0:
448,192,10604,1,0,0:0:0:0:
64,192,10712,1,0,0:0:0:0:
448,192,10821,1,0,0:0:0:0:
320,192,11039,1,0,0:0:0:0:
64,192,11147,1,0,0:0:0:0:
320,192,11365,1,0,0:0:0:0:
448,192,11582,1,0,0:0:0:0:
64,192,11691,1,0,0:0:0:0:
448,192,11799,1,0,0:0:0:0:
192,192,11908,1,0,0:0:0:0:
448,192,12017,1,0,0:0:0:0:
64,192,12126,1,0,0:0:0:0:
320,192,12234,1,0,0:0:0:0:
448,192,12343,1,0,0:0:0:0:
64,192,12560,1,0,0:0:0:0:
448,192,12778,1,0,0:0:0:0:
320,192,12995,1,0,0:0:0:0:
64,192,13430,1,0,0:0:0:0:
192,192,13539,1,0,0:0:0:0:
320,192,13647,1,0,0:0:0:0:
448,192,13865,1,0,0:0:0:0:
320,192,13973,1,0,0:0:0:0:
192,192,14082,1,0,0:0:0:0:
64,192,14299,128,0,14517:0:0:0:0:
320,192,14517,128,0,14734:0:0:0:0:
192,192,14517,1,0,0:0:0:0:
448,192,14734,1,0,0:0:0:0:
64,192,14734,1,0,0:0:0:0:
64,192,15060,1,0,0:0:0:0:
320,192,15060,1,0,0:0:0:0:
448,192,15060,1,0,0:0:0:0:
64,192,15386,128,0,15712:0:0:0:0:
448,192,15386,1,0,0:0:0:0:
192,192,15712,1,0,0:0:0:0:
448,192,15930,128,0,16256:0:0:0:0:
64,192,15930,1,0,0:0:0:0:
320,192,16256,1,0,0:0:0:0:
64,192,16473,128,0,16799:0:0:0:0:
448,192,16473,1,0,0:0:0:0:
192,192,16799,1,0,0:0:0:0:
320,192,17017,128,0,17343:0:0:0:0:
192,192,17017,1,0,0:0:0:0:
448,192,17343,1,0,0:0:0:0:
448,192,17560,128,0,17886:0:0:0:0:
64,192,17560,1,0,0:0:0:0:
320,192,17886,1,0,0:0:0:0:
64,192,18104,128,0,18430:0:0:0:0:
448,192,18104,1,0,0:0:0:0:
192,192,18430,1,0,0:0:0:0:
320,192,18647,128,0,18973:0:0:0:0:
64,192,18647,1,0,0:0:0:0:
448,192,18973,1,0,0:0:0:0:
64,192,19191,128,0,19517:0:0:0:0:
448,192,19191,1,0,0:0:0:0:
192,192,19517,1,0,0:0:0:0:
448,192,19734,128,0,20060:0:0:0:0:
64,192,19734,1,0,0:0:0:0:
320,192,20060,1,0,0:0:0:0:
64,192,20278,128,0,20604:0:0:0:0:
448,192,20278,1,0,0:0:0:0:
320,192,20386,1,0,0:0:0:0:
192,192,20495,1,0,0:0:0:0:
320,192,20604,1,0,0:0:0:0:
192,192,20821,1,0,0:0:0:0:
320,192,20930,1,0,0:0:0:0:
448,192,21039,1,0,0:0:0:0:
320,192,21256,1,0,0:0:0:0:
64,192,21473,1,0,0:0:0:0:
192,192,21582,1,0,0:0:0:0:
448,192,21691,1,0,0:0:0:0:
320,192,21799,1,0,0:0:0:0:
448,192,22234,1,0,0:0:0:0:
320,192,22343,1,0,0:0:0:0:
448,192,22452,1,0,0:0:0:0:
320,192,22560,1,0,0:0:0:0:
192,192,22669,1,0,0:0:0:0:
64,192,22778,1,0,0:0:0:0:
448,192,22886,1,0,0:0:0:0:
64,192,23212,1,0,0:0:0:0:
192,192,23430,1,0,0:0:0:0:
320,192,23647,1,0,0:0:0:0:
64,192,23973,1,0,0:0:0:0:
192,192,24082,1,0,0:0:0:0:
64,192,24191,1,0,0:0:0:0:
192,192,24299,1,0,0:0:0:0:
320,192,24408,1,0,0:0:0:0:
448,192,24517,1,0,0:0:0:0:
64,192,24626,1,0,0:0:0:0:
448,192,24843,1,0,0:0:0:0:
320,192,24952,1,0,0:0:0:0:
192,192,25060,1,0,0:0:0:0:
64,192,25169,1,0,0:0:0:0:
448,192,25278,1,0,0:0:0:0:
320,192,25386,1,0,0:0:0:0:
64,192,25712,1,0,0:0:0:0:
192,192,25821,1,0,0:0:0:0:
320,192,25930,1,0,0:0:0:0:
448,192,26039,1,0,0:0:0:0:
320,192,26147,1,0,0:0:0:0:
192,192,26256,1,0,0:0:0:0:
64,192,26365,1,0,0:0:0:0:
320,192,26473,1,0,0:0:0:0:
192,192,26582,1,0,0:0:0:0:
64,192,26691,1,0,0:0:0:0:
320,192,26799,1,0,0:0:0:0:
448,192,26908,1,0,0:0:0:0:
320,192,27017,1,0,0:0:0:0:
192,192,27126,1,0,0:0:0:0:
64,192,27234,1,0,0:0:0:0:
192,192,27452,1,0,0:0:0:0:
320,192,27560,1,0,0:0:0:0:
448,192,27669,1,0,0:0:0:0:
320,192,27778,1,0,0:0:0:0:
192,192,27886,1,0,0:0:0:0:
64,192,27995,1,0,0:0:0:0:
192,192,28104,1,0,0:0:0:0:
320,192,28212,1,0,0:0:0:0:
448,192,28321,1,0,0:0:0:0:
192,192,28430,1,0,0:0:0:0:
320,192,28539,1,0,0:0:0:0:
448,192,28647,1,0,0:0:0:0:
64,192,29082,1,0,0:0:0:0:
448,192,29299,1,0,0:0:0:0:
64,192,29517,1,0,0:0:0:0:
448,192,29734,1,0,0:0:0:0:
192,192,29952,1,0,0:0:0:0:
448,192,30278,128,0,30604:0:0:0:0:
320,192,30604,128,0,30930:0:0:0:0:
64,192,30604,1,0,0:0:0:0:
192,192,30930,1,0,0:0:0:0:
64,192,31256,1,0,0:0:0:0:
448,192,31582,1,0,0:0:0:0:
64,192,31799,1,0,0:0:0:0:
192,192,31908,1,0,0:0:0:0:
448,192,32234,1,0,0:0:0:0:
64,192,32234,1,0,0:0:0:0:
192,192,32343,1,0,0:0:0:0:
320,192,32452,1,0,0:0:0:0:
320,192,32669,1,0,0:0:0:0:
64,192,32995,1,0,0:0:0:0:
320,192,33321,1,0,0:0:0:0:
64,192,33756,1,0,0:0:0:0:
448,192,33973,1,0,0:0:0:0:
320,192,34082,1,0,0:0:0:0:
192,192,34191,1,0,0:0:0:0:
320,192,34408,1,0,0:0:0:0:
192,192,34626,1,0,0:0:0:0:
320,192,34843,1,0,0:0:0:0:
448,192,35060,1,0,0:0:0:0:
192,192,35278,1,0,0:0:0:0:
192,192,35604,1,0,0:0:0:0:
64,192,35712,1,0,0:0:0:0:
192,192,35821,1,0,0:0:0:0:
320,192,35930,1,0,0:0:0:0:
448,192,36147,128,0,36473:0:0:0:0:
64,192,36256,1,0,0:0:0:0:
192,192,36473,128,0,36799:0:0:0:0:
448,192,36799,1,0,0:0:0:0:
320,192,36908,1,0,0:0:0:0:
64,192,37234,1,0,0:0:0:0:
192,192,37343,1,0,0:0:0:0:
320,192,37452,1,0,0:0:0:0:
448,192,37560,1,0,0:0:0:0:
64,192,37886,1,0,0:0:0:0:
448,192,38212,1,0,0:0:0:0:
192,192,38539,1,0,0:0:0:0:
448,192,38973,1,0,0:0:0:0:
320,192,39082,1,0,0:0:0:0:
192,192,39191,1,0,0:0:0:0:
64,192,39299,1,0,0:0:0:0:
448,192,39299,1,0,0:0:0:0:
320,192,39626,1,0,0:0:0:0:
64,192,39952,1,0,0:0:0:0:
448,192,40278,1,0,0:0:0:0:
320,192,40495,1,0,0:0:0:0:
64,192,40821,1,0,0:0:0:0:
192,192,40930,1,0,0:0:0:0:
320,192,41039,1,0,0:0:0:0:
448,192,41147,1,0,0:0:0:0:
192,192,41256,1,0,0:0:0:0:
448,192,41473,1,0,0:0:0:0:
320,192,41691,1,0,0:0:0:0:
192,192,41799,1,0,0:0:0:0:
64,192,41908,1,0,0:0:0:0:
448,192,42234,128,0,42560:0:0:0:0:
64,192,42343,1,0,0:0:0:0:
320,192,42560,128,0,42886:0:0:0:0:
192,192,42669,1,0,0:0:0:0:
192,192,42886,1,0,0:0:0:0:
64,192,42995,1,0,0:0:0:0:
320,192,43104,1,0,0:0:0:0:
448,192,43321,1,0,0:0:0:0:
64,192,43430,1,0,0:0:0:0:
320,192,43539,1,0,0:0:0:0:
448,192,43647,1,0,0:0:0:0:
64,192,43756,1,0,0:0:0:0:
320,192,43973,1,0,0:0:0:0:
64,192,44082,1,0,0:0:0:0:
192,192,44299,1,0,0:0:0:0:
448,192,44408,1,0,0:0:0:0:
192,192,44517,1,0,0:0:0:0:
448,192,44626,1,0,0:0:0:0:
320,192,44734,1,0,0:0:0:0:
448,192,44843,1,0,0:0:0:0:
64,192,44952,1,0,0:0:0:0:
320,192,45060,1,0,0:0:0:0:
448,192,45278,1,0,0:0:0:0:
320,192,45386,1,0,0:0:0:0:
192,192,45495,1,0,0:0:0:0:
320,192,45712,1,0,0:0:0:0:
448,192,45930,1,0,0:0:0:0:
320,192,46147,1,0,0:0:0:0:
192,192,46256,1,0,0:0:0:0:
320,192,46582,128,0,46908:0:0:0:0:
64,192,46582,1,0,0:0:0:0:
192,192,46908,128,0,47234:0:0:0:0:
448,192,47234,1,0,0:0:0:0:
64,192,47452,1,0,0:0:0:0:
448,192,47669,128,0,47886:0:0:0:0:
192,192,47778,1,0,0:0:0:0:
64,192,47995,128,0,48212:0:0:0:0:
192,192,48104,1,0,0:0:0:0:
448,192,48212,128,0,48430:0:0:0:0:
320,192,48321,1,0,0:0:0:0:
192,192,48430,128,0,48647:0:0:0:0:
64,192,48539,1,0,0:0:0:0:
320,192,48647,128,0,48865:0:0:0:0:
448,192,48756,1,0,0:0:0:0:
64,192,48865,128,0,49082:0:0:0:0:
192,192,48973,1,0,0:0:0:0:
448,192,49191,1,0,0:0:0:0:
192,192,49408,1,0,0:0:0:0:
448,192,49626,1,0,0:0:0:0:
192,192,49843,128,0,50169:0:0:0:0:
320,192,49952,1,0,0:0:0:0:
320,192,50386,1,0,0:0:0:0:
64,192,50495,1,0,0:0:0:0:
192,192,50712,1,0,0:0:0:0:
64,192,50930,128,0,51039:0:0:0:0:
448,192,51147,1,0,0:0:0:0:
320,192,51147,128,0,51256:0:0:0:0:
192,192,51365,128,0,51473:0:0:0:0:
64,192,51691,128,0,52017:0:0:0:0:
320,192,51799,1,0,0:0:0:0:
192,192,52126,1,0,0:0:0:0:
448,192,52343,1,0,0:0:0:0:
64,192,52560,1,0,0:0:0:0:
320,192,52886,1,0,0:0:0:0:
64,192,53104,1,0,0:0:0:0:
448,192,53321,1,0,0:0:0:0:
64,192,53430,128,0,54408:0:0:0:0:
448,192,53756,128,0,54408:0:0:0:0:
192,192,53973,128,0,54408:0:0:0:0:
320,192,54191,128,0,54408:0:0:0:0:
64,192,54626,1,0,0:0:0:0:
448,192,54952,1,0,0:0:0:0:
64,192,54952,128,0,55821:0:0:0:0:
320,192,55169,1,0,0:0:0:0:
448,192,55495,1,0,0:0:0:0:
192,192,55604,1,0,0:0:0:0:
448,192,56039,128,0,56691:0:0:0:0:
320,192,56147,1,0,0:0:0:0:
64,192,56365,1,0,0:0:0:0:
320,192,56582,1,0,0:0:0:0:
64,192,56908,128,0,57343:0:0:0:0:
320,192,56908,1,0,0:0:0:0:
192,192,57343,128,0,57778:0:0:0:0:
448,192,57343,1,0,0:0:0:0:
448,192,57778,1,0,0:0:0:0:
64,192,57995,128,0,58865:0:0:0:0:
448,192,57995,1,0,0:0:0:0:
192,192,58321,1,0,0:0:0:0:
448,192,58539,1,0,0:0:0:0:
192,192,58756,1,0,0:0:0:0:
448,192,58865,1,0,0:0:0:0:
320,192,59082,1,0,0:0:0:0:
64,192,59299,1,0,0:0:0:0:
448,192,59517,1,0,0:0:0:0:
64,192,59734,1,0,0:0:0:0:
448,192,59952,1,0,0:0:0:0:
64,192,60495,128,0,60930:0:0:0:0:
192,192,60712,128,0,61147:0:0:0:0:
320,192,60930,128,0,61365:0:0:0:0:
448,192,61147,128,0,61473:0:0:0:0:
64,192,61473,1,0,0:0:0:0:
192,192,61691,1,0,0:0:0:0:
448,192,62017,1,0,0:0:0:0:
320,192,62017,128,0,62126:0:0:0:0:
64,192,62234,1,0,0:0:0:0:
192,192,62234,128,0,62343:0:0:0:0:
448,192,62452,1,0,0:0:0:0:
320,192,62452,128,0,62560:0:0:0:0:
192,192,62669,128,0,63104:0:0:0:0:
320,192,62886,1,0,0:0:0:0:
320,192,63104,128,0,63539:0:0:0:0:
64,192,63539,1,0,0:0:0:0:
192,192,63865,128,0,64299:0:0:0:0:
320,192,64299,1,0,0:0:0:0:
320,192,64734,1,0,0:0:0:0:
64,192,64952,1,0,0:0:0:0:
448,192,65169,1,0,0:0:0:0:
320,192,65169,1,0,0:0:0:0:
64,192,65604,1,0,0:0:0:0:
448,192,65821,1,0,0:0:0:0:
192,192,65821,1,0,0:0:0:0:
320,192,66147,1,0,0:0:0:0:
448,192,66473,1,0,0:0:0:0:
64,192,66691,1,0,0:0:0:0:
192,192,66799,1,0,0:0:0:0:
320,192,66908,1,0,0:0:0:0:
448,192,67017,1,0,0:0:0:0:
64,192,67017,1,0,0:0:0:0:
320,192,67560,1,0,0:0:0:0:
64,192,67778,1,0,0:0:0:0:
448,192,67778,1,0,0:0:0:0:
192,192,68104,1,0,0:0:0:0:
448,192,68430,1,0,0:0:0:0:
64,192,68430,1,0,0:0:0:0:
320,192,68756,1,0,0:0:0:0:
192,192,69082,1,0,0:0:0:0:
448,192,69082,1,0,0:0:0:0:
64,192,69408,1,0,0:0:0:0:
448,192,69626,128,0,70495:0:0:0:0:
64,192,69843,128,0,70495:0:0:0:0:
192,192,69952,128,0,70495:0:0:0:0:
320,192,70169,128,0,70495:0:0:0:0:
320,192,70712,1,0,0:0:0:0:
64,192,70930,1,0,0:0:0:0:
192,192,71039,1,0,0:0:0:0:
320,192,71147,1,0,0:0:0:0:
448,192,71256,1,0,0:0:0:0:
64,192,71256,1,0,0:0:0:0:
192,192,71473,128,0,71799:0:0:0:0:
320,192,71582,1,0,0:0:0:0:
320,192,71799,128,0,72126:0:0:0:0:
192,192,72126,1,0,0:0:0:0:
448,192,72452,1,0,0:0:0:0:
64,192,72669,1,0,0:0:0:0:
192,192,72778,1,0,0:0:0:0:
320,192,72886,1,0,0:0:0:0:
448,192,72995,1,0,0:0:0:0:
64,192,72995,1,0,0:0:0:0:
192,192,73321,128,0,73647:0:0:0:0:
320,192,73430,1,0,0:0:0:0:
320,192,73647,128,0,73973:0:0:0:0:
192,192,73973,1,0,0:0:0:0:
64,192,74191,1,0,0:0:0:0:
448,192,74408,1,0,0:0:0:0:
192,192,74517,1,0,0:0:0:0:
320,192,74734,1,0,0:0:0:0:
64,192,74843,1,0,0:0:0:0:
448,192,74952,1,0,0:0:0:0:
320,192,75169,1,0,0:0:0:0:
64,192,75386,1,0,0:0:0:0:
64,192,75821,1,0,0:0:0:0:
448,192,76039,1,0,0:0:0:0:
320,192,76147,1,0,0:0:0:0:
192,192,76256,1,0,0:0:0:0:
64,192,76365,1,0,0:0:0:0:
448,192,76365,1,0,0:0:0:0:
320,192,76691,1,0,0:0:0:0:
64,192,77017,1,0,0:0:0:0:
192,192,77234,128,0,77669:0:0:0:0:
320,192,77669,1,0,0:0:0:0:
448,192,77886,128,0,78321:0:0:0:0:
320,192,78321,1,0,0:0:0:0:
64,192,78647,1,0,0:0:0:0:
448,192,78973,1,0,0:0:0:0:
64,192,79299,1,0,0:0:0:0:
64,192,79517,128,0,79843:0:0:0:0:
448,192,79843,1,0,0:0:0:0:
320,192,80169,1,0,0:0:0:0:
64,192,80278,1,0,0:0:0:0:
448,192,80495,1,0,0:0:0:0:
192,192,80712,1,0,0:0:0:0:
64,192,81039,1,0,0:0:0:0:
320,192,81039,1,0,0:0:0:0:
448,192,81365,1,0,0:0:0:0:
320,192,81473,1,0,0:0:0:0:
192,192,81799,128,0,82126:0:0:0:0:
320,192,82126,128,0,82452:0:0:0:0:
64,192,82126,1,0,0:0:0:0:
448,192,82452,1,0,0:0:0:0:
