osu file format v14

[General]
AudioFilename: Setsuna no Kajitsu.mp3
AudioLeadIn: 0
PreviewTime: 61853
Countdown: 0
SampleSet: Soft
StackLeniency: 0.4
Mode: 0
LetterboxInBreaks: 0
WidescreenStoryboard: 0

[Editor]
DistanceSpacing: 0.5
BeatDivisor: 4
GridSize: 16
TimelineZoom: 3.699997

[Metadata]
Title:Setsuna no Kajitsu
TitleUnicode:刹那の果実
Artist:Maon Kurosaki
ArtistUnicode:黒崎真音
Creator:lit120
Version:Lasse's Extra
Source:グリザイアの楽園
Tags:tv size opening grisaia no rakuen -hakurei- lgv894 lasse beomsan karia davided
BeatmapID:1077527
BeatmapSetID:506544

[Difficulty]
HPDrainRate:6
CircleSize:4
OverallDifficulty:8.2
ApproachRate:9.2
SliderMultiplier:1.76
SliderTickRate:1

[Events]
//Background and Video events
Video,0,"video (2).flv"
0,0,"lasse.jpg",0,0
//Break Periods
//Storyboard Layer 0 (Background)
//Storyboard Layer 1 (Fail)
//Storyboard Layer 2 (Pass)
//Storyboard Layer 3 (Foreground)
//Storyboard Sound Samples

[TimingPoints]
614,368.098159509202,4,2,1,30,1,0
614,-200,4,2,1,30,0,0
982,-166.666666666667,4,2,1,30,0,0
1350,-142.857142857143,4,2,1,30,0,0
1902,-125,4,2,1,30,0,0
2086,357.142857142857,4,2,1,30,1,0
2086,-200,4,2,1,30,0,0
3335,-142.857142857143,4,2,1,30,0,0
3514,337.078651685393,4,2,1,35,1,0
3514,-200,4,2,1,35,0,0
4188,-153.846153846154,4,2,1,35,0,0
4525,-125,4,2,1,35,0,0
4862,306.122448979592,4,2,1,40,1,0
4862,-142.857142857143,4,2,1,40,0,0
5168,-111.111111111111,4,2,1,40,0,0
6086,297.029702970297,4,2,1,45,1,0
6680,-133.333333333333,4,2,1,50,0,0
7125,-114.942528735632,4,2,1,50,0,0
7422,-142.857142857143,4,2,1,50,0,0
7645,-142.857142857143,4,2,1,20,0,0
8610,-125,4,2,1,55,0,0
9056,-111.111111111111,4,2,1,55,0,0
9279,-111.111111111111,4,2,1,5,0,0
9353,-111.111111111111,4,2,1,60,0,0
9873,-111.111111111111,4,2,1,5,0,0
9947,-111.111111111111,4,2,2,60,0,0
10244,-142.857142857143,4,2,2,60,0,0
10318,-142.857142857143,4,2,2,5,0,0
10392,-66.6666666666667,4,2,2,60,0,0
10467,-66.6666666666667,4,2,2,34,0,0
10689,-100,4,2,2,60,0,1
10986,-100,4,2,2,60,0,0
12249,-100,4,2,2,5,0,0
12323,-100,4,2,2,60,0,0
13734,-100,4,2,2,5,0,0
13808,-100,4,2,2,60,0,0
18189,-100,4,2,2,5,0,0
18264,-100,4,2,2,60,0,0
18412,-90.9090909090909,4,2,2,60,0,0
18709,-90.9090909090909,4,2,2,5,0,0
18858,-83.3333333333333,4,2,2,60,0,0
19155,-83.3333333333333,4,2,2,5,0,0
19303,-76.9230769230769,4,2,2,60,0,0
19749,-76.9230769230769,4,2,21,60,0,0
20343,-111.111111111111,4,2,2,60,0,0
22942,-111.111111111111,4,2,2,5,0,0
23016,-111.111111111111,4,2,2,60,0,0
23239,-111.111111111111,4,2,2,5,0,0
23313,-111.111111111111,4,2,2,60,0,0
24427,-111.111111111111,4,2,2,5,0,0
24501,-111.111111111111,4,2,2,60,0,0
24947,-125,4,2,2,60,0,0
25095,-125,4,2,2,30,0,0
25244,-125,4,2,2,60,0,0
25541,-125,4,2,2,30,0,0
25689,-125,4,2,2,60,0,0
26284,-90.9090909090909,4,2,2,60,0,0
27175,-111.111111111111,4,2,2,60,0,0
27397,-111.111111111111,4,2,2,5,0,0
27472,-90.9090909090908,4,2,2,60,0,0
27694,-90.9090909090908,4,2,2,5,0,0
27769,-90.9090909090908,4,2,2,60,0,0
29551,-111.111111111111,4,2,2,60,0,0
29848,-99.9999999999999,4,2,2,60,0,0
30962,-99.9999999999999,4,2,2,5,0,0
31036,-99.9999999999999,4,2,2,60,0,0
32224,-142.857142857143,4,2,2,60,0,0
32447,-142.857142857143,4,2,2,5,0,0
32521,-83.3333333333333,4,2,2,60,0,0
32967,-100,4,2,2,60,0,0
33264,-90.9090909090909,4,2,2,60,0,0
33709,-111.111111111111,4,2,2,60,0,0
34303,-142.857142857143,4,2,2,60,0,0
34526,-142.857142857143,4,2,2,5,0,0
34600,-125,4,2,2,60,0,0
35788,-100,4,2,2,60,0,0
36011,-100,4,2,2,5,0,0
36086,-100,4,2,2,60,0,0
36234,-125,4,2,2,60,0,0
38610,-83.3333333333333,4,2,2,60,0,0
38833,-83.3333333333333,4,2,2,5,0,0
38907,-83.3333333333333,4,2,2,60,0,0
39056,-100,4,2,2,60,0,0
39353,-100,4,2,2,60,0,0
39576,-100,4,2,2,5,0,0
39650,-100,4,2,2,60,0,0
41729,-149.253731343284,4,2,2,60,0,0
41952,-149.253731343284,4,2,2,5,0,0
42026,-100,4,2,2,60,0,0
42249,-100,4,2,2,5,0,0
42323,-100,4,2,2,60,0,0
44031,-100,4,2,2,5,0,0
44105,-100,4,2,2,60,0,0
44402,-76.9230769230769,4,2,2,60,0,0
44625,-76.9230769230769,4,2,2,5,0,0
44699,-100,4,2,2,60,0,0
45145,-86.9565217391304,4,2,2,60,0,0
45590,-100,4,2,2,60,0,0
46482,-90.9090909090909,4,2,2,60,0,0
46704,-90.9090909090909,4,2,2,5,0,0
46779,-100,4,2,2,60,0,0
47670,-100,4,2,21,60,0,0
47818,-100,4,2,2,60,0,0
47967,-100,4,2,21,60,0,0
48115,-100,4,2,2,60,0,0
48264,-100,4,2,21,58,0,0
48412,-100,4,2,2,56,0,0
48561,-121.359223300971,4,2,21,54,0,0
48709,-100,4,2,2,52,0,0
48858,-100,4,2,21,50,0,0
49155,-58.8235294117647,4,2,2,60,0,1
49378,-58.8235294117647,4,2,2,5,0,0
49452,-117.647058823529,4,2,2,60,0,0
51160,-117.647058823529,4,2,2,5,0,0
51234,-117.647058823529,4,2,2,60,0,0
51457,-117.647058823529,4,2,2,5,0,0
51531,-58.8235294117647,4,2,2,60,0,1
51754,-58.8235294117647,4,2,2,5,0,0
51828,-100,4,2,2,60,0,0
53610,-90.9090909090908,4,2,2,60,0,0
54501,-81.3008130081301,4,2,2,60,0,0
55392,-74.6268656716418,4,2,2,60,0,0
58363,-71.4285714285714,4,2,2,60,0,0
60590,-71.4285714285714,4,2,21,60,0,0
60887,-71.4285714285714,4,2,21,65,0,0
61185,-142.857142857143,4,2,21,65,0,0
61482,-71.4285714285714,4,2,21,60,0,0
61630,-100,4,2,2,60,0,0
61853,-100,4,2,2,5,0,0
61927,-86.9565217391304,4,2,2,60,0,1
62150,-86.9565217391304,4,2,2,5,0,0
62224,-86.9565217391304,4,2,2,60,0,0
63338,-86.9565217391304,4,2,2,5,0,0
63412,-86.9565217391304,4,2,2,60,0,0
66383,-86.9565217391304,4,2,1,60,0,0
66680,-86.9565217391304,4,2,2,60,0,0
69279,-86.9565217391304,4,2,2,5,0,0
69353,-86.9565217391304,4,2,2,60,0,0
69576,-86.9565217391304,4,2,2,5,0,0
69650,-86.9565217391304,4,2,2,60,0,0
70912,-86.9565217391304,4,2,2,5,0,0
70986,-86.9565217391304,4,2,2,48,0,1
71061,-86.9565217391304,4,2,2,52,0,1
71135,-86.9565217391304,4,2,2,52,0,1
71209,-86.9565217391304,4,2,2,54,0,1
71284,-86.9565217391304,4,2,2,56,0,1
71358,-86.9565217391304,4,2,2,58,0,1
71432,-86.9565217391304,4,2,2,60,0,0
72843,-86.9565217391304,4,2,2,5,0,0
72917,-86.9565217391304,4,2,2,60,0,0
73288,-86.9565217391304,4,2,2,5,0,0
73363,-86.9565217391304,4,2,2,60,0,0
73808,-86.9565217391304,4,2,2,60,0,0
74922,-86.9565217391304,4,2,2,5,0,0
74996,-74.0740740740741,4,2,2,60,0,1
75293,-74.0740740740741,4,2,2,60,0,1
75442,-60.9756097560976,4,2,2,60,0,1
75739,-60.9756097560976,4,2,2,60,0,1
75887,-50,4,2,2,60,0,1
76110,-50,4,2,2,5,0,0
76185,-86.9565217391304,4,2,2,60,0,0
76482,-86.9565217391304,4,2,1,60,0,0
76630,-86.9565217391304,4,2,2,60,0,0
76927,-66.6666666666667,4,2,2,60,0,0
77076,-66.6666666666667,4,2,2,60,0,0
77224,-100,4,2,2,60,0,0
78412,-86.9565217391304,4,2,2,60,0,0
78858,-100,4,2,2,60,0,0
79600,-86.9565217391304,4,2,2,60,0,0
79897,-86.9565217391304,4,2,2,55,0,0
80046,-86.9565217391304,4,2,2,55,0,1
80343,-86.9565217391304,4,2,21,60,0,1
80937,-100,4,2,2,60,0,0
85541,-76.9230769230769,4,2,2,60,0,0
85986,-100,4,2,2,60,0,0
88066,-100,4,2,21,60,0,1
88511,-100,4,2,21,60,0,1
88660,-1000,4,1,23,60,0,1
88808,-1000,4,2,2,40,0,1
88957,-1000,4,2,21,60,0,1
89105,-1000,4,2,21,60,0,0

[Colours]
Combo1 : 254,133,208
Combo2 : 98,185,249
Combo3 : 255,87,83
Combo4 : 254,237,114

[HitObjects]
138,156,614,6,0,P|167:151|193:155,1,44,2|0,0:0|0:0,0:0:0:0:
160,109,982,2,0,P|189:111|213:122,1,52.7999983886719,0|0,0:0|0:0,0:0:0:0:
193,69,1350,2,0,P|224:80|249:99,1,61.5999981201172,2|0,0:0|0:0,0:0:0:0:
234,37,1718,1,0,0:0:0:0:
234,37,1902,2,0,P|263:57|285:85,1,70.4,0|2,0:0|0:0,0:0:0:0:
231,319,2443,6,0,P|202:324|176:320,1,44,0|0,0:0|0:0,0:0:0:0:
187,322,2800,1,2,0:0:0:0:
331,337,3157,1,2,0:0:0:0:
331,337,3335,2,0,P|363:342|392:338,1,61.5999981201172,0|2,0:0|0:0,0:0:0:0:
363,229,3682,5,0,0:0:0:0:
363,229,3851,2,0,L|363:182,1,44,0|0,0:0|0:0,0:0:0:0:
399,206,4188,2,0,L|383:150,1,57.1999973815919,2|0,0:0|0:0,0:0:0:0:
427,174,4525,2,0,L|390:112,1,70.4,2|2,0:0|0:0,0:0:0:0:
285,0,4862,6,0,L|322:62,1,61.5999981201172,2|0,0:0|0:0,0:0:0:0:
224,48,5168,2,0,L|246:128,1,79.1999975830079,0|0,0:0|0:0,0:0:0:0:
215,196,5397,1,0,0:0:0:0:
212,199,5474,1,2,0:0:0:0:
118,258,5627,1,0,0:0:0:0:
21,177,5780,1,2,0:0:0:0:
79,37,5933,1,0,0:0:0:0:
32,190,6086,5,2,0:0:0:0:
129,271,6234,1,2,0:0:0:0:
223,212,6383,1,0,0:0:0:0:
299,262,6531,1,0,0:0:0:0:
272,382,6680,6,0,P|301:339|289:244,1,132.000005035401,2|0,0:0|0:0,0:0:0:0:
248,125,7125,2,0,P|295:156|399:143,1,153.120001285034,2|0,0:0|0:0,0:0:0:0:
398,243,7571,6,0,L|393:298,13,30.7999990600586,2|0|0|0|0|0|0|0|0|0|0|0|0|0,0:0|0:0|0:0|0:0|0:0|0:0|0:0|0:0|0:0|0:0|0:0|0:0|0:0|0:0,0:0:0:0:
378,355,8610,6,2,P|357:348|340:336,4,35.2,2|0|0|0|0,0:0|0:0|0:0|0:0|0:0,0:1:0:0:
134,355,9056,6,2,P|186:326|192:260,1,118.799996374512,2|0,0:0|0:0,0:1:0:0:
182,247,9353,1,2,0:0:0:0:
256,32,9501,1,2,0:0:0:0:
256,32,9798,6,2,L|256:96,1,39.5999987915039,0|0,0:0|0:0,0:1:0:0:
169,223,9947,2,2,L|197:194,1,39.5999987915039,8|8,0:0|0:0,0:1:0:0:
343,223,10095,2,2,L|314:194,1,39.5999987915039,8|8,0:0|0:0,0:1:0:0:
256,320,10244,6,2,L|256:260,1,30.7999990600586,8|0,0:0|0:0,0:1:0:0:
256,98,10392,6,2,L|256:23,1,66.0000025177003,2|0,0:0|0:0,0:1:0:0:
256,98,10689,6,2,B|218:114|186:92|186:92|155:107|155:107|123:87|64:102,1,176,6|2,0:0|0:0,0:1:0:0:
93,345,11135,1,8,0:0:0:0:
252,277,11284,1,0,0:0:0:0:
114,174,11432,2,0,B|86:181|59:170|59:170|81:183|98:199,1,88,2|2,0:0|0:0,0:0:0:0:
192,359,11729,1,8,0:0:0:0:
286,180,11878,1,0,0:0:0:0:
417,354,12026,6,2,B|378:368|347:356|340:335|340:335|370:323|393:337,1,132,2|0,0:0|0:0,0:1:0:0:
417,354,12323,1,8,0:0:0:0:
266,281,12472,1,0,0:0:0:0:
512,200,12620,1,2,0:0:0:0:
286,180,12769,2,0,B|233:191|233:191|270:203,1,88,2|8,0:0|0:0,0:0:0:0:
445,229,13066,6,2,P|510:207|446:161,1,176,2|2,0:0|0:0,0:1:0:0:
329,275,13511,2,0,B|289:275|289:275|266:281|266:281|240:275|240:275|188:275,1,132,8|0,0:0|0:0,0:0:0:0:
161,293,13808,1,2,0:0:0:0:
309,372,13957,2,0,L|416:371,1,88,2|8,0:0|0:0,0:0:0:0:
335,138,14254,6,2,P|285:205|329:275,1,176,2|2,0:0|0:0,0:1:0:0:
221,131,14699,2,0,P|178:124|135:130,1,88,8|8,0:0|0:0,0:0:0:0:
69,180,14922,1,8,0:0:0:0:
53,201,14996,1,8,0:0:0:0:
280,73,15145,1,2,0:0:0:0:
280,73,15442,6,2,P|367:29|437:60,1,176,6|2,0:0|0:0,0:1:0:0:
382,216,15887,2,0,L|364:130,1,88,8|0,0:0|0:0,0:0:0:0:
273,271,16185,1,2,0:0:0:0:
382,216,16333,1,2,0:0:0:0:
280,73,16482,1,8,0:0:0:0:
260,294,16630,6,2,P|165:317|104:271,1,176,6|2,0:0|0:0,0:1:0:0:
103,69,17076,1,8,0:0:0:0:
193,216,17224,1,0,0:0:0:0:
17,122,17373,1,2,0:0:0:0:
194,114,17521,1,2,0:0:0:0:
7,239,17670,1,8,0:0:0:0:
103,69,17818,1,0,0:0:0:0:
260,294,17967,6,2,B|212:327|169:314|169:314|190:325|199:342,1,132,6|0,0:0|0:0,0:1:0:0:
136,382,18264,1,0,0:0:0:0:
193,216,18412,6,0,P|270:189|356:255,1,193.600005908203,8|0,0:3|0:0,0:0:0:0:
117,155,18858,2,0,P|212:121|284:191,1,211.199993554688,8|0,0:3|0:0,0:0:0:0:
32,98,19303,2,0,P|129:50|212:121,1,228.799989526368,4|8,0:3|0:0,0:0:0:0:
198,221,19675,1,8,0:0:0:0:
198,221,19749,5,10,0:1:0:0:
0,0,19897,1,10,0:1:0:0:
352,352,20343,6,0,B|324:298|369:240|369:240|398:298,1,158.399995166016,6|0,0:0|0:0,0:0:0:0:
404,163,20788,2,0,B|432:217|386:274|386:274|369:240,1,158.399995166016,2|0,0:0|0:0,0:0:0:0:
336,110,21234,6,0,B|380:63|435:83|435:83|390:65|378:36,1,158.399995166016,2|0,0:0|0:0,0:0:0:0:
493,31,21680,2,0,B|449:78|394:58|394:58|439:76|451:105,1,158.399995166016,2|2,0:0|0:0,0:0:0:0:
512,258,22125,5,8,0:0:0:0:
404,163,22274,1,2,0:0:0:0:
360,320,22422,1,8,0:0:0:0:
331,327,22496,1,8,0:0:0:0:
301,329,22570,1,8,0:0:0:0:
272,325,22644,1,8,0:0:0:0:
244,316,22719,6,0,P|176:292|126:320,1,118.799996374512,6|0,0:0|0:0,0:0:0:0:
47,368,23016,2,0,L|41:243,1,118.799996374512,8|0,0:0|0:0,0:0:0:0:
35,162,23313,1,2,0:0:0:0:
35,162,23462,1,2,0:0:0:0:
199,171,23610,1,8,0:0:0:0:
171,27,23759,6,0,B|93:3|88:75|-12:21,1,158.399995166016,2|2,0:0|0:0,0:0:0:0:
199,171,24204,2,0,B|246:186|285:161|285:161|305:166|306:191|286:194,1,118.799996374512,8|0,0:0|0:0,0:0:0:0:
255,254,24501,1,2,0:0:0:0:
255,254,24650,1,2,0:0:0:0:
394,118,24798,1,8,0:0:0:0:
199,171,24947,6,0,L|102:168,1,70.4,6|0,0:0|0:0,0:0:0:0:
226,44,25244,1,2,0:0:0:0:
128,168,25392,2,0,B|41:164|41:164|105:134,1,140.8,8|2,0:0|0:0,0:0:0:0:
226,44,25838,5,2,0:0:0:0:
128,168,25986,1,8,0:0:0:0:
232,282,26135,1,0,0:0:0:0:
226,44,26284,6,0,B|159:-5|93:49|93:49|141:90,1,193.600005908203,6|8,0:0|0:0,0:0:0:0:
347,273,26729,2,0,B|414:322|480:268|480:268|432:227,1,193.600005908203,2|2,0:0|0:0,0:0:0:0:
195,194,27175,2,0,B|161:239|184:270|184:270|211:255|209:239,1,118.799996374512,8|0,0:0|0:0,0:0:0:0:
195,194,27472,6,0,B|133:218|149:281|149:281|175:275|191:254,1,145.200004431152,6|0,0:0|0:0,0:0:0:0:
195,194,27769,1,8,0:0:0:0:
96,121,27917,2,0,L|-8:114,1,96.8000029541017,0|2,0:0|0:0,0:0:0:0:
180,265,28214,1,2,0:0:0:0:
219,112,28363,1,8,0:0:0:0:
180,265,28511,1,2,0:0:0:0:
96,121,28660,5,12,0:0:0:0:
180,265,28808,1,2,0:0:0:0:
219,112,28957,1,2,0:0:0:0:
71,277,29105,2,0,P|26:236|93:260,1,193.600005908203,12|0,0:0|0:0,0:0:0:0:
61,241,29551,2,0,B|50:319,1,79.1999975830079,4|4,0:3|0:3,0:0:0:0:
124,62,29848,6,0,B|159:106|159:106|169:193|169:193|194:142,1,176,6|0,0:0|0:0,0:0:0:0:
228,295,30293,2,0,B|192:252|192:252|183:164|183:164|168:193,1,176,2|0,0:0|0:0,0:0:0:0:
324,103,30739,6,0,B|357:89|388:101|388:101|428:123|467:107,1,132,2|0,0:0|0:0,0:0:0:0:
512,61,31036,1,0,0:0:0:0:
463,188,31185,1,2,0:0:0:0:
300,178,31333,1,0,0:0:0:0:
262,46,31482,1,0,0:0:0:0:
168,191,31630,5,2,0:0:0:0:
262,46,31779,1,2,0:0:0:0:
129,64,31927,2,0,L|39:57,1,88,8|0,0:0|0:0,0:0:0:0:
168,191,32224,6,0,L|271:199,1,92.3999971801759,6|0,0:0|0:0,0:0:0:0:
266,286,32521,2,2,B|294:244|355:238|355:238|293:240|245:182,1,211.199993554688,8|2,0:0|0:0,0:1:0:0:
129,64,32967,2,0,L|39:57,1,88,2|8,0:0|0:0,0:0:0:0:
290,30,33264,6,2,B|378:-1|396:52|434:56|451:28|440:6|404:10,1,193.600005908203,2|2,0:0|0:0,0:1:0:0:
335,196,33709,2,0,P|329:157|336:119,1,79.1999975830079,8|0,0:0|0:0,0:0:0:0:
490,276,34006,5,2,0:0:0:0:
490,276,34155,1,2,0:0:0:0:
335,196,34303,2,0,L|218:181,1,92.3999971801759,8|0,0:0|0:0,0:0:0:0:
46,315,34600,6,0,B|87:330|87:330|186:313,1,140.8,6|8,0:0|0:0,0:0:0:0:
113,173,35046,1,0,0:0:0:0:
113,173,35194,2,0,L|103:254,1,70.4,2|2,0:0|0:0,0:0:0:0:
264,365,35491,2,0,L|272:295,1,70.4,8|0,0:0|0:0,0:0:0:0:
113,173,35788,6,0,B|103:203|128:234|128:234|149:200|138:171,1,132,6|0,0:0|0:0,0:0:0:0:
137,170,36086,1,8,0:0:0:0:
272,295,36234,2,0,L|362:291,2,70.4,0|0|2,0:0|0:0|0:0,0:0:0:0:
223,88,36680,1,8,0:0:0:0:
272,295,36828,1,0,0:0:0:0:
337,74,36977,6,0,B|369:49|369:49|353:179,1,140.8,6|8,0:0|0:0,0:0:0:0:
276,299,37422,1,0,0:0:0:0:
276,299,37571,2,0,L|196:292,1,70.4,2|2,0:0|0:0,0:0:0:0:
337,74,37868,2,0,L|416:79,1,70.4,8|8,0:0|0:0,0:0:0:0:
486,82,38090,1,8,0:0:0:0:
508,83,38165,5,8,0:0:0:0:
413,253,38313,1,8,0:0:0:0:
512,87,38610,6,2,B|496:125|496:125|512:54|504:-23,1,158.399995166016,6|0,0:0|0:0,0:1:0:0:
512,87,38907,1,2,0:0:0:0:
413,253,39056,1,8,0:0:0:0:
53,147,39353,6,0,P|37:79|79:23,1,132,6|0,0:0|0:0,0:0:0:0:
116,96,39650,2,0,L|244:102,1,88,8|0,0:0|0:0,0:0:0:0:
68,29,39947,1,2,0:0:0:0:
203,100,40095,2,0,L|331:106,1,88,2|8,0:0|0:0,0:0:0:0:
62,313,40392,6,0,B|69:245|69:245|44:215|44:215|51:147,1,176,2|2,0:0|0:0,0:0:0:0:
203,100,40838,2,0,L|290:104,1,88,8|0,0:0|0:0,0:0:0:0:
137,220,41135,2,0,L|49:215,1,88,2|2,0:0|0:0,0:0:0:0:
189,346,41432,2,0,L|276:351,1,88,10|0,0:0|0:0,0:0:0:0:
421,214,41729,6,0,P|462:198|505:198,1,88.4399958165896,2|0,0:0|0:0,0:0:0:0:
421,215,42026,2,0,B|397:173|418:124|418:124|462:156,1,132,8|0,0:0|0:0,0:0:0:0:
421,215,42323,1,2,0:0:0:0:
365,324,42472,2,0,P|295:322|264:309,1,88,2|8,0:0|0:0,0:0:0:0:
157,131,42769,6,0,P|184:221|112:286,1,176,2|2,0:0|0:0,0:0:0:0:
87,80,43214,2,0,P|118:52|164:44,1,88,8|0,0:0|0:0,0:0:0:0:
273,179,43511,1,2,0:0:0:0:
273,179,43660,1,2,0:0:0:0:
100,198,43808,6,0,B|53:189|0:199|0:199|29:189|51:175,1,132,8|0,0:0|0:0,0:0:0:0:
157,131,44105,1,2,0:0:0:0:
450,370,44402,6,0,B|487:310|449:254|449:254|436:270|416:303,1,171.599992144776,12|0,0:0|0:0,0:0:0:0:
450,370,44699,1,0,0:0:0:0:
501,199,44848,2,0,P|462:177|419:180,1,88,2|8,0:0|0:0,0:0:0:0:
259,334,45145,6,0,P|185:297|271:266,1,202.400003860474,6|2,0:0|0:0,0:0:0:0:
117,350,45590,2,0,P|59:357|19:342,1,88,8|0,0:0|0:0,0:0:0:0:
144,212,45887,2,0,P|179:258|186:300,1,88,2|2,0:0|0:0,0:0:0:0:
11,258,46185,2,0,P|33:204|66:177,1,88,8|0,0:0|0:0,0:0:0:0:
252,149,46482,6,0,B|297:133|335:161|335:161|300:181|269:166,1,145.200004431152,6|0,0:0|0:0,0:0:0:0:
252,149,46779,1,8,0:0:0:0:
116,94,46927,2,0,B|108:66|108:66|117:0,2,88,0|2|2,0:0|0:0|0:0,0:0:0:0:
185,286,47373,1,8,0:0:0:0:
54,184,47521,1,2,0:0:0:0:
256,153,47670,5,2,0:0:0:0:
256,153,47818,1,2,0:0:0:0:
189,289,47967,1,10,0:0:0:0:
189,289,48115,1,0,0:0:0:0:
58,188,48264,1,2,0:0:0:0:
58,188,48412,1,2,0:0:0:0:
256,153,48561,2,0,B|301:137|339:165|339:165|304:185|273:170,1,145.200004431152,10|10,0:0|0:0,0:0:0:0:
73,50,49155,6,2,B|43:8|43:8|206:9|206:9|158:82,1,299.200005706787,12|0,0:0|0:0,0:1:0:0:
76,165,49600,1,2,0:0:0:0:
134,270,49749,1,8,0:0:0:0:
238,191,49897,6,0,B|319:179|303:256|402:222,1,149.600002853394,2|2,0:0|0:0,0:0:0:0:
396,79,50343,2,0,B|373:98|373:98|365:141,1,74.8000014266968,8|0,0:0|0:0,0:0:0:0:
380,231,50566,1,8,0:0:0:0:
383,234,50640,1,8,0:0:0:0:
505,215,50788,1,0,0:0:0:0:
501,323,50937,6,0,B|517:290|517:290|505:215,1,112.200002140045,8|0,0:0|0:0,0:0:0:0:
501,323,51234,2,0,B|463:312|463:312|369:318,1,112.200002140045,2|0,0:0|0:0,0:0:0:0:
310,333,51531,6,2,B|278:285|278:285|409:286|409:286|376:339,1,224.40000428009,12|0,0:0|0:0,0:1:0:0:
327,207,51828,2,0,L|314:81,1,88,0|2,0:0|0:0,0:0:0:0:
185,57,52125,1,8,0:0:0:0:
96,267,52274,6,0,B|43:338|43:338|0:262,1,176,2|2,0:0|0:0,0:0:0:0:
68,139,52719,2,0,L|64:40,1,88,8|0,0:0|0:0,0:0:0:0:
96,267,53016,2,0,L|100:366,1,88,8|0,0:0|0:0,0:0:0:0:
183,147,53313,1,8,0:2:0:0:
183,147,53462,1,8,0:2:0:0:
311,251,53610,6,0,B|399:282|417:229|455:225|472:253|461:275|425:271,1,193.600005908203,6|2,0:0|0:0,0:0:0:0:
192,275,54056,1,0,0:0:0:0:
192,275,54204,2,0,L|70:264,1,96.8000029541017,8|0,0:0|0:0,0:0:0:0:
190,108,54501,5,0,0:0:0:0:
311,251,54650,2,0,B|411:286|431:225|475:221|494:253|481:278|440:273,1,216.480003303223,8|8,0:0|0:0,0:0:0:0:
192,275,55095,2,0,L|70:264,1,108.240001651611,2|0,0:0|0:0,0:0:0:0:
197,69,55392,5,8,0:0:0:0:
311,251,55541,2,0,B|420:289|442:223|489:218|510:253|497:280|452:275,1,235.839988844239
197,69,55986,5,6,0:0:0:0:
311,251,56135,1,0,0:0:0:0:
197,69,56284,1,0,0:0:0:0:
311,251,56432,1,2,0:0:0:0:
316,67,56581,5,0,0:0:0:0:
201,251,56729,1,0,0:0:0:0:
316,67,56878,1,2,0:0:0:0:
201,251,57026,1,2,0:0:0:0:
183,57,57175,5,6,0:0:0:0:
322,264,57323,1,0,0:0:0:0:
183,57,57472,1,0,0:0:0:0:
322,264,57620,1,2,0:0:0:0:
329,57,57769,5,0,0:0:0:0:
190,264,57917,1,0,0:0:0:0:
329,57,58066,1,2,0:0:0:0:
190,264,58214,1,2,0:0:0:0:
402,192,58363,6,0,B|449:156|449:156|388:135,1,123.199996240234,6|0,0:0|0:0,0:0:0:0:
139,109,58660,1,0,0:0:0:0:
388,135,58808,1,2,0:0:0:0:
139,109,58957,1,0,0:0:0:0:
335,256,59105,5,2,0:0:0:0:
256,32,59254,1,0,0:0:0:0:
201,352,59402,6,0,B|183:272|200:188|200:188|204:230|200:284,1,246.399992480469,6|2,0:0|0:0,0:0:0:0:
412,319,59848,6,0,B|446:316|470:292|470:292|436:274|414:285,1,123.199996240234,8|0,0:0|0:0,0:0:0:0:
139,109,60145,2,0,B|105:106|81:82|81:82|115:64|136:75,1,123.199996240234,8|0,0:0|0:0,0:0:0:0:
414,285,60442,5,0,0:0:0:0:
136,75,60590,1,6,0:1:0:0:
136,75,60887,5,10,0:1:0:0:
360,201,61036,1,10,0:1:0:0:
138,331,61185,2,2,L|74:329,1,61.5999981201172,10|0,0:1|0:0,0:1:0:0:
356,281,61482,5,2,0:0:0:0:
356,281,61556,1,2,0:0:0:0:
356,281,61630,2,2,B|379:301|379:301|360:252|360:193,1,132,8|0,0:0|0:0,0:1:0:0:
433,173,61927,6,0,P|383:121|286:166,1,151.800002895355,6|0,0:0|0:0,0:0:0:0:
279,210,62224,1,8,0:0:0:0:
98,255,62373,2,0,P|43:254|-12:231,1,101.200001930237,2|0,0:0|0:0,0:0:0:0:
356,281,62670,2,0,P|403:264|453:264,1,101.200001930237,2|8,0:0|0:0,0:0:0:0:
152,154,62967,5,8,0:0:0:0:
152,154,63041,1,8,0:0:0:0:
152,154,63115,2,0,B|125:113|159:67|159:67|192:108|176:138,1,151.800002895355,6|0,0:0|0:0,0:0:0:0:
152,154,63412,1,8,0:0:0:0:
356,281,63561,2,0,P|406:280|453:264,1,101.200001930237,2|0,0:0|0:0,0:0:0:0:
367,62,63858,5,2,0:0:0:0:
453,264,64006,1,8,0:0:0:0:
367,62,64155,1,0,0:0:0:0:
180,194,64303,6,0,B|149:134|183:56|183:56|184:87|177:116,1,202.400003860474,6|8,0:0|0:0,0:0:0:0:
112,356,64749,1,0,0:0:0:0:
180,194,64897,1,2,0:0:0:0:
363,288,65046,1,2,0:0:0:0:
363,288,65120,1,2,0:0:0:0:
363,288,65194,2,0,P|416:304|461:297,1,101.200001930237,8|0,0:0|0:0,0:0:0:0:
180,194,65491,6,0,P|127:178|82:185,1,101.200001930237,2|2,0:0|0:0,0:0:0:0:
112,356,65788,1,8,0:0:0:0:
180,194,65937,2,0,B|140:101|140:101|83:184,1,202.400003860474,2|2,0:0|0:0,0:0:0:0:
112,356,66383,5,10,0:0:0:0:
152,372,66457,1,2,0:0:0:0:
196,374,66531,1,2,0:0:0:0:
238,361,66605,1,2,0:0:0:0:
273,334,66680,6,0,P|311:320|385:337,1,101.200001930237,6|0,0:0|0:0,0:0:0:0:
180,194,66977,2,0,P|147:169|72:164,1,101.200001930237,8|0,0:0|0:0,0:0:0:0:
385,99,67274,2,0,P|414:71|489:58,1,101.200001930237,2|2,0:0|0:0,0:0:0:0:
154,13,67571,1,8,0:0:0:0:
267,244,67719,6,0,B|312:169|292:101|292:101|237:142,1,202.400003860474,6|2,0:0|0:0,0:0:0:0:
92,164,68090,1,2,0:0:0:0:
92,164,68165,2,0,L|-7:144,1,101.200001930237,8|0,0:0|0:0,0:0:0:0:
267,244,68462,2,0,L|367:236,1,101.200001930237,2|2,0:0|0:0,0:0:0:0:
101,362,68759,2,0,L|0:366,1,101.200001930237,8|0,0:0|0:0,0:0:0:0:
368,236,69056,6,0,B|470:228|470:228|425:257,1,151.800002895355,6|0,0:0|0:0,0:0:0:0:
368,236,69353,2,0,B|266:244|266:244|311:215,1,151.800002895355,8|0,0:0|0:0,0:0:0:0:
373,337,69650,2,0,L|367:235,1,101.200001930237,2|2,0:0|0:0,0:0:0:0:
247,130,69947,1,8,0:0:0:0:
18,189,70095,6,0,B|10:47|10:47|49:104,1,202.400003860474,6|2,0:0|0:0,0:0:0:0:
99,353,70541,1,8,0:0:0:0:
146,143,70689,2,0,P|59:145|15:200,1,151.800002895355,2|0,0:0|0:0,0:0:0:0:
38,278,70986,5,10,0:0:0:0:
88,274,71061,1,8,0:0:0:0:
138,271,71134,1,8,0:0:0:0:
189,268,71209,1,8,0:0:0:0:
239,265,71283,1,8,0:0:0:0:
290,261,71357,1,8,0:0:0:0:
340,258,71432,5,6,0:0:0:0:
253,183,71581,1,0,0:0:0:0:
276,343,71729,1,8,0:0:0:0:
345,169,71878,2,0,B|296:157|296:157|253:182,1,101.200001930237,2|0,0:0|0:0,0:0:0:0:
411,357,72175,2,0,B|460:369|460:369|503:344,1,101.200001930237,2|8,0:0|0:0,0:0:0:0:
264,193,72472,5,8,0:0:0:0:
264,193,72546,1,8,0:0:0:0:
264,193,72620,2,0,B|206:189|206:189|150:202|150:202|183:169,1,151.800002895355,6|0,0:0|0:0,0:0:0:0:
264,193,72917,1,8,0:0:0:0:
404,272,73066,2,0,B|453:284|453:284|496:259,1,101.200001930237,2|0,0:0|0:0,0:0:0:0:
436,40,73363,5,2,0:0:0:0:
496,259,73511,1,8,0:0:0:0:
436,40,73660,1,0,0:0:0:0:
264,193,73808,6,0,B|189:198|189:198|155:237|155:237|80:243,1,202.400003860474,6|8,0:0|0:0,0:0:0:0:
1,33,74254,1,2,0:0:0:0:
80,243,74402,1,0,0:0:0:0:
223,49,74551,1,2,0:0:0:0:
223,49,74625,1,2,0:0:0:0:
223,49,74699,2,0,B|199:36|199:36|237:91|195:153,1,151.800002895355,8|0,0:0|0:0,0:0:0:0:
158,202,74996,6,2,L|430:216,1,237.600000906372,2|0,0:0|0:0,0:1:0:0:
512,64,75442,6,2,L|223:49,1,288.640004404297,2|0,0:0|0:0,0:1:0:0:
158,202,75887,6,2,L|430:216,1,264,2|0,0:0|0:0,0:1:0:0:
448,217,76185,5,8,0:0:0:0:
196,47,76333,1,8,0:0:0:0:
272,208,76482,5,8,0:3:0:0:
408,66,76630,1,8,0:3:0:0:
408,66,76704,1,8,0:3:0:0:
408,66,76779,1,8,0:3:0:0:
427,304,76927,6,0,L|251:294,1,132.000005035401,8|0,0:0|0:0,0:0:0:0:
448,218,77224,6,0,L|272:208,1,176,6|8,0:0|0:0,0:0:0:0:
156,133,77670,2,0,L|53:127,1,88,0|0,0:0|0:0,0:0:0:0:
9,185,77892,1,8,0:0:0:0:
1,210,77967,1,8,0:0:0:0:
0,21,78115,1,6,0:0:0:0:
93,285,78412,6,0,L|306:297,1,202.400003860474,6|0,0:0|0:0,0:0:0:0:
394,175,78858,6,0,L|411:64,1,88,2|0,0:3|0:0,0:0:0:0:
118,175,79155,2,0,L|100:64,1,88,2|0,0:3|0:0,0:0:0:0:
256,23,79452,5,2,0:3:0:0:
256,226,79600,6,0,L|256:2,1,202.400003860474,6|8,0:0|0:0,0:0:0:0:
256,19,79972,1,8,0:0:0:0:
256,15,80046,5,8,0:2:0:0:
118,175,80194,1,8,0:2:0:0:
227,355,80343,1,10,0:1:0:0:
431,306,80491,1,8,0:1:0:0:
447,96,80640,1,10,0:1:0:0:
256,15,80788,1,8,0:1:0:0:
227,355,80937,6,0,L|105:349,1,88,6|0,0:0|0:0,0:0:0:0:
51,345,81234,2,0,L|139:350,1,88,2|0,0:0|0:0,0:0:0:0:
227,355,81531,2,0,L|402:363,1,176,8|0,0:0|0:0,0:0:0:0:
489,367,81977,1,8,0:0:0:0:
367,276,82125,5,0,0:0:0:0:
506,216,82274,1,8,0:0:0:0:
385,126,82422,2,0,L|297:121,1,88,2|0,0:0|0:0,0:0:0:0:
416,51,82719,2,0,P|456:85|464:126,1,88,8|0,0:0|0:0,0:0:0:0:
266,196,83016,2,0,P|226:162|218:121,1,88,0|0,0:0|0:0,0:0:0:0:
385,126,83313,5,6,0:0:0:0:
304,273,83462,1,0,0:0:0:0:
217,129,83610,2,0,L|129:124,1,88,2|0,0:0|0:0,0:0:0:0:
248,54,83907,2,0,P|288:88|296:129,1,88,8|0,0:0|0:0,0:0:0:0:
98,199,84204,1,8,0:0:0:0:
189,0,84353,1,6,0:0:0:0:
248,54,84650,5,2,0:0:0:0:
98,199,84798,1,8,0:0:0:0:
296,120,84947,1,0,0:0:0:0:
146,265,85095,1,8,0:0:0:0:
344,186,85244,1,2,0:0:0:0:
344,186,85541,6,0,B|385:142|435:133|468:174|468:174|426:210|384:197,1,228.799989526368,6|2,0:0|0:0,0:0:0:0:
146,265,85986,5,8,0:0:0:0:
344,186,86135,1,0,0:0:0:0:
146,265,86284,1,8,0:0:0:0:
344,186,86432,2,0,L|451:191,1,88,0|8,0:0|0:0,0:0:0:0:
53,11,86729,5,2,0:0:0:0:
352,0,88066,5,14,0:1:0:0:
64,94,88214,1,2,0:1:0:0:
158,382,88363,1,10,0:1:0:0:
446,288,88511,1,2,0:1:0:0:
256,192,88660,6,2,L|256:201,1,8.8,6|0,1:1|0:0,0:1:0:0:
508,108,88957,5,10,0:1:0:0:
0,272,89105,1,14,0:1:0:0:
