osu file format v14

[General]
AudioFilename: Setsuna no Kajitsu.mp3
AudioLeadIn: 0
PreviewTime: 61853
Countdown: 0
SampleSet: Soft
StackLeniency: 0.5
Mode: 0
LetterboxInBreaks: 0
WidescreenStoryboard: 0

[Editor]
Bookmarks: 614,6680,10689,20343,29848,39353,48858,55986,61927,71432,80937,89105
DistanceSpacing: 1.2
BeatDivisor: 4
GridSize: 8
TimelineZoom: 3.199999

[Metadata]
Title:Setsuna no Kajitsu
TitleUnicode:刹那の果実
Artist:Maon Kurosaki
ArtistUnicode:黒崎真音
Creator:lit120
Version:LGV's Insane
Source:グリザイアの楽園
Tags:tv size opening grisaia no rakuen -hakurei- lgv894 lasse beomsan karia davided
BeatmapID:1086434
BeatmapSetID:506544

[Difficulty]
HPDrainRate:6.4
CircleSize:4
OverallDifficulty:8.2
ApproachRate:8.7
SliderMultiplier:1.4
SliderTickRate:1

[Events]
//Background and Video events
Video,0,"video (2).flv"
0,0,"bg.jpg",0,0
//Break Periods
//Storyboard Layer 0 (Background)
//Storyboard Layer 1 (Fail)
//Storyboard Layer 2 (Pass)
//Storyboard Layer 3 (Foreground)
//Storyboard Sound Samples

[TimingPoints]
614,368.098159509202,4,2,1,50,1,0
2086,357.142857142857,4,2,1,50,1,0
3514,337.078651685393,4,2,1,50,1,0
4862,306.122448979592,4,2,1,50,1,0
6086,297.029702970297,4,2,1,50,1,0
9947,-100,4,2,2,60,0,0
10689,-83.3333333333333,4,2,2,60,0,0
20343,-100,4,2,2,60,0,0
61927,-83.3333333333333,4,2,2,60,0,1
74996,-71.4285714285714,4,2,2,60,0,1
75887,-66.6666666666667,4,2,2,60,0,1
76185,-83.3333333333333,4,2,2,60,0,1
76927,-71.4285714285714,4,2,2,60,0,1
77224,-83.3333333333333,4,2,2,60,0,1
80937,-83.3333333333333,4,2,2,60,0,0
86729,-71.4285714285714,4,2,2,60,0,0
86878,-71.4285714285714,4,2,2,5,0,0
88066,-83.3333333333333,4,2,2,60,0,0

[Colours]
Combo1 : 135,162,209
Combo2 : 59,58,160
Combo3 : 141,36,120

[HitObjects]
127,83,614,6,0,L|117:152,1,70,2|0,0:0|0:0,0:0:0:0:
188,277,982,2,0,L|179:208,1,70,2|2,0:0|0:0,0:0:0:0:
115,319,1350,2,0,L|254:327,1,140,2|2,0:0|0:0,0:0:0:0:
411,153,1902,1,2,0:0:0:0:
328,181,2086,6,0,P|312:213|310:248,1,70,2|0,0:0|0:0,0:0:0:0:
279,112,2443,2,0,P|263:80|261:45,1,70,2|2,0:0|0:0,0:0:0:0:
323,260,2800,2,0,P|267:299|200:286,1,140,2|2,0:0|0:0,0:0:0:0:
156,215,3335,1,0,0:0:0:0:
9,265,3514,6,0,L|79:260,1,70,2|0,0:0|0:0,0:0:0:0:
185,302,3851,2,0,L|254:307,1,70,2|2,0:0|0:0,0:0:0:0:
327,114,4188,2,0,B|313:212|313:212|319:253,1,140,2|2,0:0|0:0,0:0:0:0:
400,74,4693,1,2,0:0:0:0:
322,22,4862,6,0,P|254:40|185:38,1,140,2|2,0:0|0:0,0:0:0:0:
55,91,5321,1,0,0:0:0:0:
99,162,5474,2,0,P|131:178|166:180,1,70,2|0,0:0|0:0,0:0:0:0:
226,236,5780,2,0,P|258:220|293:218,1,70,2|0,0:0|0:0,0:0:0:0:
435,307,6086,6,0,L|365:299,1,70,2|2,0:0|0:0,0:0:0:0:
462,160,6383,2,0,L|470:230,1,70
372,113,6680,2,0,L|511:98,1,140,2|0,0:0|0:0,0:0:0:0:
435,307,7125,1,2,0:0:0:0:
351,319,7274,6,0,P|316:316|285:300,1,70
227,361,7571,2,0,P|192:363|161:379,1,70,2|0,0:0|0:0,0:0:0:0:
173,243,7868,2,0,P|241:247|284:299,1,140
346,139,8313,1,0,0:0:0:0:
270,176,8462,5,0,0:0:0:0:
392,208,8610,2,0,L|379:68,1,140,2|0,0:0|0:0,0:0:0:0:
491,0,9056,2,0,L|484:69,1,70,2|0,0:0|0:0,0:0:0:0:
399,215,9353,1,2,0:0:0:0:
309,62,9501,2,0,L|378:68,1,70,2|0,0:0|0:0,0:0:0:0:
151,122,9798,5,0,0:0:0:0:
230,92,9947,1,8,0:0:0:0:
230,92,10021,1,8,0:0:0:0:
230,92,10095,1,8,0:0:0:0:
220,186,10244,5,8,0:0:0:0:
160,28,10392,2,0,L|90:18,1,70,2|0,0:0|0:0,0:0:0:0:
153,237,10689,6,0,L|319:213,1,167.999994873047,6|2,0:0|0:0,0:0:0:0:
131,136,11135,1,8,0:0:0:0:
56,203,11284,2,0,L|44:286,1,83.9999974365235,0|2,0:0|0:0,0:0:0:0:
167,260,11581,1,2,0:0:0:0:
45,184,11729,1,8,0:0:0:0:
144,161,11878,1,0,0:0:0:0:
63,304,12026,6,0,B|105:293|146:304|146:304|188:314|229:304,1,167.999994873047,2|8,0:0|0:0,0:0:0:0:
354,353,12472,1,0,0:0:0:0:
331,255,12620,1,2,0:0:0:0:
384,84,12769,2,0,P|389:126|381:167,1,83.9999974365235,2|8,0:0|0:0,0:0:0:0:
203,107,13066,6,0,B|318:86|318:86|368:94,1,167.999994873047,2|2,0:0|0:0,0:0:0:0:
124,169,13511,2,0,L|41:153,1,83.9999974365235,8|0,0:0|0:0,0:0:0:0:
109,68,13808,1,2,0:0:0:0:
139,270,13957,2,0,L|221:254,1,83.9999974365235,2|8,0:0|0:0,0:0:0:0:
198,47,14254,6,0,L|32:23,1,167.999994873047,2|2,0:0|0:0,0:0:0:0:
273,113,14699,1,8,0:0:0:0:
294,14,14848,1,8,0:0:0:0:
294,14,14922,1,8,0:0:0:0:
294,14,14996,5,8,0:0:0:0:
113,65,15145,2,0,L|125:148,1,83.9999974365235,2|0,0:0|0:0,0:0:0:0:
227,242,15442,6,0,B|209:370|209:370|234:340,1,167.999994873047,6|2,0:0|0:0,0:0:0:0:
388,167,15887,2,0,L|305:179,1,83.9999974365235,8|0,0:0|0:0,0:0:0:0:
354,54,16185,1,2,0:0:0:0:
486,75,16333,1,2,0:0:0:0:
401,178,16482,1,8,0:0:0:0:
258,16,16630,6,0,B|368:26|368:26|423:11,1,167.999994873047,6|2,0:0|0:0,0:0:0:0:
492,85,17076,1,8,0:0:0:0:
407,271,17224,2,0,P|402:230|410:189,1,83.9999974365235,0|2,0:0|0:0,0:0:0:0:
459,359,17521,1,2,0:0:0:0:
326,336,17670,1,8,0:0:0:0:
229,363,17818,1,0,0:0:0:0:
95,233,17967,6,0,P|179:230|255:265,1,167.999994873047,6|0,0:0|0:0,0:0:0:0:
440,123,18412,2,0,P|357:127|285:168,1,167.999994873047,8|0,0:3|0:0,0:0:0:0:
472,215,18858,6,0,B|479:161|479:161|470:48,1,167.999994873047,8|0,0:3|0:0,0:0:0:0:
271,78,19303,2,0,B|264:132|264:132|272:244,1,167.999994873047,4|8,0:3|0:0,0:0:0:0:
371,63,19749,5,8,0:0:0:0:
170,94,19897,1,8,0:0:0:0:
51,40,20343,6,0,P|118:49|158:104,1,140,6|0,0:0|0:0,0:0:0:0:
106,203,20788,2,0,P|38:193|-1:138,1,140,2|0,0:0|0:0,0:0:0:0:
150,130,21234,6,0,B|159:164|150:198|150:198|141:233|150:267,1,140,2|0,0:0|0:0,0:0:0:0:
332,294,21680,2,0,P|292:239|224:230,1,140,2|2,0:0|0:0,0:0:0:0:
290,366,22125,5,8,0:0:0:0:
401,350,22274,1,2,0:0:0:0:
438,244,22422,5,8,0:0:0:0:
404,236,22496,1,8,0:0:0:0:
369,241,22571,1,8,0:0:0:0:
341,261,22645,1,8,0:0:0:0:
330,301,22719,6,0,L|190:292,2,140,6|8|2,0:0|0:0|0:0,0:0:0:0:
389,189,23462,1,2,0:0:0:0:
304,176,23610,1,8,0:0:0:0:
330,301,23759,6,0,P|397:305|448:259,1,140,2|2,0:0|0:0,0:0:0:0:
287,189,24204,2,0,P|220:185|169:231,1,140,8|2,0:0|0:0,0:0:0:0:
168,341,24650,1,2,0:0:0:0:
249,321,24798,1,8,0:0:0:0:
167,244,24947,6,0,B|84:249|84:249|30:230,1,140,6|2,0:0|0:0,0:0:0:0:
232,192,25392,2,0,P|248:223|250:257,1,70,8|0,0:0|0:0,0:0:0:0:
165,140,25689,1,2,0:0:0:0:
243,109,25838,2,0,L|312:112,1,70,2|8,0:0|0:0,0:0:0:0:
455,100,26135,1,0,0:0:0:0:
357,39,26284,6,0,P|344:106|368:171,1,140,6|8,0:0|0:0,0:0:0:0:
458,237,26729,2,0,P|482:301|469:369,1,140,2|2,0:0|0:0,0:0:0:0:
302,317,27175,2,0,L|372:312,1,70,8|0,0:0|0:0,0:0:0:0:
197,356,27472,6,0,B|92:348|92:348|29:368,1,140,6|8,0:0|0:0,0:0:0:0:
18,254,27917,1,0,0:0:0:0:
72,155,28066,2,0,L|141:161,1,70,2|2,0:0|0:0,0:0:0:0:
218,243,28363,2,0,L|287:236,1,70,8|2,0:0|0:0,0:0:0:0:
390,151,28660,5,12,0:0:0:0:
474,225,28808,1,2,0:0:0:0:
368,260,28957,1,2,0:0:0:0:
324,116,29105,6,0,B|363:125|363:125|463:113,1,140,12|0,0:0|0:0,0:0:0:0:
280,219,29551,2,0,L|210:210,1,70
170,315,29848,6,0,B|216:323|216:323|262:315|262:315|308:323,1,140,6|0,0:0|0:0,0:0:0:0:
204,125,30293,2,0,B|174:161|174:161|158:205|158:205|129:241,1,140,2|0,0:0|0:0,0:0:0:0:
351,250,30739,2,0,B|335:206|335:206|305:170|305:170|289:127,1,140,2|0,0:0|0:0,0:0:0:0:
428,278,31185,6,0,L|288:289,1,140,2|0,0:0|0:0,0:0:0:0:
280,136,31630,1,2,0:0:0:0:
332,201,31779,1,2,0:0:0:0:
364,94,31927,2,8,L|369:24,1,70
318,216,32224,6,0,L|323:286,1,70,6|0,0:0|0:0,0:0:0:0:
419,146,32521,2,0,L|279:135,1,140,8|2,0:0|0:0,0:0:0:0:
473,57,32967,1,2,0:0:0:0:
432,161,33115,1,8,0:0:0:0:
494,254,33264,6,0,P|443:207|375:211,1,140,2|2,0:0|0:0,0:0:0:0:
291,283,33709,2,0,P|222:286|172:240,1,140,8|2,0:0|0:0,0:0:0:0:
207,163,34155,1,2,0:0:0:0:
154,74,34303,2,0,L|84:78,1,70,8|0,0:0|0:0,0:0:0:0:
23,242,34600,6,0,L|162:251,1,140,6|8,0:0|0:0,0:0:0:0:
312,95,35046,2,0,L|172:104,1,140,0|2,0:0|0:0,0:0:0:0:
290,261,35492,1,8,0:0:0:0:
301,178,35640,1,0,0:0:0:0:
220,305,35788,6,0,B|317:313|317:313|357:300,1,140,6|8,0:0|0:0,0:0:0:0:
367,140,36234,2,0,B|270:132|270:132|229:144,1,140,0|2,0:0|0:0,0:0:0:0:
169,239,36680,2,0,B|99:244,1,70,8|0,0:0|0:0,0:0:0:0:
366,345,36977,6,0,B|227:334,1,140,6|8,0:0|0:0,0:0:0:0:
417,214,37422,2,0,B|423:284,1,70,0|2,0:0|0:0,0:0:0:0:
360,152,37719,1,2,0:0:0:0:
447,64,37868,2,0,B|441:134,1,70,8|8,0:0|0:0,0:0:0:0:
328,0,38165,5,8,0:0:0:0:
353,165,38313,1,8,0:0:0:0:
347,176,38610,6,0,P|279:179|229:133,1,140,6|2,0:0|0:0,0:0:0:0:
395,40,39056,2,0,L|401:110,1,70,8|0,0:0|0:0,0:0:0:0:
473,322,39353,6,0,L|485:183,1,140,6|8,0:0|0:0,0:0:0:0:
308,210,39798,1,0,0:0:0:0:
375,260,39947,2,0,L|445:254,1,70,2|2,0:0|0:0,0:0:0:0:
391,148,40244,1,8,0:0:0:0:
288,191,40392,6,0,L|300:330,1,140,2|2,0:0|0:0,0:0:0:0:
203,186,40838,2,0,P|211:152|231:124,1,70,8|0,0:0|0:0,0:0:0:0:
327,264,41135,2,0,P|293:273|258:269,1,70,2|2,0:0|0:0,0:0:0:0:
330,119,41432,2,0,P|355:144|369:175,1,70,8|0,0:0|0:0,0:0:0:0:
362,42,41729,6,0,B|328:33|294:42|294:42|259:51|223:41,1,140,2|8,0:0|0:0,0:0:0:0:
440,11,42175,1,0,0:0:0:0:
475,86,42323,2,0,L|466:155,1,70,2|2,0:0|0:0,0:0:0:0:
379,255,42620,1,8,0:0:0:0:
355,173,42769,6,0,P|423:183|462:238,1,140,2|2,0:0|0:0,0:0:0:0:
300,361,43214,2,0,L|290:291,1,70,8|0,0:0|0:0,0:0:0:0:
209,212,43511,2,0,L|218:142,1,70,2|2,0:0|0:0,0:0:0:0:
337,65,43808,2,0,L|268:75,1,70,8|0,0:0|0:0,0:0:0:0:
46,42,44105,1,2,0:0:0:0:
50,45,44402,6,0,B|136:58|136:58|188:45,1,140,12|0,0:0|0:0,0:0:0:0:
129,181,44848,1,2,0:0:0:0:
121,97,44996,1,8,0:0:0:0:
137,265,45145,6,0,P|204:274|244:330,1,140,6|2,0:0|0:0,0:0:0:0:
43,382,45590,2,0,L|69:317,1,70,8|0,0:0|0:0,0:0:0:0:
17,177,45887,2,0,L|59:232,1,70,2|2,0:0|0:0,0:0:0:0:
206,255,46185,2,0,L|136:264,1,70,8|0,0:0|0:0,0:0:0:0:
76,97,46482,6,0,L|214:115,1,140,6|8,0:0|0:0,0:0:0:0:
309,55,46927,2,0,L|447:36,1,140,0|2,0:0|0:0,0:0:0:0:
291,223,47372,1,8,0:0:0:0:
300,139,47521,1,2,0:0:0:0:
390,274,47669,5,0,0:0:0:0:
282,307,47818,1,2,0:0:0:0:
193,237,47967,2,0,L|197:167,1,70,8|0,0:0|0:0,0:0:0:0:
124,29,48264,1,2,0:0:0:0:
133,111,48412,1,2,0:0:0:0:
269,64,48561,2,0,L|200:60,1,70,8|0,0:0|0:0,0:0:0:0:
456,124,48858,1,8,0:0:0:0:
456,124,49155,6,0,L|316:132,1,140,6|0,0:0|0:0,0:0:0:0:
269,64,49600,1,2,0:0:0:0:
372,20,49749,1,8,0:0:0:0:
444,104,49897,6,0,B|453:138|444:172|444:172|435:207|445:243,1,140,2|2,0:0|0:0,0:0:0:0:
299,122,50343,2,0,P|333:122|366:134,1,70,8|0,0:0|0:0,0:0:0:0:
241,184,50640,1,8,0:0:0:0:
217,103,50788,1,0,0:0:0:0:
388,51,50937,2,0,L|378:120,1,70,8|0,0:0|0:0,0:0:0:0:
466,276,51234,1,2,0:0:0:0:
466,276,51531,6,0,P|398:273|349:321,1,140,6|0,0:0|0:0,0:0:0:0:
427,352,51977,1,2,0:0:0:0:
452,186,52125,1,8,0:0:0:0:
377,147,52274,6,0,L|307:157,1,70,2|0,0:0|0:0,0:0:0:0:
233,117,52571,1,2,0:0:0:0:
293,3,52719,2,0,L|304:73,1,70,8|0,0:0|0:0,0:0:0:0:
214,214,53016,1,8,0:0:0:0:
221,130,53165,1,0,0:0:0:0:
167,65,53313,1,0,0:0:0:0:
202,229,53462,1,0,0:0:0:0:
355,130,53610,6,0,B|258:149|258:149|217:140,2,140,6|2|8,0:0|0:0|0:0,0:0:0:0:
414,189,54353,1,0,0:0:0:0:
392,298,54501,1,0,0:0:0:0:
442,363,54650,6,0,P|378:338|308:335,1,140,8|8,0:0|0:0,0:0:0:0:
234,252,55095,2,0,P|169:277|99:280,1,140,2|8,0:0|0:0,0:0:0:0:
43,64,55541,1,0,0:0:0:0:
149,92,55689,1,0,0:0:0:0:
71,172,55838,1,0,0:0:0:0:
119,5,55986,6,0,B|153:-4|187:5|187:5|222:14|258:4,1,140,6|0,0:0|0:0,0:0:0:0:
265,136,56432,2,0,P|197:139|148:91,1,140,2|0,0:0|0:0,0:0:0:0:
347,77,56878,2,0,L|416:66,1,70,2|2,0:0|0:0,0:0:0:0:
452,244,57175,6,0,L|313:222,1,140,6|0,0:0|0:0,0:0:0:0:
253,316,57620,2,0,L|114:337,1,140,2|0,0:0|0:0,0:0:0:0:
72,168,58066,2,0,L|62:238,1,70,2|2,0:0|0:0,0:0:0:0:
206,86,58363,5,6,0:0:0:0:
122,93,58511,1,0,0:0:0:0:
255,156,58660,1,0,0:0:0:0:
244,10,58808,1,2,0:0:0:0:
129,198,58957,5,0,0:0:0:0:
275,186,59106,1,2,0:0:0:0:
193,65,59254,1,0,0:0:0:0:
345,133,59402,6,0,P|320:197|314:267,1,140,6|2,0:0|0:0,0:0:0:0:
482,77,59848,2,0,L|413:82,1,70,8|0,0:0|0:0,0:0:0:0:
300,282,60145,6,0,L|369:287,1,70,8|0,0:0|0:0,0:0:0:0:
263,200,60442,1,0,0:0:0:0:
228,325,60590,1,6,0:0:0:0:
228,325,60887,5,8,0:0:0:0:
267,204,61036,1,8,0:0:0:0:
187,55,61185,2,0,L|194:124,1,70,2|0,0:0|0:0,0:0:0:0:
106,29,61482,5,2,0:0:0:0:
268,81,61630,2,0,L|337:74,1,70,8|0,0:0|0:0,0:0:0:0:
452,208,61927,6,0,B|399:224|399:224|287:211,1,167.999994873047,6|8,0:0|0:0,0:0:0:0:
512,376,62373,2,0,B|502:292,1,83.9999974365235,2|0,0:0|0:0,0:0:0:0:
409,40,62670,2,0,B|399:123,1,83.9999974365235,2|8,0:0|0:0,0:0:0:0:
287,211,62967,6,0,P|207:226|142:177,1,167.999994873047
252,45,63412,1,8,0:0:0:0:
314,124,63561,2,0,B|333:290,1,167.999994873047,2|2,0:0|0:0,0:0:0:0:
164,379,64006,1,8,0:0:0:0:
182,279,64155,1,0,0:0:0:0:
149,107,64303,6,0,P|136:147|136:189,1,83.9999974365235,6|0,0:0|0:0,0:0:0:0:
274,315,64600,2,0,P|273:273|260:233,1,83.9999974365235,8|0,0:0|0:0,0:0:0:0:
175,287,64897,1,2,0:0:0:0:
207,382,65046,2,0,B|262:368|262:368|373:375,1,167.999994873047,2|0,0:0|0:0,0:0:0:0:
332,166,65491,5,2,0:0:0:0:
269,245,65640,1,2,0:0:0:0:
287,343,65788,1,8,0:0:0:0:
392,254,65937,2,0,B|372:142|372:142|386:87,1,167.999994873047,2|2,0:0|0:0,0:0:0:0:
458,325,66383,1,8,0:0:0:0:
439,341,66457,1,0,0:0:0:0:
416,351,66531,1,0,0:0:0:0:
390,351,66605,1,0,0:0:0:0:
349,338,66680,6,0,L|265:341,1,83.9999974365235,6|0,0:0|0:0,0:0:0:0:
63,291,66977,2,0,L|146:294,1,83.9999974365235,8|0,0:0|0:0,0:0:0:0:
203,106,67274,2,0,L|206:189,1,83.9999974365235,2|2,0:0|0:0,0:0:0:0:
268,330,67571,1,8,0:0:0:0:
469,246,67719,6,0,B|414:237|414:237|359:246|359:246|305:237,1,167.999994873047,6|2,0:0|0:0,0:0:0:0:
196,347,68165,2,0,B|236:354|236:354|278:346,1,83.9999974365235,8|0,0:0|0:0,0:0:0:0:
170,170,68462,2,0,B|156:253,1,83.9999974365235,2|2,0:0|0:0,0:0:0:0:
237,28,68759,2,0,B|252:111,1,83.9999974365235,8|0,0:0|0:0,0:0:0:0:
351,265,69056,6,0,B|374:141|374:141|345:170,2,167.999994873047,6|8|2,0:0|0:0|0:0,0:0:0:0:
435,82,69798,1,2,0:0:0:0:
234,100,69947,1,8,0:0:0:0:
477,166,70095,6,0,L|458:0,1,167.999994873047,6|2,0:0|0:0,0:0:0:0:
340,149,70541,1,8,0:0:0:0:
351,265,70689,1,2,0:0:0:0:
435,82,70838,1,0,0:0:0:0:
235,101,70986,5,2,0:0:0:0:
230,143,71061,1,0,0:0:0:0:
225,184,71135,1,8,0:0:0:0:
220,225,71209,1,0,0:0:0:0:
215,267,71284,1,8,0:0:0:0:
210,308,71358,1,8,0:0:0:0:
179,348,71432,6,0,L|262:356,1,83.9999974365235,6|2,0:0|0:0,0:0:0:0:
399,184,71729,1,8,0:0:0:0:
280,85,71878,2,0,L|264:253,1,167.999994873047,2|2,0:0|0:0,0:0:0:0:
332,0,72323,1,8,0:0:0:0:
192,31,72472,6,0,P|175:110|223:176,1,167.999994873047
400,176,72917,1,8,0:0:0:0:
446,86,73066,6,0,B|404:75|363:86|363:86|321:96|280:86,1,167.999994873047,2|2,0:0|0:0,0:0:0:0:
202,21,73511,1,8,0:0:0:0:
228,188,73660,1,0,0:0:0:0:
66,99,73808,6,0,L|153:104,1,83.9999974365235,6|0,0:0|0:0,0:0:0:0:
249,207,74105,2,0,L|336:201,1,83.9999974365235,8|2,0:0|0:0,0:0:0:0:
458,50,74402,1,0,0:0:0:0:
358,66,74551,1,2,0:0:0:0:
421,143,74699,2,0,P|433:182|434:224,1,83.9999974365235,8|0,0:0|0:0,0:0:0:0:
227,327,74996,6,0,B|214:197|214:197|237:109,1,195.999994018555,2|0,0:0|0:0,0:0:0:0:
334,356,75442,6,0,B|269:345|269:345|204:356|204:356|141:345,1,195.999994018555,2|0,0:0|0:0,0:0:0:0:
339,139,75887,6,0,B|345:200|345:200|334:241,1,105.000004005432,2|0,0:0|0:0,0:0:0:0:
129,349,76185,5,8,0:0:0:0:
106,146,76333,1,8,0:0:0:0:
115,160,76927,6,0,B|118:230|118:230|112:257,1,97.9999970092774,8|0,0:0|0:0,0:0:0:0:
15,100,77224,6,0,B|67:122|67:122|187:114,1,167.999994873047,6|8,0:0|0:0,0:0:0:0:
271,74,77670,1,0,0:0:0:0:
395,124,77818,1,0,0:0:0:0:
371,6,77967,5,8,0:0:0:0:
296,192,78115,2,0,B|311:274,1,83.9999974365235,6|0,0:0|0:0,0:0:0:0:
177,354,78412,6,0,B|200:230|200:230|171:259,1,167.999994873047,6|0,0:0|0:0,0:0:0:0:
366,359,78858,2,0,P|408:358|448:345,1,83.9999974365235
401,147,79155,1,0,0:0:0:0:
390,246,79303,1,0,0:0:0:0:
412,48,79452,1,0,0:0:0:0:
232,148,79600,6,0,B|112:127|112:127|67:138,1,167.999994873047,6|8,0:0|0:0,0:0:0:0:
62,163,79972,1,8,0:0:0:0:
57,187,80046,1,8,0:0:0:0:
39,285,80194,1,0,0:0:0:0:
143,369,80343,2,0,L|226:363,1,83.9999974365235,8|0,0:0|0:0,0:0:0:0:
314,312,80640,1,0,0:0:0:0:
407,349,80788,1,0,0:0:0:0:
459,224,80937,5,6,0:0:0:0:
459,224,81086,2,0,P|446:184|445:142,2,83.9999974365235,0|2|0,0:0|0:0|0:0,0:0:0:0:
501,59,81531,2,0,P|421:42|355:90,1,167.999994873047,8|0,0:0|0:0,0:0:0:0:
309,180,81977,6,0,P|229:196|163:148,1,167.999994873047,0|8,0:0|0:0,0:0:0:0:
95,222,82422,2,0,L|103:305,1,83.9999974365235,2|0,0:0|0:0,0:0:0:0:
200,334,82719,2,0,L|116:325,1,83.9999974365235,8|0,0:0|0:0,0:0:0:0:
80,213,83016,2,0,L|88:296,1,83.9999974365235
192,162,83313,5,6,0:0:0:0:
192,162,83462,2,0,L|200:78,2,83.9999974365235,0|2|0,0:0|0:0|0:0,0:0:0:0:
331,134,83907,2,0,L|339:217,1,83.9999974365235,8|0,0:0|0:0,0:0:0:0:
403,63,84204,1,8,0:0:0:0:
269,42,84353,2,0,L|186:50,1,83.9999974365235,6|0,0:0|0:0,0:0:0:0:
92,21,84650,5,2,0:0:0:0:
107,120,84798,1,8,0:0:0:0:
123,219,84947,1,0,0:0:0:0:
90,106,85095,5,8,0:0:0:0:
205,132,85244,2,0,L|288:121,1,83.9999974365235,2|0,0:0|0:0,0:0:0:0:
359,27,85541,6,0,P|331:105|330:189,1,167.999994873047,6|2,0:0|0:0,0:0:0:0:
354,286,85986,1,8,0:0:0:0:
377,383,86135,1,0,0:0:0:0:
255,249,86284,1,8,0:0:0:0:
232,346,86432,2,0,L|148:335,1,83.9999974365235,0|8,0:0|0:0,0:0:0:0:
281,151,86729,6,0,L|387:143,1,97.9999970092774,2|0,0:0|0:0,0:0:0:0:
271,163,88066,5,6,0:0:0:0:
142,204,88214,1,8,0:0:0:0:
243,295,88363,1,0,0:0:0:0:
182,108,88511,5,2,0:0:0:0:
140,307,88659,1,0,0:0:0:0:
332,244,88808,1,2,0:0:0:0:
116,180,88957,5,8,0:0:0:0:
267,317,89106,1,6,0:0:0:0:
