osu file format v14

[General]
AudioFilename: Setsuna no Kajitsu.mp3
AudioLeadIn: 0
PreviewTime: 61853
Countdown: 0
SampleSet: Soft
StackLeniency: 0.7
Mode: 0
LetterboxInBreaks: 0
WidescreenStoryboard: 0

[Editor]
Bookmarks: 614,10689,20343,29848,39353,48858,55986,61927,71432,80937,89105
DistanceSpacing: 1.2
BeatDivisor: 4
GridSize: 4
TimelineZoom: 2.299999

[Metadata]
Title:Setsuna no Kajitsu
TitleUnicode:刹那の果実
Artist:Maon Kurosaki
ArtistUnicode:黒崎真音
Creator:lit120
Version:Beom's Extra
Source:グリザイアの楽園
Tags:tv size opening grisaia no rakuen -hakurei- lgv894 lasse beomsan karia davided
BeatmapID:1077522
BeatmapSetID:506544

[Difficulty]
HPDrainRate:7
CircleSize:4
OverallDifficulty:8
ApproachRate:9.1
SliderMultiplier:1.8
SliderTickRate:1

[Events]
//Background and Video events
Video,0,"video (2).flv"
0,0,"bg.jpg",0,0
//Break Periods
//Storyboard Layer 0 (Background)
//Storyboard Layer 1 (Fail)
//Storyboard Layer 2 (Pass)
//Storyboard Layer 3 (Foreground)
//Storyboard Sound Samples

[TimingPoints]
614,368.098159509202,4,2,1,50,1,0
614,-133.333333333333,4,2,1,50,0,0
2086,357.142857142857,4,2,1,50,1,0
2086,-133.333333333333,4,2,1,50,0,0
3514,337.078651685393,4,2,1,50,1,0
3514,-133.333333333333,4,2,1,50,0,0
4862,306.122448979592,4,2,1,50,1,0
4862,-133.333333333333,4,2,1,50,0,0
6086,297.029702970297,4,2,1,50,1,0
6086,-133.333333333333,4,2,1,60,0,0
9947,-86.9565217391304,4,2,2,60,0,0
10689,-100,4,2,2,60,0,0
20343,-133.333333333333,4,2,2,60,0,0
22719,-100,4,2,2,60,0,0
29551,-133.333333333333,4,2,2,60,0,0
29774,-133.333333333333,4,2,2,5,0,0
29848,-133.333333333333,4,2,2,60,0,0
31853,-133.333333333333,4,2,2,5,0,0
31927,-133.333333333333,4,2,2,60,0,0
32150,-133.333333333333,4,2,2,5,0,0
32224,-100,4,2,2,60,0,0
39279,-100,4,2,2,5,0,0
39353,-100,4,2,2,60,0,0
44625,-100,4,2,2,5,0,0
44699,-100,4,2,2,60,0,0
48784,-100,4,2,2,5,0,0
48858,-100,4,2,2,60,0,0
49081,-100,4,2,2,5,0,0
49155,-66.6666666666667,4,2,2,60,0,0
49378,-100,4,2,2,5,0,0
49452,-100,4,2,2,60,0,0
51160,-100,4,2,2,5,0,0
51234,-100,4,2,2,60,0,0
51457,-100,4,2,2,5,0,0
51531,-66.6666666666667,4,2,2,60,0,0
51754,-100,4,2,2,5,0,0
51828,-100,4,2,2,60,0,0
53610,-133.333333333333,4,2,2,60,0,0
59402,-100,4,2,2,60,0,0
61853,-100,4,2,2,5,0,0
61927,-90.9090909090909,4,2,2,60,0,1
66605,-90.9090909090909,4,2,2,5,0,1
66680,-90.9090909090909,4,2,2,60,0,1
68982,-90.9090909090909,4,2,2,5,0,1
69056,-90.9090909090909,4,2,2,60,0,1
71358,-90.9090909090909,4,2,2,5,0,1
71432,-90.9090909090909,4,2,2,60,0,1
74922,-90.9090909090909,4,2,2,5,0,1
74996,-90.9090909090909,4,2,2,60,0,1
75442,-76.9230769230769,4,2,2,60,0,1
75887,-66.6666666666667,4,2,2,60,0,1
76110,-66.6666666666667,4,2,2,5,0,1
76185,-90.9090909090909,4,2,2,60,0,1
80937,-100,4,2,2,60,0,0

[Colours]
Combo1 : 135,162,209
Combo2 : 59,58,160
Combo3 : 141,36,120

[HitObjects]
184,166,614,5,2,0:0:0:0:
181,245,798,1,0,0:0:0:0:
251,207,982,1,2,0:0:0:0:
319,248,1166,1,2,0:0:0:0:
181,328,1350,1,2,0:0:0:0:
111,290,1534,1,0,0:0:0:0:
114,369,1718,1,2,0:0:0:0:
44,331,1902,1,2,0:0:0:0:
248,369,2086,5,2,0:0:0:0:
318,331,2264,1,0,0:0:0:0:
251,290,2443,1,2,0:0:0:0:
181,328,2621,1,2,0:0:0:0:
248,369,2800,1,2,0:0:0:0:
319,248,2978,1,0,0:0:0:0:
251,207,3157,1,2,0:0:0:0:
181,245,3335,1,0,0:0:0:0:
320,169,3514,5,2,0:0:0:0:
388,210,3682,1,0,0:0:0:0:
182,166,3851,1,2,0:0:0:0:
114,207,4019,1,2,0:0:0:0:
304,88,4188,1,2,0:0:0:0:
381,68,4356,1,0,0:0:0:0:
208,88,4525,1,2,0:0:0:0:
131,68,4693,1,2,0:0:0:0:
201,229,4862,6,0,P|185:194|182:149,1,67.5000025749207,2|0,0:0|0:0,0:0:0:0:
330,165,5168,2,0,P|325:198|311:229,1,67.5000025749207,2|2,0:0|0:0,0:0:0:0:
192,316,5474,2,0,P|155:302|121:272,1,67.5000025749207,2|0,0:0|0:0,0:0:0:0:
320,316,5780,2,0,P|351:304|378:284,1,67.5000025749207,2|0,0:0|0:0,0:0:0:0:
367,63,6086,6,0,L|296:83,2,67.5000025749207,2|2|0,0:0|0:0|0:0,0:0:0:0:
418,133,6531,1,0,0:0:0:0:
293,164,6680,2,0,P|261:153|234:123,1,67.5000025749207,2|0,0:0|0:0,0:0:0:0:
371,208,6977,2,0,P|377:241|364:279,1,67.5000025749207,0|2,0:0|0:0,0:0:0:0:
368,119,7274,6,0,P|393:96|433:88,2,67.5000025749207,0|0|2,0:0|0:0|0:0,0:0:0:0:
293,164,7719,1,0,0:0:0:0:
152,89,7868,2,0,L|166:227,1,135.000005149841
72,354,8462,5,0,0:0:0:0:
72,354,8610,2,0,B|29:321|29:321|19:231,1,135.000005149842,2|0,0:0|0:0,0:0:0:0:
144,85,9056,2,0,L|158:223,1,135.000005149841,2|2,0:0|0:0,0:0:0:0:
288,76,9501,1,2,0:0:0:0:
283,323,9798,5,0,0:0:0:0:
188,149,9947,2,8,L|243:138,1,51.7500009870529
324,235,10095,2,8,L|269:246,1,51.7500009870529
374,164,10244,2,0,B|400:209|400:209|407:273,2,103.500001974106,8|2|0,0:0|0:0|0:0,0:0:0:0:
124,271,10689,6,0,B|74:247|74:247|204:233,1,180,6|2,0:0|0:0,0:0:0:0:
163,65,11135,2,0,L|170:169,1,90,8|0,0:0|0:0,0:0:0:0:
85,120,11432,1,2,0:0:0:0:
246,222,11581,1,2,0:0:0:0:
81,314,11729,1,8,0:0:0:0:
199,371,11878,1,0,0:0:0:0:
330,182,12026,6,0,B|314:148|272:132|272:132|326:135|373:101,1,180,2|8,0:0|0:0,0:0:0:0:
433,174,12472,1,0,0:0:0:0:
246,222,12620,1,2,0:0:0:0:
418,308,12769,1,2,0:0:0:0:
330,182,12917,1,8,0:0:0:0:
152,369,13066,6,0,B|107:327|107:327|90:198,1,180,2|2,0:0|0:0,0:0:0:0:
185,59,13511,2,0,L|199:167,1,90,8|0,0:0|0:0,0:0:0:0:
313,312,13808,1,2,0:0:0:0:
420,192,13957,1,2,0:0:0:0:
192,242,14105,1,8,0:0:0:0:
310,39,14254,6,0,L|334:219,1,180,2|2,0:0|0:0,0:0:0:0:
207,123,14699,1,8,0:0:0:0:
413,182,14848,2,0,L|413:235,1,45,8|8,0:0|0:0,0:0:0:0:
365,384,14996,2,0,L|367:285,1,90,8|2,0:0|0:0,0:0:0:0:
366,294,15442,6,0,P|297:240|296:153,1,180,6|2,0:0|0:0,0:0:0:0:
205,12,15887,2,0,P|201:104|134:153,1,180,8|2,0:0|0:0,0:0:0:0:
42,282,16333,2,0,P|32:234|44:186,1,90,2|8,0:0|0:0,0:0:0:0:
125,59,16630,1,6,0:0:0:0:
163,231,16779,2,0,L|119:235,2,45,0|0|2,0:0|0:0|0:0,0:0:0:0:
275,164,17076,2,0,L|287:258,1,90,8|0,0:0|0:0,0:0:0:0:
318,63,17373,5,2,0:0:0:0:
192,159,17521,1,2,0:0:0:0:
405,236,17670,1,8,0:0:0:0:
279,332,17818,1,0,0:0:0:0:
115,98,17967,6,0,B|205:68|205:68|341:180,1,270,6|8,0:0|0:3,0:0:0:0:
357,97,18561,2,0,L|287:38,1,90
186,194,18858,6,0,B|190:149|190:149|321:261|321:261|268:267,1,270,8|4,0:3|0:3,0:0:0:0:
190,274,19452,1,0,0:0:0:0:
408,218,19600,1,8,0:0:0:0:
408,218,19675,1,8,0:0:0:0:
408,218,19749,2,0,L|413:318,1,90,8|8,0:0|0:0,0:0:0:0:
415,336,20343,6,0,L|278:321,1,135.000005149842,6|0,0:0|0:0,0:0:0:0:
280,321,20788,1,2,0:0:0:0:
97,48,21234,6,0,L|234:63,1,135.000005149842,2|0,0:0|0:0,0:0:0:0:
231,62,21679,1,2,0:0:0:0:
142,337,21977,5,2,0:0:0:0:
142,337,22051,1,0,0:0:0:0:
142,337,22125,2,0,P|149:302|151:258,1,67.5000025749208,8|2,0:0|0:0,0:0:0:0:
304,148,22422,2,0,P|304:191|315:255,1,101.250003862381,8|8,0:0|0:0,0:0:0:0:
301,278,22719,6,0,P|339:261|441:336,1,180,6|8,0:0|0:0,0:0:0:0:
356,345,23165,1,0,0:0:0:0:
387,125,23313,1,2,0:0:0:0:
466,178,23462,1,2,0:0:0:0:
443,54,23610,1,8,0:0:0:0:
288,166,23759,6,0,P|199:175|128:125,1,180,2|2,0:0|0:0,0:0:0:0:
309,54,24204,2,0,L|369:130,1,90,8|0,0:0|0:0,0:0:0:0:
247,277,24501,2,0,L|187:201,2,90,2|2|8,0:0|0:0|0:0,0:0:0:0:
208,85,24947,6,0,P|120:105|74:177,1,180,6|2,0:0|0:0,0:0:0:0:
174,331,25392,2,0,P|262:308|309:233,1,180,8|2,0:0|0:0,0:0:0:0:
191,206,25838,1,2,0:0:0:0:
97,281,25986,2,0,P|85:331|92:370,1,90,8|0,0:0|0:0,0:0:0:0:
191,206,26284,6,0,P|199:108|166:31,1,180,6|8,0:0|0:0,0:0:0:0:
320,88,26729,2,0,B|455:79|455:79|408:49,1,180,2|2,0:0|0:0,0:0:0:0:
330,186,27175,2,0,L|422:180,1,90,8|0,0:0|0:0,0:0:0:0:
362,326,27472,6,0,B|296:329|296:329|257:311|257:311|238:340|261:385,1,180,6|8,0:0|0:0,0:0:0:0:
247,218,27917,1,0,0:0:0:0:
85,324,28066,1,2,0:0:0:0:
140,171,28214,1,2,0:0:0:0:
258,378,28363,1,8,0:0:0:0:
247,218,28511,1,2,0:0:0:0:
455,344,28660,5,12,0:0:0:0:
372,202,28808,1,2,0:0:0:0:
340,302,28957,1,2,0:0:0:0:
459,102,29105,2,0,B|411:76|411:76|299:134,1,180,12|0,0:0|0:0,0:0:0:0:
247,218,29551,6,0,L|252:322,1,101.250003862381
213,338,29848,6,0,L|207:195,1,135.000005149842,6|0,0:0|0:0,0:0:0:0:
207,203,30293,1,2,0:0:0:0:
457,58,30739,6,0,L|463:201,1,135.000005149842,2|0,0:0|0:0,0:0:0:0:
463,193,31185,1,2,0:0:0:0:
382,239,31333,1,0,0:0:0:0:
279,118,31482,1,0,0:0:0:0:
253,310,31630,5,2,0:0:0:0:
90,209,31779,2,0,L|135:209,1,33.7500012874604,2|0,0:0|0:0,0:0:0:0:
194,238,31927,2,0,L|295:238,1,101.250003862381,8|0,0:0|0:0,0:0:0:0:
371,252,32224,5,6,0:0:0:0:
279,117,32373,1,0,0:0:0:0:
265,348,32521,1,8,0:0:0:0:
334,53,32818,2,0,P|296:35|249:38,2,90,2|2|8,0:0|0:0|0:0,0:0:0:0:
400,169,33264,6,0,P|396:224|461:334,1,180,2|2,0:0|0:0,0:0:0:0:
326,131,33709,2,0,P|288:147|259:192,1,90,8|0,0:0|0:0,0:0:0:0:
249,362,34006,2,0,P|254:321|229:273,1,90,2|2,0:0|0:0,0:0:0:0:
168,206,34303,1,8,0:0:0:0:
168,206,34600,6,0,B|32:206|32:206|86:231,1,180,6|8,0:0|0:0,0:0:0:0:
249,362,35046,2,0,B|385:362|385:362|331:337,1,180,0|2,0:0|0:0,0:0:0:0:
410,160,35491,2,0,L|493:204,1,90,8|0,0:0|0:0,0:0:0:0:
269,218,35788,6,0,B|252:88|252:88|270:34,1,180,6|8,0:0|0:0,0:0:0:0:
101,139,36234,2,0,B|118:269|118:269|100:323,1,180,0|2,0:0|0:0,0:0:0:0:
188,184,36680,2,0,L|174:87,1,90,8|0,0:0|0:0,0:0:0:0:
219,295,36977,6,0,P|280:335|380:304,1,180,6|8,0:0|0:0,0:0:0:0:
406,77,37422,1,0,0:0:0:0:
279,66,37571,2,0,P|235:63|192:83,2,90,2|2|8,0:0|0:0|0:0,0:0:0:0:
297,226,38016,1,8,0:0:0:0:
179,168,38165,5,8,0:0:0:0:
434,159,38313,1,8,0:0:0:0:
108,246,38610,6,0,P|78:163|127:82,1,180,6|2,0:0|0:0,0:0:0:0:
135,328,39056,2,0,B|31:327|31:327|59:295,1,135,8|0,0:0|0:0,0:0:0:0:
188,258,39353,6,0,P|256:257|303:350,1,180,6|8,0:0|0:0,0:0:0:0:
223,332,39798,1,0,0:0:0:0:
273,184,39947,2,0,P|315:206|345:237,1,90,2|2,0:0|0:0,0:0:0:0:
223,332,40244,1,8,0:0:0:0:
192,177,40392,6,0,B|184:43|184:43|231:72,1,180,2|2,0:0|0:0,0:0:0:0:
149,248,40838,1,8,0:0:0:0:
111,162,40986,1,0,0:0:0:0:
298,41,41135,1,2,0:0:0:0:
279,133,41283,1,2,0:0:0:0:
377,302,41432,2,0,P|401:264|408:216,1,90,8|0,0:0|0:0,0:0:0:0:
189,182,41729,6,0,B|188:236|188:236|205:276|205:276|203:365,1,180,2|8,0:0|0:0,0:0:0:0:
123,296,42175,1,0,0:0:0:0:
271,210,42323,2,0,B|287:236|287:236|286:304,1,90,2|2,0:0|0:0,0:0:0:0:
123,296,42620,1,8,0:0:0:0:
142,101,42769,6,0,B|229:74|234:134|317:93,1,180,2|2,0:0|0:0,0:0:0:0:
189,182,43214,2,0,P|146:192|95:184,1,90,8|0,0:0|0:0,0:0:0:0:
240,274,43511,2,0,P|283:284|334:276,1,90,2|2,0:0|0:0,0:0:0:0:
197,377,43808,1,8,0:0:0:0:
264,31,44105,1,2,0:0:0:0:
264,31,44402,6,0,B|298:26|327:46|327:46|334:79|314:113,1,135,12|0,0:0|0:0,0:0:0:0:
282,195,44699,2,0,L|376:189,2,90,0|2|8,0:0|0:0|0:0,0:0:0:0:
125,38,45145,6,0,P|143:76|144:219,1,180,6|2,0:0|0:0,0:0:0:0:
289,283,45590,2,0,P|279:234|283:185,1,90,8|0,0:0|0:0,0:0:0:0:
380,69,45887,2,0,P|390:118|386:167,1,90,2|2,0:0|0:0,0:0:0:0:
204,132,46185,1,8,0:0:0:0:
283,33,46333,1,0,0:0:0:0:
360,243,46482,6,0,P|325:274|275:288,2,90,6|0|8,0:0|0:0|0:0,0:0:0:0:
446,224,46927,1,0,0:0:0:0:
387,157,47076,1,2,0:0:0:0:
420,311,47224,1,2,0:0:0:0:
284,198,47373,1,8,0:0:0:0:
469,144,47521,1,2,0:0:0:0:
292,60,47670,6,0,P|251:62|200:89,2,90,0|2|8,0:0|0:0|0:0,0:0:0:0:
284,198,48115,1,0,0:0:0:0:
171,280,48264,2,0,P|152:240|149:196,1,90,2|2,0:0|0:0,0:0:0:0:
361,308,48561,2,0,B|389:328|389:328|288:337,1,135,8|0,0:0|0:0,0:0:0:0:
277,363,48858,6,0,L|423:351,1,135,8|0,0:0|0:0,0:0:0:0:
486,193,49155,6,0,P|428:196|507:236,1,202.500007724762,6|0,0:0|0:0,0:0:0:0:
401,124,49452,6,0,P|365:152|343:197,2,90,0|2|8,0:0|0:0|0:0,0:0:0:0:
321,266,49897,2,0,P|243:289|160:243,1,180,2|2,0:0|0:0,0:0:0:0:
105,160,50343,1,8,0:0:0:0:
84,286,50491,1,0,0:0:0:0:
198,171,50640,1,8,0:0:0:0:
242,290,50788,1,0,0:0:0:0:
368,186,50937,2,0,B|396:167|396:167|295:158,1,135,8|0,0:0|0:0,0:0:0:0:
284,132,51234,6,0,L|430:144,1,135,2|0,0:0|0:0,0:0:0:0:
493,302,51531,6,0,P|435:299|514:259,1,202.500007724762,12|0,0:0|0:0,0:0:0:0:
408,370,51828,6,0,P|372:342|349:300,1,90,0|2,0:0|0:0,0:0:0:0:
320,147,52125,1,8,0:0:0:0:
232,333,52274,2,0,P|196:297|86:343,1,180,2|2,0:0|0:0,0:0:0:0:
162,370,52719,1,8,0:0:0:0:
160,212,52868,1,0,0:0:0:0:
320,228,53016,2,0,P|363:205|392:170,1,90,8|0,0:0|0:0,0:0:0:0:
260,33,53313,2,0,L|253:131,1,90
160,212,53610,6,0,B|103:223|103:223|18:195,2,135.000005149842,6|2|8,0:0|0:0|0:0,0:0:0:0:
252,203,54353,1,0,0:0:0:0:
316,268,54501,1,0,0:0:0:0:
342,94,54650,6,0,B|399:83|399:83|484:111,1,135.000005149842,8|8,0:0|0:0,0:0:0:0:
472,107,55095,1,2,0:0:0:0:
427,333,55392,2,0,L|420:252,1,67.5000025749208,8|0,0:0|0:0,0:0:0:0:
333,217,55689,2,0,L|327:284,1,67.5000025749208
109,299,55986,5,6,0:0:0:0:
187,174,56135,1,0,0:0:0:0:
198,322,56284,1,0,0:0:0:0:
102,208,56432,1,2,0:0:0:0:
245,244,56581,5,0,0:0:0:0:
237,96,56729,1,0,0:0:0:0:
332,212,56878,1,2,0:0:0:0:
189,173,57026,1,2,0:0:0:0:
327,120,57175,5,6,0:0:0:0:
172,171,57323,1,0,0:0:0:0:
330,227,57472,1,0,0:0:0:0:
156,169,57620,1,2,0:0:0:0:
237,68,57769,5,0,0:0:0:0:
375,208,57917,1,2,0:0:0:0:
420,87,58065,1,2,0:0:0:0:
258,195,58214,1,0,0:0:0:0:
504,355,58363,5,6,0:0:0:0:
458,167,58511,1,0,0:0:0:0:
295,312,58660,1,0,0:0:0:0:
349,126,58808,1,2,0:0:0:0:
123,185,58957,5,0,0:0:0:0:
262,50,59105,1,2,0:0:0:0:
232,243,59254,1,0,0:0:0:0:
43,142,59402,6,0,P|73:112|203:147,1,180,6|2,0:0|0:0,0:0:0:0:
170,333,59848,2,0,P|127:346|76:334,1,90,8|0,0:0|0:0,0:0:0:0:
232,243,60145,2,0,B|327:254,1,90,8|0,0:0|0:0,0:0:0:0:
398,146,60442,1,0,0:0:0:0:
422,337,60590,1,6,0:0:0:0:
422,337,60887,5,8,0:0:0:0:
398,146,61036,1,8,0:0:0:0:
232,243,61185,1,2,0:0:0:0:
232,243,61482,6,0,L|179:236,1,45,2|2,0:0|0:0,0:0:0:0:
113,157,61630,2,0,L|251:142,1,135,8|0,0:0|0:0,0:0:0:0:
336,43,61927,5,6,0:0:0:0:
211,49,62076,1,0,0:0:0:0:
321,206,62224,1,8,0:0:0:0:
203,361,62373,2,0,B|189:312|189:312|196:262,1,99.0000030212403,2|0,0:0|0:0,0:0:0:0:
321,206,62670,1,2,0:0:0:0:
291,300,62818,1,8,0:0:0:0:
231,181,62967,1,0,0:0:0:0:
411,36,63115,6,0,P|435:76|401:227,1,198.000006042481,6|8,0:0|0:0,0:0:0:0:
159,125,63561,2,0,P|199:101|350:135,1,198.000006042481,2|2,0:0|0:0,0:0:0:0:
376,290,64006,2,0,P|343:258|332:198,1,99.0000030212403,8|0,0:0|0:0,0:0:0:0:
257,17,64303,6,0,B|259:86|259:86|243:136|243:136|247:219,1,198.000006042481,6|8,0:0|0:0,0:0:0:0:
340,125,64749,1,0,0:0:0:0:
160,205,64897,1,2,0:0:0:0:
327,307,65046,1,2,0:0:0:0:
163,309,65194,1,8,0:0:0:0:
330,207,65343,1,0,0:0:0:0:
163,105,65491,6,0,B|119:99|119:99|53:116,2,99.0000030212403,2|2|8,0:0|0:0|0:0,0:0:0:0:
268,274,65937,2,0,B|315:300|315:300|466:276,1,198.000006042481,2|2,0:0|0:0,0:0:0:0:
456,81,66383,2,0,P|407:111|472:150,1,148.50000453186,8|0,0:0|0:0,0:0:0:0:
381,214,66680,6,0,P|332:131|370:34,1,198.000006042481,6|8,0:0|0:0,0:0:0:0:
230,130,67125,1,0,0:0:0:0:
47,75,67274,1,2,0:0:0:0:
230,130,67422,1,2,0:0:0:0:
175,313,67571,1,8,0:0:0:0:
145,88,67719,6,0,P|197:46|311:89,1,198.000006042481,6|2,0:0|0:0,0:0:0:0:
240,223,68165,2,0,P|194:217|150:177,1,99.0000030212403,8|0,0:0|0:0,0:0:0:0:
318,173,68462,2,0,L|331:276,1,99.0000030212403,2|2,0:0|0:0,0:0:0:0:
145,332,68759,2,0,L|154:179,1,148.50000453186,8|0,0:0|0:0,0:0:0:0:
153,183,69056,6,0,P|114:204|51:197,1,99.0000030212403,6|0,0:0|0:0,0:0:0:0:
190,57,69353,2,0,P|234:59|285:96,1,99.0000030212403,8|0,0:0|0:0,0:0:0:0:
345,163,69650,1,2,0:0:0:0:
213,135,69798,1,2,0:0:0:0:
362,74,69947,1,8,0:0:0:0:
339,298,70095,6,0,L|138:277,1,198.000006042481,6|2,0:0|0:0,0:0:0:0:
213,135,70541,1,8,0:0:0:0:
247,255,70689,1,2,0:0:0:0:
106,66,70838,1,0,0:0:0:0:
75,329,70986,2,0,P|136:359|207:228,1,247.500007553101,2|0,0:0|0:0,0:0:0:0:
165,148,71432,5,6,0:0:0:0:
142,277,71581,1,2,0:0:0:0:
299,242,71729,1,8,0:0:0:0:
102,200,71878,2,0,B|53:199|53:199|2:223,1,99.0000030212403,2|0,0:0|0:0,0:0:0:0:
119,360,72175,1,2,0:0:0:0:
165,148,72323,1,8,0:0:0:0:
274,337,72472,1,0,0:0:0:0:
329,107,72620,6,0,B|368:252|368:252|348:303,1,198.000006042481,6|8,0:0|0:0,0:0:0:0:
120,240,73066,2,0,B|131:87|131:87|157:129,1,198.000006042481,2|2,0:0|0:0,0:0:0:0:
211,312,73511,1,8,0:0:0:0:
243,187,73660,1,0,0:0:0:0:
23,154,73808,6,0,L|41:359,1,198.000006042481,6|8,0:0|0:0,0:0:0:0:
120,240,74254,1,2,0:0:0:0:
217,337,74402,1,0,0:0:0:0:
199,76,74551,2,0,P|250:49|418:126,1,247.500007553101,2|0,0:0|0:0,0:0:0:0:
336,262,74996,6,0,B|253:201|253:201|344:152,1,198.000006042481,2|0,0:0|0:0,0:0:0:0:
249,299,75442,6,0,B|114:201|114:201|183:196,1,233.999989288331,2|0,0:0|0:0,0:0:0:0:
60,260,75887,6,0,B|7:275|7:275|57:130,1,202.500007724762,2|0,0:0|0:0,0:0:0:0:
94,44,76185,5,8,0:0:0:0:
154,296,76333,1,8,0:0:0:0:
396,79,76630,5,8,0:3:0:0:
396,79,76704,1,8,0:3:0:0:
396,79,76779,1,8,0:3:0:0:
336,302,76927,2,0,L|312:204,1,99.0000030212403,8|0,0:0|0:0,0:0:0:0:
189,20,77224,6,0,L|166:224,1,198.000006042481,6|8,0:0|0:0,0:0:0:0:
99,108,77670,1,0,0:0:0:0:
262,113,77818,1,0,0:0:0:0:
92,271,77967,1,8,0:0:0:0:
348,278,78115,1,6,0:0:0:0:
348,278,78412,6,0,P|381:197|345:88,1,198.000006042481,6|0,0:0|0:0,0:0:0:0:
154,122,78858,2,0,P|170:172|207:207,1,99.0000030212403
133,286,79155,2,0,P|179:310|230:308,1,99.0000030212403
348,278,79452,1,0,0:0:0:0:
213,52,79600,6,0,P|150:34|59:118,1,198.000006042481,6|8,0:0|0:0,0:0:0:0:
59,115,79972,1,8,0:0:0:0:
59,115,80046,1,8,0:0:0:0:
203,204,80194,1,0,0:0:0:0:
48,321,80343,1,8,0:0:0:0:
105,203,80491,1,0,0:0:0:0:
260,322,80640,1,0,0:0:0:0:
154,122,80788,1,0,0:0:0:0:
285,234,80937,6,0,P|327:229|379:245,2,90,6|0|2,0:0|0:0|0:0,0:0:0:0:
365,59,81531,1,8,0:0:0:0:
446,106,81680,1,0,0:0:0:0:
365,154,81828,1,0,0:0:0:0:
224,78,81977,6,0,P|179:119|165:238,1,180,0|8,0:0|0:0,0:0:0:0:
214,315,82422,2,0,L|125:319,1,90,2|0,0:0|0:0,0:0:0:0:
243,229,82719,2,0,B|379:257|379:257|334:273,1,180,8|0,0:0|0:0,0:0:0:0:
333,78,83313,5,6,0:0:0:0:
396,152,83462,2,0,L|477:96,2,90,0|2|0,0:0|0:0|0:0,0:0:0:0:
387,248,83907,2,0,L|483:265,1,90,8|0,0:0|0:0,0:0:0:0:
370,344,84204,1,8,0:0:0:0:
274,214,84353,6,0,P|227:197|122:260,1,180,6|2,0:0|0:0,0:0:0:0:
294,304,84798,1,8,0:0:0:0:
252,113,84947,1,8,0:0:0:0:
252,113,85021,1,8,0:0:0:0:
252,113,85095,1,8,0:0:0:0:
213,280,85244,2,0,L|216:373,1,90,2|0,0:0|0:0,0:0:0:0:
420,269,85541,6,0,B|414:135|414:135|379:103,1,180,6|2,0:0|0:0,0:0:0:0:
208,184,85986,2,0,B|253:197|253:197|297:184,1,90,8|0,0:0|0:0,0:0:0:0:
112,53,86284,1,8,0:0:0:0:
297,100,86432,1,0,0:0:0:0:
116,235,86581,1,8,0:0:0:0:
337,370,86729,6,0,B|323:323|347:275|347:275|269:307|269:256|173:291,1,270,2|0,0:0|0:0,0:0:0:0:
179,289,87472,6,0,P|225:278|275:284,2,90
94,337,87917,1,0,0:0:0:0:
111,78,88066,5,6,0:0:0:0:
320,200,88214,1,8,0:0:0:0:
257,92,88362,1,0,0:0:0:0:
196,200,88511,1,2,0:0:0:0:
418,337,88660,5,0,0:0:0:0:
401,78,88809,1,2,0:0:0:0:
257,302,88957,1,8,0:0:0:0:
256,8,89105,5,6,0:0:0:0:
