osu file format v14

[General]
AudioFilename: Setsuna no Kajitsu.mp3
AudioLeadIn: 0
PreviewTime: 61853
Countdown: 0
SampleSet: Soft
StackLeniency: 0.7
Mode: 0
LetterboxInBreaks: 0
WidescreenStoryboard: 0

[Editor]
Bookmarks: 614,10689,20343,29848,39353,48858,55986,61927,71432,80937,89105
DistanceSpacing: 0.5
BeatDivisor: 4
GridSize: 4
TimelineZoom: 2.599999

[Metadata]
Title:Setsuna no Kajitsu
TitleUnicode:刹那の果実
Artist:Maon Kurosaki
ArtistUnicode:黒崎真音
Creator:lit120
Version:Normal
Source:グリザイアの楽園
Tags:tv size opening grisaia no rakuen -hakurei- lgv894 lasse beomsan karia davided
BeatmapID:1077528
BeatmapSetID:506544

[Difficulty]
HPDrainRate:5
CircleSize:3
OverallDifficulty:3
ApproachRate:5
SliderMultiplier:0.999999999999999
SliderTickRate:1

[Events]
//Background and Video events
Video,0,"video (2).flv"
0,0,"bg.jpg",0,0
//Break Periods
//Storyboard Layer 0 (Background)
//Storyboard Layer 1 (Fail)
//Storyboard Layer 2 (Pass)
//Storyboard Layer 3 (Foreground)
//Storyboard Sound Samples

[TimingPoints]
614,368.098159509202,4,2,1,50,1,0
2086,357.142857142857,4,2,1,50,1,0
3514,337.078651685393,4,2,1,50,1,0
4862,306.122448979592,4,2,1,50,1,0
6086,297.029702970297,4,2,1,50,1,0
9947,-100,4,2,2,60,0,0
61927,-100,4,2,2,60,0,1
80937,-100,4,2,2,60,0,0

[Colours]
Combo1 : 135,162,209
Combo2 : 59,58,160
Combo3 : 141,36,120

[HitObjects]
189,221,614,6,0,P|180:288|193:343,1,99.9999999999999,2|0,0:0|0:0,0:0:0:0:
291,291,1350,2,0,P|300:224|287:169,1,99.9999999999999,2|2,0:0|0:0,0:0:0:0:
226,102,2086,6,0,L|95:99,1,99.9999999999999,2|0,0:0|0:0,0:0:0:0:
35,162,2800,2,0,L|32:261,1,99.9999999999999,2|2,0:0|0:0,0:0:0:0:
119,338,3514,6,0,P|169:331|219:335,1,99.9999999999999,2|0,0:0|0:0,0:0:0:0:
325,362,4188,2,0,P|374:366|424:359,1,99.9999999999999,2|2,0:0|0:0,0:0:0:0:
480,252,4862,6,0,P|483:203|472:136,1,99.9999999999999,2|0,0:0|0:0,0:0:0:0:
377,105,5474,2,0,P|374:154|385:221,1,99.9999999999999,2|2,0:0|0:0,0:0:0:0:
297,281,6086,6,0,P|219:286|177:275,1,99.9999999999999,2|0,0:0|0:0,0:0:0:0:
169,175,6680,2,0,P|247:170|289:181,1,99.9999999999999,2|0,0:0|0:0,0:0:0:0:
375,203,7274,2,0,P|446:182|444:68,1,200
343,34,8165,1,0,0:0:0:0:
233,43,8462,5,0,0:0:0:0:
233,43,8610,2,0,P|208:87|203:136,1,99.9999999999999,2|0,0:0|0:0,0:0:0:0:
218,188,9056,2,0,P|242:231|248:280,1,99.9999999999999,2|2,0:0|0:0,0:0:0:0:
232,332,9501,1,2,0:0:0:0:
70,295,9947,6,0,L|62:228,1,50,8|8,0:0|0:0,0:0:0:0:
88,196,10244,2,0,L|113:129,1,50,8|2,0:0|0:0,0:0:0:0:
181,69,10689,6,0,P|272:59|356:86,1,150,6|8,0:0|0:0,0:0:0:0:
397,158,11432,2,0,P|396:228|406:275,1,99.9999999999999,2|8,0:0|0:0,0:0:0:0:
302,305,12026,2,0,P|303:235|293:188,1,99.9999999999999,2|8,0:0|0:0,0:0:0:0:
199,156,12620,2,0,L|144:127,2,50,2|2|8,0:0|0:0|0:0,0:0:0:0:
198,211,13066,6,0,P|162:267|75:278,1,150,2|8,0:0|0:0,0:0:0:0:
27,186,13808,2,0,L|42:82,1,99.9999999999999,2|8,0:0|0:0,0:0:0:0:
66,37,14254,2,0,P|130:57|236:43,1,150,2|8,0:0|0:0,0:0:0:0:
305,108,14996,2,0,L|321:160,1,50,8|2,0:0|0:0,0:0:0:0:
319,266,15442,6,0,P|256:317|180:311,1,150,6|8,0:0|0:0,0:0:0:0:
97,255,16185,2,0,L|44:253,2,50,2|2|8,0:0|0:0|0:0,0:0:0:0:
111,202,16630,2,0,B|136:106|136:106|209:69,1,150,6|8,0:0|0:0,0:0:0:0:
290,74,17373,2,0,L|287:19,2,50,2|2|8,0:0|0:0|0:0,0:0:0:0:
292,128,17818,1,0,0:0:0:0:
292,128,17967,6,0,P|341:129|391:126,1,99.9999999999999,6|0,0:0|0:0,0:0:0:0:
446,129,18412,2,0,P|444:178|447:228,1,99.9999999999999,8|0,0:3|0:0,0:0:0:0:
445,282,18858,2,0,P|395:280|345:283,1,99.9999999999999,8|0,0:3|0:0,0:0:0:0:
291,281,19303,2,0,P|292:231|289:181,1,99.9999999999999,4|0,0:3|0:0,0:0:0:0:
292,128,19749,2,0,L|224:127,1,50,8|8,0:0|0:0,0:0:0:0:
78,149,20343,6,0,B|51:191|51:191|39:267,1,99.9999999999999,6|0,0:0|0:0,0:0:0:0:
42,295,20788,2,0,P|118:278|203:298,1,150,2|2,0:0|0:0,0:0:0:0:
295,316,21531,1,0,0:0:0:0:
295,316,21680,2,0,P|332:263|333:220,1,99.9999999999999,2|2,0:0|0:0,0:0:0:0:
322,175,22125,2,0,L|375:168,2,50,8|2|8,0:0|0:0|0:0,0:0:0:0:
240,101,22719,6,0,P|191:87|114:101,1,99.9999999999999,6|8,0:0|0:0,0:0:0:0:
51,152,23313,2,0,P|42:201|65:276,1,99.9999999999999,2|8,0:0|0:0,0:0:0:0:
64,303,23759,2,0,P|143:288|226:304,1,150,2|8,0:0|0:0,0:0:0:0:
319,315,24501,2,0,L|325:375,2,50,2|2|8,0:0|0:0|0:0,0:0:0:0:
368,291,24947,6,0,B|406:238|406:238|415:168,1,99.9999999999999,6|2,0:0|0:0,0:0:0:0:
404,149,25392,2,0,P|376:98|323:66,1,99.9999999999999,8|2,0:0|0:0,0:0:0:0:
288,68,25838,2,0,L|285:11,2,50,2|8|0,0:0|0:0|0:0,0:0:0:0:
232,70,26284,2,0,P|157:75|113:66,1,99.9999999999999,6|8,0:0|0:0,0:0:0:0:
79,58,26729,2,0,P|82:135|69:233,1,150,2|8,0:0|0:0,0:0:0:0:
111,311,27472,6,0,P|176:301|225:317,1,99.9999999999999,6|8,0:0|0:0,0:0:0:0:
315,335,28066,2,0,L|371:318,1,50,2|2,0:0|0:0,0:0:0:0:
413,298,28363,1,8,0:0:0:0:
403,188,28660,2,0,B|389:139|389:139|339:81,1,99.9999999999999,12|2,0:0|0:0,0:0:0:0:
302,97,29105,2,0,P|212:98|199:95,1,99.9999999999999,12|0,0:0|0:0,0:0:0:0:
148,87,29551,1,0,0:0:0:0:
80,173,29848,6,0,P|70:247|88:304,1,99.9999999999999,6|0,0:0|0:0,0:0:0:0:
62,324,30293,2,0,P|131:315|239:332,1,150,2|2,0:0|0:0,0:0:0:0:
318,344,31036,1,0,0:0:0:0:
318,344,31185,2,0,B|351:308|351:308|358:257,1,99.9999999999999,2|0,0:0|0:0,0:0:0:0:
360,202,31630,2,0,L|422:193,2,50,2|2|8,0:0|0:0|0:0,0:0:0:0:
314,101,32224,6,0,L|217:78,1,99.9999999999999,6|8,0:0|0:0,0:0:0:0:
112,41,32818,2,0,P|107:90|123:137,1,99.9999999999999,2|8,0:0|0:0,0:0:0:0:
147,186,33264,2,0,B|204:233|204:233|299:236,1,150,2|8,0:0|0:0,0:0:0:0:
389,229,34006,2,0,L|415:180,1,50,2|2,0:0|0:0,0:0:0:0:
431,133,34303,1,8,0:0:0:0:
363,46,34600,6,0,B|302:44|302:44|240:79,1,99.9999999999999,6|8,0:0|0:0,0:0:0:0:
227,101,35046,2,0,P|218:168|231:278,1,150,0|8,0:0|0:0,0:0:0:0:
298,330,35788,2,0,P|347:336|397:333,1,99.9999999999999,6|8,0:0|0:0,0:0:0:0:
432,228,36383,2,0,P|382:223|333:226,1,99.9999999999999,0|8,0:0|0:0,0:0:0:0:
224,249,36977,6,0,P|174:252|124:247,1,99.9999999999999,6|8,0:0|0:0,0:0:0:0:
70,256,37422,2,0,P|80:183|73:107,1,150,0|8,0:0|0:0,0:0:0:0:
154,32,38165,2,8,L|227:26,1,50
312,34,38610,2,0,B|342:73|342:73|353:146,1,99.9999999999999,6|2,0:0|0:0,0:0:0:0:
352,178,39056,1,8,0:0:0:0:
330,285,39353,5,6,0:0:0:0:
226,319,39650,2,0,B|171:318|171:318|127:286,1,99.9999999999999,8|2,0:0|0:0,0:0:0:0:
103,246,40095,1,2,0:0:0:0:
107,136,40392,2,0,B|148:83|148:83|228:61,1,150,2|8,0:0|0:0,0:0:0:0:
338,58,41135,2,0,L|355:6,2,50,2|2|8,0:0|0:0|0:0,0:0:0:0:
417,133,41729,5,2,0:0:0:0:
420,242,42026,1,8,0:0:0:0:
345,321,42323,2,0,L|379:373,2,50,2|2|8,0:0|0:0|0:0,0:0:0:0:
299,290,42769,1,2,0:0:0:0:
191,268,43066,1,2,0:0:0:0:
191,268,43214,2,0,P|132:218|116:173,2,99.9999999999999,8|2|8,0:0|0:0|0:0,0:0:0:0:
299,290,44105,1,2,0:0:0:0:
316,181,44402,5,12,0:0:0:0:
334,72,44699,2,0,L|400:78,2,50,0|2|8,0:0|0:0|0:0,0:0:0:0:
278,75,45145,2,0,P|215:79|151:68,1,99.9999999999999,6|2,0:0|0:0,0:0:0:0:
124,69,45590,1,8,0:0:0:0:
57,156,45887,2,0,L|7:152,2,50,2|2|8,0:0|0:0|0:0,0:0:0:0:
120,246,46482,6,0,B|166:269|166:269|241:269,1,99.9999999999999,6|8,0:0|0:0,0:0:0:0:
268,262,46927,2,0,B|346:228|346:228|361:147,1,150,0|8,0:0|0:0,0:0:0:0:
333,56,47670,1,2,0:0:0:0:
224,44,47967,2,0,B|178:68|178:68|137:126,1,99.9999999999999,8|2,0:0|0:0,0:0:0:0:
139,161,48412,1,2,0:0:0:0:
139,161,48561,2,0,L|151:290,1,99.9999999999999,8|8,0:0|0:0,0:0:0:0:
202,356,49155,5,12,0:0:0:0:
311,364,49452,2,0,P|348:325|376:276,1,99.9999999999999,0|8,0:0|0:0,0:0:0:0:
388,233,49897,1,2,0:0:0:0:
387,123,50194,2,0,L|340:82,1,50,2|8,0:0|0:0,0:0:0:0:
252,36,50640,2,8,P|202:30|155:45,2,99.9999999999999,8|8|2,0:0|0:0|0:0,0:0:0:0:
214,139,51531,5,12,0:0:0:0:
234,246,51828,2,0,P|231:331|223:350,1,99.9999999999999,0|8,0:0|0:0,0:0:0:0:
174,363,52274,2,0,B|99:368|99:368|40:296,1,150,2|8,0:0|0:0,0:0:0:0:
50,200,53016,2,0,L|6:175,2,50,8|0|0,0:0|0:0|0:0,0:0:0:0:
105,105,53610,6,0,P|151:84|200:79,1,99.9999999999999,6|2,0:0|0:0,0:0:0:0:
311,79,54204,2,0,P|360:84|406:105,1,99.9999999999999,8|0,0:0|0:0,0:0:0:0:
433,152,54650,2,0,B|446:215|446:215|428:287,1,99.9999999999999,8|8,0:0|0:0,0:0:0:0:
407,295,55095,1,2,0:0:0:0:
306,339,55392,1,8,0:0:0:0:
202,298,55689,1,0,0:0:0:0:
158,197,55986,6,0,B|149:173|144:140|151:118|164:96|164:96|129:38,2,150,6|2|2,0:0|0:0|0:0,0:0:0:0:
258,151,57175,2,0,B|274:131|300:110|322:105|348:105|348:105|370:66,2,150,6|2|2,0:0|0:0|0:0,0:0:0:0:
349,215,58363,2,0,B|374:219|405:231|420:248|433:270|433:270|501:269,2,150,6|2|2,0:0|0:0|0:0,0:0:0:0:
294,210,59402,6,0,P|224:223|170:283,1,150,6|8,0:0|0:0,0:0:0:0:
245,360,60145,2,0,B|301:357|301:357|355:328,1,99.9999999999999,8|0,0:0|0:0,0:0:0:0:
369,290,60590,1,6,0:0:0:0:
400,185,60887,2,0,L|461:171,2,50,8|8|2,0:0|0:0|0:0,0:0:0:0:
325,105,61482,1,2,0:0:0:0:
325,105,61630,1,8,0:0:0:0:
294,210,61927,6,0,P|219:215|159:188,1,99.9999999999999,6|8,0:0|0:0,0:0:0:0:
141,196,62373,2,0,P|93:210|53:240,1,99.9999999999999,2|2,0:0|0:0,0:0:0:0:
38,293,62818,1,8,0:0:0:0:
113,371,63115,2,0,B|163:366|163:366|224:338,1,99.9999999999999,6|8,0:0|0:0,0:0:0:0:
251,310,63561,1,2,0:0:0:0:
294,210,63858,2,0,L|346:214,2,50,2|8|0,0:0|0:0|0:0,0:0:0:0:
286,154,64303,6,0,P|274:106|240:70,1,99.9999999999999,6|8,0:0|0:0,0:0:0:0:
132,55,64897,2,0,P|83:66|47:100,1,99.9999999999999,2|8,0:0|0:0,0:0:0:0:
62,209,65491,2,0,L|80:323,1,99.9999999999999,2|8,0:0|0:0,0:0:0:0:
68,362,65937,2,0,P|130:343|232:356,1,150,2|8,0:0|0:0,0:0:0:0:
323,365,66680,6,0,B|370:359|370:359|423:315,1,99.9999999999999,6|8,0:0|0:0,0:0:0:0:
436,218,67274,2,0,L|486:214,2,50,2|2|8,0:0|0:0|0:0,0:0:0:0:
422,164,67719,2,0,B|396:113|396:113|342:83,1,99.9999999999999,6|2,0:0|0:0,0:0:0:0:
304,79,68165,1,8,0:0:0:0:
194,65,68462,2,0,L|164:108,1,50,2|2,0:0|0:0,0:0:0:0:
139,154,68759,1,8,0:0:0:0:
115,261,69056,6,0,P|114:325|133:366,1,99.9999999999999,6|8,0:0|0:0,0:0:0:0:
237,358,69650,2,0,P|253:311|249:261,1,99.9999999999999,2|8,0:0|0:0,0:0:0:0:
269,210,70095,2,0,P|195:201|139:154,1,150,6|8,0:0|0:0,0:0:0:0:
181,51,70838,2,0,L|152:11,2,50,0|2|8,0:0|0:0|0:0,0:0:0:0:
289,34,71432,6,0,L|297:102,2,50,6|0|8,0:0|0:0|0:0,0:0:0:0:
343,26,71878,2,0,P|408:46|449:84,1,99.9999999999999,2|2,0:0|0:0,0:0:0:0:
449,117,72323,1,8,0:0:0:0:
430,224,72620,2,0,P|420:284|431:330,1,99.9999999999999,6|8,0:0|0:0,0:0:0:0:
456,369,73066,2,0,P|383:358|304:370,1,150,2|8,0:0|0:0,0:0:0:0:
198,367,73808,6,0,P|161:334|136:276,1,99.9999999999999,6|8,0:0|0:0,0:0:0:0:
131,234,74254,1,2,0:0:0:0:
146,125,74551,2,0,L|192:106,1,50,2|8,0:0|0:0,0:0:0:0:
302,109,74996,2,0,B|366:143|366:143|335:214,2,150,2|2|2,0:0|0:0|0:0,0:0:0:0:
192,106,76185,5,8,0:0:0:0:
192,106,76333,1,8,0:0:0:0:
157,210,76630,1,0,0:0:0:0:
245,277,76927,1,8,0:0:0:0:
335,214,77224,2,0,P|396:208|455:269,1,150,6|0,0:0|0:0,0:0:0:0:
413,369,77967,2,0,L|346:370,1,50,8|6,0:0|0:0,0:0:0:0:
253,369,78412,6,0,B|165:356|165:356|121:281,1,150,6|0,0:0|0:0,0:0:0:0:
100,198,79155,1,0,0:0:0:0:
207,221,79452,1,0,0:0:0:0:
207,221,79600,2,0,B|295:211|295:211|331:158,1,150,6|8,0:0|0:0,0:0:0:0:
301,53,80343,2,0,P|240:35|193:43,1,99.9999999999999,8|0,0:0|0:0,0:0:0:0:
105,87,80937,5,6,0:0:0:0:
100,198,81234,1,2,0:0:0:0:
95,309,81531,2,0,P|158:300|211:305,1,99.9999999999999,8|0,0:0|0:0,0:0:0:0:
248,313,81977,2,0,P|309:322|396:266,1,150,0|2,0:0|0:0,0:0:0:0:
405,173,82719,2,0,B|388:123|388:123|335:80,1,99.9999999999999,8|0,0:0|0:0,0:0:0:0:
247,52,83313,6,0,P|198:49|152:67,2,99.9999999999999,6|2|8,0:0|0:0|0:0,0:0:0:0:
214,157,84204,1,8,0:0:0:0:
214,157,84353,1,6,0:0:0:0:
276,247,84650,2,0,P|230:265|181:262,1,99.9999999999999,2|0,0:0|0:0,0:0:0:0:
134,233,85095,2,0,L|106:170,1,50,8|2,0:0|0:0,0:0:0:0:
84,80,85541,6,0,B|141:33|141:33|237:40,1,150,6|8,0:0|0:0,0:0:0:0:
322,70,86284,2,0,L|345:177,1,99.9999999999999,8|8,0:0|0:0,0:0:0:0:
360,219,86729,2,0,P|286:209|217:238,1,150,2|0,0:0|0:0,0:0:0:0:
159,332,87472,2,0,P|124:296|108:249,1,99.9999999999999
96,139,88066,6,0,P|51:119|2:117,2,99.9999999999999,6|0|0,0:0|0:0|0:0,0:0:0:0:
207,129,88957,2,0,L|272:114,1,50,8|6,0:0|0:0,0:0:0:0:
