osu file format v14

[General]
AudioFilename: Setsuna no Kajitsu.mp3
AudioLeadIn: 0
PreviewTime: 61853
Countdown: 0
SampleSet: Soft
StackLeniency: 0.4
Mode: 0
LetterboxInBreaks: 0
WidescreenStoryboard: 0

[Editor]
Bookmarks: 614,10689,20343,29848,39353,48858,55986,61927,71432,80937,89105
DistanceSpacing: 1.2
BeatDivisor: 4
GridSize: 4
TimelineZoom: 3.199999

[Metadata]
Title:Setsuna no Kajitsu
TitleUnicode:刹那の果実
Artist:Maon Kurosaki
ArtistUnicode:黒崎真音
Creator:lit120
Version:Hard
Source:グリザイアの楽園
Tags:tv size opening grisaia no rakuen -hakurei- lgv894 lasse beomsan karia davided
BeatmapID:1077525
BeatmapSetID:506544

[Difficulty]
HPDrainRate:6
CircleSize:3.5
OverallDifficulty:6
ApproachRate:8
SliderMultiplier:1.3
SliderTickRate:1

[Events]
//Background and Video events
Video,0,"video (2).flv"
0,0,"bg.jpg",0,0
//Break Periods
//Storyboard Layer 0 (Background)
//Storyboard Layer 1 (Fail)
//Storyboard Layer 2 (Pass)
//Storyboard Layer 3 (Foreground)
//Storyboard Sound Samples

[TimingPoints]
614,368.098159509202,4,2,1,50,1,0
2086,357.142857142857,4,2,1,50,1,0
3514,337.078651685393,4,2,1,50,1,0
4862,306.122448979592,4,2,1,50,1,0
6086,297.029702970297,4,2,1,50,1,0
9947,-100,4,2,2,60,0,0
61927,-100,4,2,2,60,0,1
80937,-100,4,2,2,60,0,0

[Colours]
Combo1 : 135,162,209
Combo2 : 59,58,160
Combo3 : 141,36,120

[HitObjects]
73,90,614,6,0,P|122:130|185:121,1,130,2|0,0:0|0:0,0:0:0:0:
256,89,1166,1,0,0:0:0:0:
326,121,1350,2,0,P|389:130|438:90,1,130,2|2,0:0|0:0,0:0:0:0:
370,56,1902,1,2,0:0:0:0:
370,56,2086,6,0,P|362:144|371:201,1,130,2|2,0:0|0:0,0:0:0:0:
395,257,2621,1,2,0:0:0:0:
445,197,2800,1,2,0:0:0:0:
345,317,3157,1,2,0:0:0:0:
263,173,3514,6,0,P|176:161|130:173,1,130,2|0,0:0|0:0,0:0:0:0:
85,229,4019,1,0,0:0:0:0:
133,290,4188,2,0,P|220:302|266:290,1,130,2|2,0:0|0:0,0:0:0:0:
311,234,4693,1,2,0:0:0:0:
373,293,4862,6,0,P|393:214|364:166,1,130,2|0,0:0|0:0,0:0:0:0:
319,116,5321,1,0,0:0:0:0:
246,86,5474,2,0,L|164:111,1,65,2|0,0:0|0:0,0:0:0:0:
129,161,5780,2,0,L|183:204,1,65,2|0,0:0|0:0,0:0:0:0:
245,249,6086,5,2,0:0:0:0:
245,249,6234,2,0,P|226:332|174:360,1,130,2|0,0:0|0:0,0:0:0:0:
114,362,6680,2,0,P|48:307|47:248,1,130,2|0,0:0|0:0,0:0:0:0:
54,188,7125,2,0,P|82:131|60:72,1,130,2|0,0:0|0:0,0:0:0:0:
5,128,7571,2,0,P|91:131|161:118,1,130,2|0,0:0|0:0,0:0:0:0:
287,94,8165,1,0,0:0:0:0:
236,240,8462,5,0,0:0:0:0:
236,240,8610,2,0,P|278:302|339:324,1,130,2|0,0:0|0:0,0:0:0:0:
377,262,9056,2,0,P|335:200|274:178,1,130,2|2,0:0|0:0,0:0:0:0:
207,167,9501,1,2,0:0:0:0:
66,235,9798,5,0,0:0:0:0:
64,313,9947,2,8,L|48:361,4,32.5
133,276,10392,2,0,L|197:272,1,65,2|0,0:0|0:0,0:0:0:0:
252,327,10689,6,0,P|274:268|247:211,1,130,6|2,0:0|0:0,0:0:0:0:
169,198,11135,2,0,L|88:192,1,65,8|0,0:0|0:0,0:0:0:0:
32,162,11432,2,0,P|26:82|99:38,1,130,2|8,0:0|0:0,0:0:0:0:
133,32,11878,1,0,0:0:0:0:
210,38,12026,6,0,L|276:68,1,65,2|0,0:0|0:0,0:0:0:0:
317,126,12323,2,0,L|321:191,1,65,8|0,0:0|0:0,0:0:0:0:
283,259,12620,2,0,P|314:268|346:264,2,65,2|2|8,0:0|0:0|0:0,0:0:0:0:
208,230,13066,6,0,P|146:223|99:265,1,130,2|2,0:0|0:0,0:0:0:0:
170,298,13511,2,0,P|174:203|161:140,1,130,8|2,0:0|0:0,0:0:0:0:
146,93,13957,1,2,0:0:0:0:
211,49,14105,1,8,0:0:0:0:
273,97,14254,6,0,L|287:242,1,130,2|2,0:0|0:0,0:0:0:0:
305,301,14699,1,8,0:0:0:0:
380,322,14848,2,0,L|384:355,2,32.5,0|8|8,0:0|0:0|0:0,0:0:0:0:
434,267,15145,1,2,0:0:0:0:
400,114,15442,6,0,B|352:62|352:62|282:42,1,130,6|2,0:0|0:0,0:0:0:0:
216,45,15887,2,0,B|160:62|160:62|112:114,1,130,8|2,0:0|0:0,0:0:0:0:
102,191,16333,1,2,0:0:0:0:
163,237,16482,1,8,0:0:0:0:
235,256,16630,6,0,P|226:194|173:161,1,130,6|2,0:0|0:0,0:0:0:0:
102,191,17076,2,0,P|89:220|89:252,1,65,8|0,0:0|0:0,0:0:0:0:
85,331,17373,1,2,0:0:0:0:
151,373,17521,1,2,0:0:0:0:
220,338,17670,2,0,P|256:333|316:342,1,65,8|0,0:0|0:0,0:0:0:0:
362,340,17967,6,0,B|424:322|424:322|455:238,1,130,6|0,0:0|0:0,0:0:0:0:
437,183,18412,2,0,B|396:117|396:117|349:93,1,130,8|0,0:3|0:0,0:0:0:0:
300,30,18858,2,0,P|270:87|290:147,1,130,8|0,0:3|0:0,0:0:0:0:
323,217,19303,2,0,P|342:277|313:333,1,130,4|0,0:3|0:0,0:0:0:0:
236,348,19749,1,8,0:0:0:0:
160,328,19897,1,8,0:0:0:0:
46,123,20343,6,0,P|115:107|189:118,1,130,6|0,0:0|0:0,0:0:0:0:
247,137,20788,2,0,P|310:136|352:90,1,130,2|0,0:0|0:0,0:0:0:0:
279,65,21234,2,0,P|271:171|280:222,1,130,2|0,0:0|0:0,0:0:0:0:
285,271,21680,2,0,P|269:332|214:363,1,130,2|2,0:0|0:0,0:0:0:0:
208,285,22125,2,0,L|170:209,1,65,8|2,0:0|0:0,0:0:0:0:
150,153,22422,1,8,0:0:0:0:
162,75,22571,1,8,0:0:0:0:
162,75,22646,1,8,0:0:0:0:
162,75,22719,6,0,P|102:91|72:158,2,130,6|8|2,0:0|0:0|0:0,0:0:0:0:
240,68,23462,1,2,0:0:0:0:
206,140,23610,1,8,0:0:0:0:
254,205,23759,6,0,P|244:268|265:337,1,130,2|2,0:0|0:0,0:0:0:0:
339,321,24204,2,0,P|349:258|332:196,1,130,8|2,0:0|0:0,0:0:0:0:
287,134,24650,1,2,0:0:0:0:
206,140,24798,1,8,0:0:0:0:
178,212,24947,6,0,P|116:228|64:193,1,130,6|2,0:0|0:0,0:0:0:0:
130,151,25392,2,0,P|132:251|122:313,1,130,8|2,0:0|0:0,0:0:0:0:
155,354,25838,1,2,0:0:0:0:
233,368,25986,2,0,P|271:364|307:343,1,65,8|0,0:0|0:0,0:0:0:0:
338,286,26284,6,0,B|357:202|357:202|340:161,1,130,6|8,0:0|0:0,0:0:0:0:
386,98,26729,2,0,P|324:84|272:121,1,130,2|2,0:0|0:0,0:0:0:0:
207,164,27175,2,0,P|176:170|143:170,1,65,8|0,0:0|0:0,0:0:0:0:
93,110,27472,6,0,P|65:166|87:225,2,130,6|8|2,0:0|0:0|0:0,0:0:0:0:
170,95,28214,1,2,0:0:0:0:
208,164,28363,2,0,L|216:228,1,65,8|2,0:0|0:0,0:0:0:0:
180,298,28660,6,0,P|243:301|288:257,1,130,12|2,0:0|0:0,0:0:0:0:
303,181,29105,2,0,P|348:137|411:140,1,130,12|0,0:0|0:0,0:0:0:0:
376,210,29551,1,0,0:0:0:0:
440,351,29848,6,0,P|490:298|499:237,1,130,6|0,0:0|0:0,0:0:0:0:
498,165,30293,2,0,B|478:91|478:91|419:52,1,130,2|0,0:0|0:0,0:0:0:0:
355,60,30739,2,0,P|312:108|319:170,1,130,2|0,0:0|0:0,0:0:0:0:
387,132,31185,2,0,P|281:103|252:106,1,130,2|0,0:0|0:0,0:0:0:0:
184,103,31630,1,2,0:0:0:0:
158,176,31779,1,2,0:0:0:0:
231,230,31927,1,8,0:0:0:0:
231,230,32001,1,8,0:0:0:0:
231,230,32076,1,8,0:0:0:0:
288,177,32224,6,0,P|306:243|256:304,2,130,6|8|2,0:0|0:0|0:0,0:0:0:0:
262,104,32967,1,2,0:0:0:0:
184,103,33115,1,8,0:0:0:0:
105,108,33264,6,0,B|51:138|51:138|19:232,1,130,2|2,0:0|0:0,0:0:0:0:
30,280,33709,1,8,0:0:0:0:
172,343,34006,2,0,L|235:310,1,65,2|2,0:0|0:0,0:0:0:0:
263,242,34303,2,0,L|320:272,1,65,8|0,0:0|0:0,0:0:0:0:
354,342,34600,6,0,P|394:294|387:231,1,130,6|8,0:0|0:0,0:0:0:0:
347,163,35046,2,0,B|302:121|302:121|215:100,1,130,0|2,0:0|0:0,0:0:0:0:
158,111,35491,2,0,L|126:200,1,65,8|0,0:0|0:0,0:0:0:0:
129,249,35788,6,0,P|140:311|195:344,1,130,6|8,0:0|0:0,0:0:0:0:
203,266,36234,2,0,P|143:289|86:321,1,130,0|2,0:0|0:0,0:0:0:0:
30,375,36680,2,0,P|13:347|7:315,1,65,8|0,0:0|0:0,0:0:0:0:
3,237,36977,6,0,B|18:154|18:154|71:103,1,130,6|8,0:0|0:0,0:0:0:0:
124,96,37422,2,0,P|188:87|277:95,1,130,0|2,0:0|0:0,0:0:0:0:
324,123,37868,1,8,0:0:0:0:
383,191,38016,1,8,0:0:0:0:
383,191,38090,1,8,0:0:0:0:
383,191,38165,5,8,0:0:0:0:
298,196,38313,1,8,0:0:0:0:
350,50,38610,2,0,B|428:47|428:47|480:103,1,130,6|2,0:0|0:0,0:0:0:0:
470,162,39056,2,0,P|467:194|469:226,1,65,8|0,0:0|0:0,0:0:0:0:
468,304,39353,5,6,0:0:0:0:
319,353,39650,2,0,P|244:349|188:359,1,130,8|2,0:0|0:0,0:0:0:0:
113,370,40095,1,2,0:0:0:0:
51,325,40244,1,8,0:0:0:0:
39,248,40392,6,0,B|50:178|50:178|116:123,1,130,2|2,0:0|0:0,0:0:0:0:
169,113,40838,2,0,L|243:115,1,65,8|0,0:0|0:0,0:0:0:0:
305,145,41135,2,0,L|266:208,1,65,2|2,0:0|0:0,0:0:0:0:
209,247,41432,2,0,L|173:181,1,65,8|0,0:0|0:0,0:0:0:0:
169,113,41729,5,2,0:0:0:0:
308,42,42026,1,8,0:0:0:0:
428,137,42323,2,0,P|423:169|406:196,2,65,2|2|8,0:0|0:0|0:0,0:0:0:0:
353,142,42769,6,0,P|330:200|359:256,1,130,2|2,0:0|0:0,0:0:0:0:
426,294,43214,2,0,P|404:317|375:331,1,65,8|0,0:0|0:0,0:0:0:0:
296,336,43511,2,0,P|256:335|218:338,1,65,2|2,0:0|0:0,0:0:0:0:
176,280,43808,1,8,0:0:0:0:
196,204,43957,1,0,0:0:0:0:
252,261,44105,5,2,0:0:0:0:
100,299,44402,2,0,B|60:239|60:239|67:176,1,130,12|0,0:0|0:0,0:0:0:0:
84,105,44848,1,2,0:0:0:0:
151,64,44996,1,8,0:0:0:0:
227,82,45145,6,0,P|298:88|359:81,1,130,6|2,0:0|0:0,0:0:0:0:
433,75,45590,2,0,P|472:116|484:154,1,65,8|0,0:0|0:0,0:0:0:0:
484,200,45887,2,0,L|472:283,1,65,2|2,0:0|0:0,0:0:0:0:
410,310,46185,2,0,P|365:308|331:314,1,65,8|0,0:0|0:0,0:0:0:0:
266,314,46482,6,0,P|201:320|117:309,1,130,6|8,0:0|0:0,0:0:0:0:
74,266,46927,2,0,B|47:202|47:202|71:121,1,130,0|2,0:0|0:0,0:0:0:0:
106,77,47373,2,0,B|136:65|136:65|186:63,1,65,8|2,0:0|0:0,0:0:0:0:
246,61,47670,5,0,0:0:0:0:
287,128,47818,1,2,0:0:0:0:
248,197,47967,2,0,P|243:228|250:260,1,65,8|0,0:0|0:0,0:0:0:0:
258,338,48264,1,2,0:0:0:0:
335,354,48413,1,2,0:0:0:0:
374,286,48561,1,8,0:0:0:0:
321,228,48709,1,0,0:0:0:0:
250,260,48858,5,8,0:0:0:0:
117,342,49155,2,0,P|57:322|21:269,1,130,12|0,0:0|0:0,0:0:0:0:
12,192,49600,1,2,0:0:0:0:
75,146,49749,1,8,0:0:0:0:
146,177,49897,6,0,P|217:186|306:163,1,130,2|2,0:0|0:0,0:0:0:0:
339,133,50343,1,8,0:0:0:0:
384,68,50491,1,0,0:0:0:0:
384,68,50566,1,8,0:0:0:0:
384,68,50640,2,0,P|406:92|416:123,1,65,8|0,0:0|0:0,0:0:0:0:
436,199,50937,2,0,P|431:259|422:292,1,65,8|0,0:0|0:0,0:0:0:0:
410,339,51234,5,2,0:0:0:0:
255,359,51531,2,0,B|186:353|186:353|134:320,1,130,6|0,0:0|0:0,0:0:0:0:
94,253,51977,1,2,0:0:0:0:
114,178,52125,1,8,0:0:0:0:
179,138,52274,6,0,P|244:140|309:134,1,130,2|2,0:0|0:0,0:0:0:0:
362,77,52719,2,0,P|380:103|387:135,1,65,8|0,0:0|0:0,0:0:0:0:
380,213,53016,2,0,P|377:245|382:277,1,65,8|0,0:0|0:0,0:0:0:0:
355,350,53313,1,0,0:0:0:0:
279,364,53462,1,0,0:0:0:0:
229,304,53610,6,0,P|172:278|114:303,1,130,6|2,0:0|0:0,0:0:0:0:
96,381,54056,1,0,0:0:0:0:
172,358,54204,2,0,L|180:228,1,130,8|0,0:0|0:0,0:0:0:0:
113,188,54650,6,0,P|164:151|226:165,1,130,8|8,0:0|0:0,0:0:0:0:
285,218,55095,2,0,P|347:232|399:196,1,130,2|8,0:0|0:0,0:0:0:0:
332,155,55541,2,0,B|306:78|306:78|257:55,1,130
184,47,55986,6,0,P|106:62|63:100,1,130,6|0,0:0|0:0,0:0:0:0:
42,167,56432,2,0,B|30:239|30:239|55:304,1,130,2|0,0:0|0:0,0:0:0:0:
110,342,56878,1,2,0:0:0:0:
187,356,57026,1,2,0:0:0:0:
260,328,57175,6,0,P|323:318|387:330,1,130,6|0,0:0|0:0,0:0:0:0:
449,376,57620,2,0,P|462:315|426:263,1,130,2|0,0:0|0:0,0:0:0:0:
357,225,58066,1,2,0:0:0:0:
279,228,58214,1,2,0:0:0:0:
207,189,58363,6,0,P|177:134|198:74,1,130,6|0,0:0|0:0,0:0:0:0:
255,128,58808,2,0,P|180:130|109:128,1,130,2|2,0:0|0:0,0:0:0:0:
46,127,59254,1,0,0:0:0:0:
6,195,59402,6,0,B|8:277|8:277|51:339,1,130,6|2,0:0|0:0,0:0:0:0:
107,344,59848,2,0,P|138:339|171:341,1,65,8|0,0:0|0:0,0:0:0:0:
249,340,60145,2,0,P|279:330|307:313,1,65,8|0,0:0|0:0,0:0:0:0:
375,273,60442,1,0,0:0:0:0:
373,193,60590,1,6,0:0:0:0:
231,115,60887,5,8,0:0:0:0:
232,195,61036,1,8,0:0:0:0:
302,154,61185,1,2,0:0:0:0:
160,76,61482,1,2,0:0:0:0:
160,76,61556,1,2,0:0:0:0:
160,76,61631,1,8,0:0:0:0:
163,237,61927,6,0,P|216:273|278:259,1,130,6|8,0:0|0:0,0:0:0:0:
232,195,62373,2,0,P|181:159|119:170,1,130,2|2,0:0|0:0,0:0:0:0:
81,241,62818,2,0,L|88:324,1,65,8|0,0:0|0:0,0:0:0:0:
139,362,63115,6,0,B|204:370|204:370|267:343,1,130,6|8,0:0|0:0,0:0:0:0:
297,274,63561,2,0,B|322:199|322:199|364:170,1,130,2|2,0:0|0:0,0:0:0:0:
436,197,64006,2,0,P|440:165|432:134,1,65,8|0,0:0|0:0,0:0:0:0:
364,92,64303,6,0,P|292:99|221:94,1,130,6|8,0:0|0:0,0:0:0:0:
156,94,64749,1,0,0:0:0:0:
117,162,64897,1,2,0:0:0:0:
156,231,65046,1,2,0:0:0:0:
235,233,65194,2,0,P|271:232|313:238,1,65,8|0,0:0|0:0,0:0:0:0:
377,235,65491,6,0,P|439:224|474:171,1,130,2|8,0:0|0:0,0:0:0:0:
397,159,65937,2,0,P|395:264|405:312,1,130,2|2,0:0|0:0,0:0:0:0:
369,364,66383,1,8,0:0:0:0:
369,364,66457,1,0,0:0:0:0:
369,364,66531,1,0,0:0:0:0:
284,358,66680,6,0,B|246:358|246:358|201:346,1,65,6|0,0:0|0:0,0:0:0:0:
151,312,66977,2,0,B|140:279|140:279|140:248,1,65,8|0,0:0|0:0,0:0:0:0:
157,172,67274,2,0,P|124:170|95:183,2,65,2|2|8,0:0|0:0|0:0,0:0:0:0:
234,182,67719,6,0,P|297:183|339:136,1,130,6|2,0:0|0:0,0:0:0:0:
372,66,68165,2,0,P|309:64|267:110,1,130,8|2,0:0|0:0,0:0:0:0:
234,182,68610,1,2,0:0:0:0:
201,254,68759,2,0,P|174:271|143:281,1,65,8|0,0:0|0:0,0:0:0:0:
88,225,69056,6,0,P|65:285|93:341,2,130,6|8|2,0:0|0:0|0:0,0:0:0:0:
156,189,69798,1,2,0:0:0:0:
201,254,69947,1,8,0:0:0:0:
268,216,70095,6,0,P|332:211|392:233,1,130,6|2,0:0|0:0,0:0:0:0:
441,291,70541,2,0,P|460:266|468:235,1,65,8|0,0:0|0:0,0:0:0:0:
485,158,70838,1,0,0:0:0:0:
425,106,70986,1,2,0:0:0:0:
351,132,71135,1,8,0:0:0:0:
291,79,71283,1,8,0:0:0:0:
291,79,71358,1,8,0:0:0:0:
291,79,71432,6,0,P|262:66|230:65,2,65,6|0|8,0:0|0:0|0:0,0:0:0:0:
245,143,71878,2,0,B|235:205|235:205|239:272,1,130,2|2,0:0|0:0,0:0:0:0:
292,327,72323,2,0,P|265:343|233:348,1,65,8|0,0:0|0:0,0:0:0:0:
154,341,72620,6,0,P|111:292|92:230,1,130,6|8,0:0|0:0,0:0:0:0:
92,153,73066,2,0,P|111:91|154:42,1,130,2|2,0:0|0:0,0:0:0:0:
230,31,73511,2,0,L|312:48,1,65,8|0,0:0|0:0,0:0:0:0:
354,93,73808,6,0,B|379:163|379:163|364:216,1,130,6|8,0:0|0:0,0:0:0:0:
292,245,74254,2,0,B|267:175|267:175|282:122,1,130,2|2,0:0|0:0,0:0:0:0:
354,93,74699,1,8,0:0:0:0:
432,84,74848,1,0,0:0:0:0:
432,84,74922,1,0,0:0:0:0:
432,84,74996,6,0,B|481:129|481:129|491:209,1,130,2|0,0:0|0:0,0:0:0:0:
479,269,75442,2,0,B|439:320|439:320|371:350,1,130,2|0,0:0|0:0,0:0:0:0:
301,354,75887,2,0,P|268:354|238:343,1,65,2|0,0:0|0:0,0:0:0:0:
202,271,76185,5,8,0:0:0:0:
282,277,76333,1,8,0:0:0:0:
122,265,76630,5,8,0:3:0:0:
122,265,76704,1,8,0:3:0:0:
122,265,76779,1,8,0:3:0:0:
156,337,76927,1,8,0:0:0:0:
248,205,77224,6,0,P|321:209|360:272,1,130,6|8,0:0|0:0,0:0:0:0:
371,326,77670,1,2,0:0:0:0:
450,335,77818,2,0,L|474:365,2,32.5,0|8|8,0:0|0:0|0:0,0:0:0:0:
483,264,78115,1,6,0:0:0:0:
458,110,78412,6,0,B|379:65|379:65|266:73,1,195,6|0,0:0|0:0,0:0:0:0:
137,146,79155,1,0,0:0:0:0:
270,228,79452,1,0,0:0:0:0:
272,149,79600,6,0,P|214:173|192:232,1,130,6|8,0:0|0:0,0:0:0:0:
235,297,80046,2,0,P|266:305|297:300,1,65,8|0,0:0|0:0,0:0:0:0:
373,277,80343,2,0,L|425:216,1,65,8|0,0:0|0:0,0:0:0:0:
460,163,80640,1,0,0:0:0:0:
426,93,80788,1,0,0:0:0:0:
349,88,80937,5,6,0:0:0:0:
349,87,81086,2,0,P|284:91|219:88,1,130
141,89,81531,2,0,P|144:154|141:219,1,130,8|0,0:0|0:0,0:0:0:0:
143,298,81977,2,0,P|207:294|272:297,1,130,0|8,0:0|0:0,0:0:0:0:
351,295,82422,2,0,P|347:230|350:165,1,130,2|8,0:0|0:0,0:0:0:0:
423,27,83016,1,0,0:0:0:0:
507,160,83313,5,6,0:0:0:0:
507,160,83462,2,0,B|507:228|507:228|467:319,1,130
410,315,83907,2,0,P|336:309|272:321,1,130,8|8,0:0|0:0,0:0:0:0:
205,335,84353,1,6,0:0:0:0:
104,215,84650,6,0,L|98:131,2,65,2|8|0,0:0|0:0|0:0,0:0:0:0:
154,275,85095,1,8,0:0:0:0:
205,335,85244,1,2,0:0:0:0:
277,197,85541,6,0,P|339:180|401:199,1,130,6|2,0:0|0:0,0:0:0:0:
447,259,85986,2,0,P|467:234|477:203,1,65,8|0,0:0|0:0,0:0:0:0:
486,124,86284,2,0,P|486:91|474:61,2,65,8|0|8,0:0|0:0|0:0,0:0:0:0:
409,106,86729,6,0,B|311:99|311:99|210:123,1,195,2|0,0:0|0:0,0:0:0:0:
127,249,87472,2,0,L|117:333,2,65
172,185,87917,1,0,0:0:0:0:
205,256,88066,6,0,B|236:270|236:270|266:272,1,65,6|8,0:0|0:0,0:0:0:0:
345,272,88363,2,0,B|375:269|375:269|406:255,1,65,0|2,0:0|0:0,0:0:0:0:
439,184,88660,2,0,B|425:112|425:112|363:66,1,130,0|8,0:0|0:0,0:0:0:0:
301,73,89105,1,6,0:0:0:0:
