osu file format v14

[General]
AudioFilename: Setsuna no Kajitsu.mp3
AudioLeadIn: 0
PreviewTime: 61853
Countdown: 0
SampleSet: Soft
StackLeniency: 0.7
Mode: 0
LetterboxInBreaks: 0
WidescreenStoryboard: 0

[Editor]
Bookmarks: 614,10689,20343,29848,39353,48858,55986,61927,71432,80937,89105
DistanceSpacing: 0.5
BeatDivisor: 4
GridSize: 4
TimelineZoom: 2.599999

[Metadata]
Title:Setsuna no Kajitsu
TitleUnicode:刹那の果実
Artist:Maon Kurosaki
ArtistUnicode:黒崎真音
Creator:lit120
Version:Easy
Source:グリザイアの楽園
Tags:tv size opening grisaia no rakuen -hakurei- lgv894 lasse beomsan karia davided
BeatmapID:1077524
BeatmapSetID:506544

[Difficulty]
HPDrainRate:3
CircleSize:3
OverallDifficulty:2
ApproachRate:3
SliderMultiplier:0.799999999999999
SliderTickRate:1

[Events]
//Background and Video events
Video,0,"video (2).flv"
0,0,"bg.jpg",0,0
//Break Periods
//Storyboard Layer 0 (Background)
//Storyboard Layer 1 (Fail)
//Storyboard Layer 2 (Pass)
//Storyboard Layer 3 (Foreground)
//Storyboard Sound Samples

[TimingPoints]
614,368.098159509202,4,2,1,50,1,0
2086,357.142857142857,4,2,1,50,1,0
3514,337.078651685393,4,2,1,50,1,0
4862,306.122448979592,4,2,1,50,1,0
6086,297.029702970297,4,2,1,50,1,0
9947,-100,4,2,2,60,0,0
61927,-100,4,2,2,60,0,1
80937,-100,4,2,2,60,0,0

[Colours]
Combo1 : 135,162,209
Combo2 : 59,58,160
Combo3 : 141,36,120

[HitObjects]
114,211,614,6,0,P|97:285|98:384,2,160,2|2|2,0:0|0:0|0:0,0:0:0:0:
140,127,2443,2,0,L|58:77,2,79.9999999999999,0|2|2,0:0|0:0|0:0,0:0:0:0:
219,175,3514,5,2,0:0:0:0:
282,111,3851,2,0,P|319:100|359:104,2,79.9999999999999,0|2|2,0:0|0:0|0:0,0:0:0:0:
330,197,4862,2,0,B|335:218|334:239|326:263|309:282|309:282|300:323|325:351,2,160,2|2|2,0:0|0:0|0:0,0:0:0:0:
245,222,6383,5,0,0:0:0:0:
157,227,6680,2,0,P|63:185|50:119,2,160,2|0|0,0:0|0:0|0:0,0:0:0:0:
333,225,8462,1,0,0:0:0:0:
242,73,9056,2,0,P|182:72|128:96,1,120,2|2,0:0|0:0,0:0:0:0:
353,357,10689,6,0,P|377:298|377:213,1,120,6|8,0:0|0:0,0:0:0:0:
366,152,11432,2,0,P|304:107|230:129,2,160,2|2|2,0:0|0:0|0:0,0:0:0:0:
290,196,12917,1,8,0:0:0:0:
240,269,13214,6,0,P|205:286|165:288,1,79.9999999999999,0|8,0:0|0:0,0:0:0:0:
102,227,13808,2,0,P|77:281|92:337,2,120,2|2|8,0:0|0:0|0:0,0:0:0:0:
151,154,14996,1,8,0:0:0:0:
265,88,15442,6,0,P|292:141|300:200,1,120,6|8,0:0|0:0,0:0:0:0:
233,256,16185,2,0,P|283:286|347:276,1,120,2|6,0:0|0:0,0:0:0:0:
432,191,17076,1,8,0:0:0:0:
422,103,17373,2,0,P|390:78|352:68,1,79.9999999999999,2|8,0:0|0:0,0:0:0:0:
265,88,17967,6,0,P|195:91|119:84,1,120,6|8,0:0|0:3,0:0:0:0:
66,194,18858,2,0,P|136:191|212:198,1,120,8|4,0:3|0:3,0:0:0:0:
274,295,19749,1,8,0:0:0:0:
407,180,20343,6,0,L|389:55,2,120,6|2|2,0:0|0:0|0:0,0:0:0:0:
277,155,21680,2,0,L|295:280,1,120,2|8,0:0|0:0,0:0:0:0:
301,361,22422,1,8,0:0:0:0:
220,322,22719,6,0,P|184:307|144:308,1,79.9999999999999,6|8,0:0|0:0,0:0:0:0:
106,228,23313,2,0,P|64:269|57:327,2,120,2|2|8,0:0|0:0|0:0,0:0:0:0:
187,193,24501,1,2,0:0:0:0:
317,210,24947,6,0,P|376:183|391:126,1,120,6|8,0:0|0:0,0:0:0:0:
353,53,25689,2,0,P|315:42|270:50,1,79.9999999999999,2|8,0:0|0:0,0:0:0:0:
190,69,26284,2,0,P|115:75|63:63,2,120,6|2|8,0:0|0:0|0:0,0:0:0:0:
252,132,27472,6,0,P|267:216|248:302,1,160,6|2,0:0|0:0,0:0:0:0:
184,342,28363,1,8,0:0:0:0:
116,285,28660,2,0,P|56:277|0:294,2,120,12|12|0,0:0|0:0|0:0,0:0:0:0:
184,342,29848,6,0,P|248:343|318:333,2,120,6|2|2,0:0|0:0|0:0,0:0:0:0:
164,211,31185,2,0,P|223:203|283:205,1,120,2|2,0:0|0:0,0:0:0:0:
364,239,31927,1,8,0:0:0:0:
450,222,32224,6,0,L|469:145,1,79.9999999999999,6|8,0:0|0:0,0:0:0:0:
428,66,32818,2,0,P|378:34|319:41,2,120,2|2|8,0:0|0:0|0:0,0:0:0:0:
358,120,34006,2,0,P|320:129|281:121,1,79.9999999999999,2|8,0:0|0:0,0:0:0:0:
195,104,34600,6,0,P|100:101|51:116,2,120,6|0|8,0:0|0:0|0:0,0:0:0:0:
224,187,35788,2,0,B|233:248|233:248|215:260|201:283|194:311|200:335,1,160,6|0,0:0|0:0,0:0:0:0:
286,318,36680,1,8,0:0:0:0:
348,255,36977,6,0,P|356:193|335:110,1,120,6|0,0:0|0:0,0:0:0:0:
232,68,37868,1,8,0:0:0:0:
147,92,38165,2,0,P|87:94|29:78,2,120,8|6|8,0:0|0:0|0:0,0:0:0:0:
232,68,39353,6,0,P|276:62|334:73,1,79.9999999999999,6|8,0:0|0:0,0:0:0:0:
393,95,39947,2,0,P|408:154|396:223,1,120,2|2,0:0|0:0,0:0:0:0:
300,300,40838,2,0,P|262:308|223:299,2,79.9999999999999,8|2|8,0:0|0:0|0:0,0:0:0:0:
263,220,41729,5,2,0:0:0:0:
238,135,42026,2,0,B|156:108|156:108|106:123,1,120,8|2,0:0|0:0,0:0:0:0:
56,174,42769,2,0,B|80:304,1,120,2|8,0:0|0:0,0:0:0:0:
155,336,43511,2,0,P|193:344|232:335,2,79.9999999999999,2|8|2,0:0|0:0|0:0,0:0:0:0:
193,254,44402,6,0,P|254:247|302:280,1,120,12|2,0:0|0:0,0:0:0:0:
345,357,45145,2,0,P|383:312|386:249,1,120,6|8,0:0|0:0,0:0:0:0:
357,169,45887,2,0,L|297:78,1,79.9999999999999,2|8,0:0|0:0,0:0:0:0:
239,53,46482,6,0,P|174:52|146:63,1,79.9999999999999,6|8,0:0|0:0,0:0:0:0:
99,120,47076,2,0,P|89:191|98:252,2,120,2|2|8,0:0|0:0|0:0,0:0:0:0:
184,140,48264,2,0,P|249:141|277:130,2,79.9999999999999,2|8|8,0:0|0:0|0:0,0:0:0:0:
99,120,49155,6,0,P|25:154|11:247,1,160,6|8,0:0|0:0,0:0:0:0:
46,302,50046,2,0,L|123:321,1,79.9999999999999,0|8,0:0|0:0,0:0:0:0:
211,325,50640,2,0,L|288:305,2,79.9999999999999,8|8|2,0:0|0:0|0:0,0:0:0:0:
123,321,51531,6,0,P|111:238|136:145,1,160,12|8,0:0|0:0,0:0:0:0:
178,93,52422,2,0,P|223:78|282:81,1,79.9999999999999,0|8,0:0|0:0,0:0:0:0:
340,97,53016,2,0,L|377:189,1,79.9999999999999,8|0,0:0|0:0,0:0:0:0:
378,258,53610,6,0,P|347:283|311:299,1,79.9999999999999,6|2,0:0|0:0,0:0:0:0:
236,251,54204,2,0,P|224:308|248:362,2,120,8|8|2,0:0|0:0|0:0,0:0:0:0:
287,178,55392,2,0,P|296:133|280:79,1,79.9999999999999,8|0,0:0|0:0,0:0:0:0:
256,192,55986,12,6,60590,0:0:0:0:
298,197,61927,6,0,P|356:191|432:198,2,120,6|2|8,0:0|0:0|0:0,0:0:0:0:
226,248,63115,2,0,P|168:254|92:247,2,120,6|2|8,0:0|0:0|0:0,0:0:0:0:
216,159,64303,6,0,P|176:94|99:84,1,160,6|2,0:0|0:0,0:0:0:0:
40,152,65194,1,8,0:0:0:0:
69,237,65491,2,0,P|69:300|61:359,2,120,2|2|8,0:0|0:0|0:0,0:0:0:0:
129,169,66680,6,0,P|191:158|225:161,2,79.9999999999999,6|8|2,0:0|0:0|0:0,0:0:0:0:
150,298,67719,2,0,P|210:319|282:297,1,120,6|8,0:0|0:0,0:0:0:0:
320,239,68462,2,0,L|329:148,1,79.9999999999999,2|8,0:0|0:0,0:0:0:0:
278,86,69056,6,0,P|208:92|115:83,1,160,6|2,0:0|0:0,0:0:0:0:
10,158,70095,2,0,P|15:217|7:277,1,120,6|8,0:0|0:0,0:0:0:0:
50,354,70838,2,0,P|89:349|129:352,1,79.9999999999999,0|8,0:0|0:0,0:0:0:0:
216,366,71432,6,0,P|273:351|310:305,2,120,6|2|8,0:0|0:0|0:0,0:0:0:0:
227,278,72620,2,0,P|216:217|231:132,2,120,6|2|8,0:0|0:0|0:0,0:0:0:0:
310,305,73808,6,0,B|407:313|407:313|462:251,1,160,6|0,0:0|0:0,0:0:0:0:
462,179,74699,1,8,0:0:0:0:
416,100,74996,2,0,P|372:62|313:60,2,120,2|2|2,0:0|0:0|0:0,0:0:0:0:
341,145,76185,5,8,0:0:0:0:
366,230,76482,2,0,P|307:226|263:187,1,120,0|8,0:0|0:0,0:0:0:0:
232,104,77224,2,0,P|187:64|129:61,1,120,6|0,0:0|0:0,0:0:0:0:
49,98,77967,1,8,0:0:0:0:
32,228,78412,6,0,P|95:224|164:231,1,120,6|0,0:0|0:0,0:0:0:0:
239,238,79155,1,0,0:0:0:0:
320,340,79600,2,0,P|356:294|369:234,1,120,6|8,0:0|0:0,0:0:0:0:
341,150,80343,2,0,P|303:140|263:142,1,79.9999999999999,8|0,0:0|0:0,0:0:0:0:
175,146,80937,6,0,P|135:148|96:137,2,79.9999999999999,6|2|8,0:0|0:0|0:0,0:0:0:0:
265,50,81977,2,0,P|337:41|401:55,1,120,0|2,0:0|0:0,0:0:0:0:
441,115,82719,2,0,L|450:200,1,79.9999999999999,8|0,0:0|0:0,0:0:0:0:
419,277,83313,6,0,P|367:299|330:301,1,79.9999999999999,6|2,0:0|0:0,0:0:0:0:
267,259,83907,2,0,P|263:192|279:131,2,120,8|6|8,0:0|0:0|0:0,0:0:0:0:
201,317,85095,1,8,0:0:0:0:
81,260,85541,6,0,P|92:205|81:123,1,120,6|8,0:0|0:0,0:0:0:0:
60,57,86284,1,8,0:0:0:0:
189,29,86729,2,0,B|278:32|278:32|316:75,1,120,2|0,0:0|0:0,0:0:0:0:
336,134,87472,2,0,L|348:228,1,79.9999999999999
324,298,88066,6,0,B|306:318|268:334|229:325|202:302|202:302|179:313|155:313|131:308|111:292|111:292|89:274|55:278,1,280,6|6,0:0|0:0,0:0:0:0:
