osu file format v14

[General]
AudioFilename: Setsuna no Kajitsu.mp3
AudioLeadIn: 1400
PreviewTime: 61779
Countdown: 0
SampleSet: Soft
StackLeniency: 0.7
Mode: 0
LetterboxInBreaks: 0
WidescreenStoryboard: 0

[Editor]
Bookmarks: 19303
DistanceSpacing: 1.1
BeatDivisor: 2
GridSize: 4
TimelineZoom: 1

[Metadata]
Title:Setsuna no Kajitsu
TitleUnicode:刹那の果実
Artist:Maon Kurosaki
ArtistUnicode:黒崎真音
Creator:Guy
Version:Normal
Source:グリザイアの楽園 - LE EDEN DE LA GRISAIA -
Tags:tv size opening grisaia no rakuen
BeatmapID:716588
BeatmapSetID:322076

[Difficulty]
HPDrainRate:4
CircleSize:3
OverallDifficulty:4
ApproachRate:5
SliderMultiplier:1.1
SliderTickRate:1

[Events]
//Background and Video events
0,0,"bg.jpg",0,0
Video,0,"video (2).flv"
//Break Periods
//Storyboard Layer 0 (Background)
//Storyboard Layer 1 (Fail)
//Storyboard Layer 2 (Pass)
//Storyboard Layer 3 (Foreground)
//Storyboard Sound Samples

[TimingPoints]
614,368.098159509202,4,2,1,50,1,0
2086,357.142857142857,4,2,1,50,1,0
3514,337.078651685393,4,2,1,50,1,0
4862,306.122448979592,4,2,1,50,1,0
6086,297.029702970297,4,2,1,50,1,0
9947,-100,4,2,2,60,0,0
61927,-100,4,2,2,70,0,1
80937,-100,4,2,2,60,0,0
86729,-100,4,2,1,60,0,0
86803,-100,4,2,1,50,0,0
88066,-100,4,2,2,60,0,0

[Colours]
Combo1 : 255,0,204
Combo2 : 39,231,124
Combo3 : 232,139,0
Combo4 : 1,197,254
Combo5 : 170,201,48

[HitObjects]
97,280,614,6,0,P|93:227|95:157,1,110,2|0,0:0|0:0,0:0:0:0:
203,118,1350,2,0,P|207:171|205:241,1,110,2|0,0:0|0:0,0:0:0:0:
278,329,2086,6,0,L|392:323,1,110,2|0,0:0|0:0,0:0:0:0:
437,212,2800,2,0,L|323:218,1,110,2|0,0:0|0:0,0:0:0:0:
200,235,3514,6,0,P|207:175|216:118,1,110,2|0,0:0|0:0,0:0:0:0:
310,51,4188,2,0,P|318:105|324:160,1,110,2|0,0:0|0:0,0:0:0:0:
327,293,4862,6,0,P|379:282|440:278,2,110,2|0|2,0:0|0:0|0:0,0:0:0:0:
209,322,5780,1,0,0:0:0:0:
221,198,6086,6,0,P|230:139|235:82,1,110,2|0,0:0|0:0,0:0:0:0:
118,56,6680,2,0,P|109:115|104:172,1,110,2|0,0:0|0:0,0:0:0:0:
89,285,7274,2,0,B|139:288|174:264|174:264|195:275|195:275|242:251|307:255,1,220,2|2,0:0|0:0,0:0:0:0:
416,282,8165,1,0,0:0:0:0:
382,165,8462,5,0,0:0:0:0:
382,165,8610,2,0,P|319:171|258:154,1,110,2|0,0:0|0:0,0:0:0:0:
220,131,9056,2,0,L|232:249,1,110,2|2,0:0|0:0,0:0:0:0:
238,300,9501,1,4,0:0:0:0:
62,347,9947,2,0,P|68:304|75:272,1,55,8|8,0:0|0:0,0:0:0:0:
108,245,10244,2,0,P|102:202|95:170,1,55,8|4,0:0|0:0,0:0:0:0:
59,76,10689,6,0,P|133:68|200:126,1,165,4|8,0:0|0:0,0:0:0:0:
228,241,11432,2,0,P|296:236|355:229,1,110,2|8,0:0|0:0,0:0:0:0:
454,260,12026,2,0,P|450:184|442:133,1,110,2|8,0:0|0:0,0:0:0:0:
355,67,12620,2,0,P|279:71|228:79,1,110,2|8,0:0|0:0,0:0:0:0:
184,78,13066,6,0,P|192:162|197:243,1,165,2|8,0:0|0:0,0:0:0:0:
85,290,13808,2,0,P|82:247|80:218,2,55,2|2|8,0:0|0:0|0:0,0:0:0:0:
123,337,14254,2,0,P|202:324|297:322,1,165,2|8,0:0|0:0,0:0:0:0:
406,336,14996,2,0,L|401:278,1,55,2|8,0:0|0:0,0:0:0:0:
387,160,15442,6,0,P|314:156|256:233,1,165,4|8,0:0|0:0,0:0:0:0:
164,299,16185,2,0,P|103:286|65:252,1,110,2|8,0:0|0:0,0:0:0:0:
56,196,16630,2,0,P|89:131|181:127,1,165,4|8,0:0|0:0,0:0:0:0:
273,192,17373,2,0,P|271:221|267:249,2,55,2|2|8,0:0|0:0|0:0,0:0:0:0:
282,132,17818,1,0,0:0:0:0:
282,132,17967,6,0,P|345:140|438:145,1,110,4|0,0:0|0:0,0:0:0:0:
451,151,18412,2,0,P|443:214|438:307,1,110,8|0,0:3|0:0,0:0:0:0:
429,320,18858,2,0,P|366:312|273:307,1,110,8|0,0:3|0:0,0:0:0:0:
261,301,19303,2,0,P|269:238|274:145,1,110,8|0,0:3|0:0,0:0:0:0:
282,132,19749,2,0,L|225:143,1,55,4|4,0:0|0:0,0:0:0:0:
64,221,20343,6,0,P|117:244|174:252,1,110,4|0,0:0|0:0,0:0:0:0:
202,301,20788,2,0,P|265:273|371:261,1,165,2|2,0:0|0:0,0:0:0:0:
447,176,21531,1,0,0:0:0:0:
447,176,21680,2,0,P|394:153|337:145,1,110,2|2,0:0|0:0,0:0:0:0:
284,159,22125,2,0,P|240:169|219:171,1,55,8|0,0:0|0:0,0:0:0:0:
169,165,22422,1,8,0:0:0:0:
55,121,22719,6,0,P|57:179|72:252,1,110,4|8,0:0|0:0,0:0:0:0:
164,300,23313,2,0,P|173:245|174:190,1,110,2|8,0:0|0:0,0:0:0:0:
172,130,23759,2,0,P|223:81|334:104,1,165,2|8,0:0|0:0,0:0:0:0:
409,158,24501,2,0,P|452:150|477:143,2,55,2|2|8,0:0|0:0|0:0,0:0:0:0:
350,172,24947,6,0,P|360:253|363:296,1,110,4|2,0:0|0:0,0:0:0:0:
317,321,25392,2,0,P|259:317|204:309,1,110,8|2,0:0|0:0,0:0:0:0:
147,204,25986,2,0,P|194:191|216:188,1,55,8|0,0:0|0:0,0:0:0:0:
260,177,26284,2,0,P|243:104|241:3,2,165,4|2|8,0:0|0:0|0:0,0:0:0:0:
379,197,27472,6,0,P|366:281|356:321,1,110,4|8,0:0|0:0,0:0:0:0:
249,354,28066,2,0,L|185:343,1,55,2|2,0:0|0:0,0:0:0:0:
135,330,28363,1,8,0:0:0:0:
61,233,28660,2,0,P|114:224|178:211,1,110,4|8,0:0|0:0,0:0:0:0:
213,172,29105,2,0,P|266:181|330:194,1,110,4|0,0:0|0:0,0:0:0:0:
380,204,29551,1,2,0:0:0:0:
404,85,29848,6,0,P|321:69|243:45,1,165,4|2,0:0|0:0,0:0:0:0:
93,147,30739,2,0,P|176:163|254:187,1,165,2|2,0:0|0:0,0:0:0:0:
361,332,31630,2,0,P|278:316|248:306,1,110,2|8,0:0|0:0,0:0:0:0:
145,255,32224,6,0,P|166:186|178:136,1,110,4|8,0:0|0:0,0:0:0:0:
253,57,32818,2,0,P|264:99|270:119,1,55,2|0,0:0|0:0,0:0:0:0:
283,168,33115,1,8,0:0:0:0:
283,168,33264,2,0,P|361:154|418:220,1,165,2|8,0:0|0:0,0:0:0:0:
390,329,34006,2,0,P|352:326|327:322,1,55,2|2,0:0|0:0,0:0:0:0:
276,310,34303,1,8,0:0:0:0:
191,222,34600,6,0,P|175:281|155:341,1,110,4|8,0:0|0:0,0:0:0:0:
77,239,35194,2,0,P|60:186|54:165,1,55,2|2,0:0|0:0,0:0:0:0:
45,127,35491,1,8,0:0:0:0:
129,40,35788,2,0,P|188:48|236:72,1,110,4|8,0:0|0:0,0:0:0:0:
288,93,36234,2,0,P|354:88|447:52,1,165,0|8,0:0|0:0,0:0:0:0:
481,168,36977,6,0,P|481:222|466:275,1,110,4|8,0:0|0:0,0:0:0:0:
369,349,37571,2,0,P|353:288|355:238,1,110,2|8,0:0|0:0,0:0:0:0:
362,120,38165,1,2,0:0:0:0:
362,120,38314,2,0,P|256:145|218:139,1,110,2|4,0:0|0:0,0:0:0:0:
138,122,38907,2,0,L|144:184,1,55,2|8,0:0|0:0,0:0:0:0:
156,297,39353,5,4,0:0:0:0:
276,282,39650,1,8,0:0:0:0:
265,161,39947,2,0,P|270:94|284:30,1,110,2|8,0:0|0:0,0:0:0:0:
336,36,40392,2,0,P|396:91|477:69,1,165,2|8,0:0|0:0,0:0:0:0:
470,195,41135,2,0,P|465:262|451:326,1,110,2|8,0:0|0:0,0:0:0:0:
347,356,41729,5,4,0:0:0:0:
276,257,42026,1,8,0:0:0:0:
163,302,42323,1,2,0:0:0:0:
163,302,42472,2,0,L|151:165,1,110,2|2,0:0|0:0,0:0:0:0:
257,130,43066,1,2,0:0:0:0:
257,130,43214,2,0,P|313:146|368:156,2,110,8|2|8,0:0|0:0|0:0,0:0:0:0:
151,70,44105,5,2,0:0:0:0:
153,192,44402,1,4,0:0:0:0:
158,312,44699,2,0,L|99:304,2,55,0|2|8,0:0|0:0|0:0,0:0:0:0:
218,319,45145,2,0,P|290:310|388:292,1,165,4|8,0:0|0:0,0:0:0:0:
468,210,45887,2,0,P|415:186|364:171,1,110,2|8,0:0|0:0,0:0:0:0:
249,205,46482,6,0,P|196:229|145:244,1,110,4|8,0:0|0:0,0:0:0:0:
88,259,46927,2,0,P|98:176|108:91,1,165,2|8,0:0|0:0,0:0:0:0:
220,50,47670,2,0,L|287:62,1,55,0|2,0:0|0:0,0:0:0:0:
334,66,47967,2,0,P|329:129|325:199,1,110,8|2,0:0|0:0,0:0:0:0:
321,235,48412,1,0,0:0:0:0:
321,235,48561,2,0,P|265:220|193:208,1,110,8|2,0:0|0:0,0:0:0:0:
131,297,49155,5,4,0:0:0:0:
99,181,49452,2,0,P|83:115|81:64,1,110,0|8,0:0|0:0,0:0:0:0:
131,39,49897,2,0,P|206:67|318:73,1,165,2|8,0:0|0:0,0:0:0:0:
405,36,50640,2,0,P|400:90|386:143,1,110,2|8,0:0|0:0,0:0:0:0:
337,254,51234,5,2,0:0:0:0:
256,163,51531,1,4,0:0:0:0:
154,229,51828,2,0,P|148:160|142:106,1,110,0|8,0:0|0:0,0:0:0:0:
83,108,52274,2,0,P|14:166|39:242,1,165,2|8,0:0|0:0,0:0:0:0:
111,318,53016,2,0,P|172:317|232:293,1,110,2|8,0:0|0:0,0:0:0:0:
278,196,53610,6,0,P|266:125|269:67,2,110,4|2|8,0:0|0:0|0:0,0:0:0:0:
389,243,54501,1,0,0:0:0:0:
389,243,54650,2,0,P|309:226|221:219,1,165,2|2,0:0|0:0,0:0:0:0:
110,256,55392,2,0,P|104:213|102:188,2,55,8|0|2,0:0|0:0|0:0,0:0:0:0:
200,335,55986,6,0,B|257:338|306:309|306:309|339:320|377:321,2,165,4|2|2,0:0|0:0|0:0,0:0:0:0:
227,216,57175,2,0,B|170:219|121:190|121:190|88:201|50:202,2,165,4|2|2,0:0|0:0|0:0,0:0:0:0:
203,97,58363,2,0,B|260:100|309:71|309:71|342:82|380:83,2,165,4|2|2,0:0|0:0|0:0,0:0:0:0:
150,67,59402,6,4,P|121:113|129:239,1,165,4|8,0:0|0:0,0:0:0:0:
175,329,60145,2,0,P|229:320|286:306,1,110,2|8,0:0|0:0,0:0:0:0:
339,288,60590,1,4,0:0:0:0:
269,188,60887,2,0,P|258:144|256:122,2,55,0|8|2,0:0|0:0|0:0,0:0:0:0:
382,145,61482,1,2,0:0:0:0:
382,145,61630,1,8,0:0:0:0:
294,61,61927,6,0,P|226:76|183:79,1,110,4|8,0:0|0:0,0:0:0:0:
138,116,62373,2,0,P|142:182|138:239,1,110,0|2,0:0|0:0,0:0:0:0:
95,338,62967,1,2,0:0:0:0:
95,338,63115,2,0,P|167:333|232:318,1,110,4|8,0:0|0:0,0:0:0:0:
243,279,63561,2,0,P|315:284|380:299,1,110,2|2,0:0|0:0,0:0:0:0:
410,306,64006,1,8,0:0:0:0:
441,189,64303,6,0,P|369:184|304:169,1,110,4|8,0:0|0:0,0:0:0:0:
280,67,64897,2,0,P|208:72|143:87,1,110,2|8,0:0|0:0,0:0:0:0:
75,153,65491,2,0,L|55:327,2,165,2|2|8,0:0|0:0|0:0,0:0:0:0:
188,197,66680,5,4,0:0:0:0:
301,239,66977,1,8,0:0:0:0:
282,119,67274,2,0,P|295:55|326:0,1,110,2|8,0:0|0:0,0:0:0:0:
375,16,67719,2,0,P|403:104|397:204,1,165,4|8,0:0|0:0,0:0:0:0:
395,297,68462,2,0,P|338:289|281:278,1,110,2|8,0:0|0:0,0:0:0:0:
239,169,69056,6,0,P|171:192|176:329,1,220,4|2,0:0|0:0,0:0:0:0:
285,354,69947,1,8,0:0:0:0:
285,354,70095,2,0,P|364:340|447:339,1,110,4|2,0:0|0:0,0:0:0:0:
454,337,70541,1,8,0:0:0:0:
380,241,70838,1,2,0:0:0:0:
480,173,71135,1,8,0:0:0:0:
404,78,71432,6,0,P|345:60|288:49,1,110,4|8,0:0|0:0,0:0:0:0:
238,38,71878,2,0,P|248:112|250:168,1,110,2|2,0:0|0:0,0:0:0:0:
224,265,72472,1,2,0:0:0:0:
224,265,72620,2,0,P|156:284|89:215,1,165,4|2,0:0|0:0,0:0:0:0:
97,104,73363,2,0,P|150:115|208:119,1,110,2|0,0:0|0:0,0:0:0:0:
265,119,73808,5,4,0:0:0:0:
375,69,74105,1,8,0:0:0:0:
359,188,74402,2,0,P|354:217|349:256,1,55,0|2,0:0|0:0,0:0:0:0:
342,302,74699,1,8,0:0:0:0:
225,270,74996,6,0,P|170:265|96:338,2,165,4|4|4,0:0|0:0|0:0,0:0:0:0:
342,302,76185,2,0,P|384:293|414:283,1,55,4|4,0:0|0:0,0:0:0:0:
453,270,76482,2,0,P|448:204|431:86,1,165,0|4,0:0|0:0,0:0:0:0:
330,44,77224,2,0,P|266:82|172:68,1,165,4|0,0:0|0:0,0:0:0:0:
57,65,77967,2,0,P|63:112|69:135,1,55,2|8,0:0|0:0,0:0:0:0:
91,237,78412,6,0,P|155:199|249:213,1,165,4|0,0:0|3:0,0:0:0:0:
298,316,79155,1,0,3:0:0:0:
405,260,79452,1,0,3:0:0:0:
405,260,79600,2,0,P|401:174|395:90,1,165,4|8,0:0|0:0,0:0:0:0:
284,47,80343,2,0,P|281:115|281:164,1,110,8|2,0:0|0:0,0:0:0:0:
281,277,80937,5,4,0:0:0:0:
176,216,81234,1,2,0:0:0:0:
103,313,81531,2,0,P|49:300|1:275,1,110,8|0,0:0|0:0,0:0:0:0:
37,159,82125,2,0,P|91:172|139:197,1,110,2|2,0:0|0:0,0:0:0:0:
241,261,82719,1,8,0:0:0:0:
281,146,83016,1,0,0:0:0:0:
375,221,83313,6,0,P|444:214|506:205,2,110,4|2|8,0:0|0:0|0:0,0:0:0:0:
281,146,84204,1,2,0:0:0:0:
281,146,84353,1,8,0:0:0:0:
241,260,84650,2,0,P|172:253|110:244,1,110,2|2,0:0|0:0,0:0:0:0:
72,236,85095,2,0,P|79:183|83:169,1,55,8|2,0:0|0:0,0:0:0:0:
154,88,85541,6,0,P|235:83|281:151,1,165,4|8,0:0|0:0,0:0:0:0:
266,265,86284,2,0,P|327:256|375:215,1,110,2|8,0:0|0:0,0:0:0:0:
397,176,86729,2,0,L|382:348,1,165,4|0,0:0|0:0,0:0:0:0:
264,368,87472,2,0,P|208:351|173:311,1,110
170,192,88066,6,0,P|181:123|185:66,2,110,4|0|8,0:0|0:0|0:0,0:0:0:0:
71,260,88957,2,0,P|63:292|59:318,1,55,2|4,0:0|0:0,0:0:0:0:
