osu file format v14

[General]
AudioFilename: Setsuna no Kajitsu.mp3
AudioLeadIn: 1400
PreviewTime: 61779
Countdown: 0
SampleSet: Soft
StackLeniency: 0.7
Mode: 0
LetterboxInBreaks: 0
WidescreenStoryboard: 0

[Editor]
DistanceSpacing: 0.6
BeatDivisor: 4
GridSize: 4
TimelineZoom: 1

[Metadata]
Title:Setsuna no Kajitsu
TitleUnicode:刹那の果実
Artist:Maon Kurosaki
ArtistUnicode:黒崎真音
Creator:Guy
Version:Insane
Source:グリザイアの楽園 - LE EDEN DE LA GRISAIA -
Tags:tv size opening grisaia no rakuen
BeatmapID:716401
BeatmapSetID:322076

[Difficulty]
HPDrainRate:6
CircleSize:4
OverallDifficulty:7
ApproachRate:9
SliderMultiplier:1.7
SliderTickRate:1

[Events]
//Background and Video events
0,0,"bg.jpg",0,0
Video,0,"video (2).flv"
//Break Periods
//Storyboard Layer 0 (Background)
//Storyboard Layer 1 (Fail)
//Storyboard Layer 2 (Pass)
//Storyboard Layer 3 (Foreground)
//Storyboard Sound Samples

[TimingPoints]
614,368.098159509202,4,2,1,50,1,0
614,-133.333333333333,4,2,1,50,0,0
2086,357.142857142857,4,2,1,50,1,0
2086,-133.333333333333,4,2,1,50,0,0
3514,337.078651685393,4,2,1,50,1,0
3514,-133.333333333333,4,2,1,50,0,0
4862,306.122448979592,4,2,1,50,1,0
4862,-133.333333333333,4,2,1,50,0,0
6086,297.029702970297,4,2,1,50,1,0
6086,-133.333333333333,4,2,1,50,0,0
9947,-100,4,2,2,60,0,0
61927,-100,4,2,2,70,0,1
74996,-83.3333333333333,4,2,2,70,0,1
76185,-100,4,2,2,70,0,1
80937,-100,4,2,2,60,0,0
86729,-133.333333333333,4,2,1,60,0,0
86803,-133.333333333333,4,2,1,50,0,0
88066,-100,4,2,2,60,0,0

[Colours]
Combo1 : 255,0,204
Combo2 : 39,231,124
Combo3 : 232,139,0
Combo4 : 1,197,254
Combo5 : 170,201,48

[HitObjects]
136,208,614,6,0,P|130:155|127:117,2,63.7500024318696,2|0|2,0:0|0:0|0:0,0:0:0:0:
231,193,1166,2,0,P|227:224|224:256,2,63.7500024318696,0|2|0,0:0|0:0|0:0,0:0:0:0:
244,95,1718,1,2,0:0:0:0:
321,158,1902,1,0,0:0:0:0:
411,120,2086,6,0,P|418:169|423:203,1,63.7500024318696,2|0,0:0|0:0,0:0:0:0:
444,277,2443,2,0,P|397:271|353:263,1,63.7500024318696,2|0,0:0|0:0,0:0:0:0:
296,221,2800,2,0,P|249:227|205:235,1,63.7500024318696,2|0,0:0|0:0,0:0:0:0:
151,282,3157,2,0,P|104:276|60:268,1,63.7500024318696,2|0,0:0|0:0,0:0:0:0:
55,175,3514,6,0,P|45:131|38:94,2,63.7500024318696,2|0|2,0:0|0:0|0:0,0:0:0:0:
149,196,4019,1,0,0:0:0:0:
216,126,4188,2,0,P|253:135|281:146,1,63.7500024318696,2|0,0:0|0:0,0:0:0:0:
328,228,4525,2,0,P|365:219|393:208,1,63.7500024318696,2|0,0:0|0:0,0:0:0:0:
454,141,4862,6,0,L|441:287,1,127.500004863739,2|2,0:0|0:0,0:0:0:0:
361,321,5321,1,0,0:0:0:0:
361,321,5474,2,0,P|316:308|290:298,1,63.7500024318696,2|0,0:0|0:0,0:0:0:0:
203,305,5780,2,0,P|216:260|226:234,1,63.7500024318696,2|0,0:0|0:0,0:0:0:0:
280,165,6086,6,0,P|266:119|257:98,1,63.7500024318696,2|0,0:0|0:0,0:0:0:0:
184,45,6383,2,0,P|172:74|164:105,1,63.7500024318696,2|0,0:0|0:0,0:0:0:0:
133,198,6680,2,0,P|81:155|12:144,1,127.500004863739,2|2,0:0|0:0,0:0:0:0:
57,299,7125,1,0,0:0:0:0:
57,299,7274,6,0,L|122:293,1,63.7500024318696,2|0,0:0|0:0,0:0:0:0:
210,255,7571,2,0,L|275:249,1,63.7500024318696,2|0,0:0|0:0,0:0:0:0:
359,204,7868,2,0,P|332:172|296:157,1,63.7500024318696,2|0,0:0|0:0,0:0:0:0:
214,169,8165,2,0,L|149:175,1,63.7500024318696,2|0,0:0|0:0,0:0:0:0:
55,183,8462,5,2,0:0:0:0:
143,53,8610,2,0,B|235:63|235:63|265:108,1,127.500004863739,2|0,0:0|0:0,0:0:0:0:
286,193,9056,2,0,P|261:236|259:331,1,127.500004863739,2|2,0:0|0:0,0:0:0:0:
365,280,9501,1,4,0:0:0:0:
126,338,9798,5,0,0:0:0:0:
145,235,9947,2,0,L|157:188,4,42.5,8|8|8|8|8,0:0|0:0|0:0|0:0|0:0,0:0:0:0:
296,313,10392,1,2,0:0:0:0:
303,320,10689,6,0,L|280:122,1,170,4|2,0:0|0:0,0:0:0:0:
220,72,11135,2,0,P|196:110|187:162,1,85,8|0,0:0|0:0,0:0:0:0:
172,246,11432,1,2,0:0:0:0:
90,184,11581,1,2,0:0:0:0:
179,254,11729,2,0,P|228:249|289:244,1,85,8|0,0:0|0:0,0:0:0:0:
338,179,12026,6,0,P|425:181|444:277,1,170,2|8,0:0|0:0,0:0:0:0:
407,341,12472,1,0,0:0:0:0:
305,330,12620,2,0,P|255:325|195:320,1,85,2|2,0:0|0:0,0:0:0:0:
118,315,12917,1,8,0:0:0:0:
214,227,13066,6,0,P|223:162|232:43,1,170,2|2,0:0|0:0,0:0:0:0:
325,20,13511,2,0,P|331:77|336:120,1,85,8|0,0:0|0:0,0:0:0:0:
345,205,13808,1,2,0:0:0:0:
432,150,13957,1,2,0:0:0:0:
437,253,14105,1,8,0:0:0:0:
333,198,14254,6,0,P|270:165|167:178,1,170,2|2,0:0|0:0,0:0:0:0:
83,230,14699,2,0,L|92:275,3,42.5,8|0|0|0,0:0|0:0|0:0|0:0,0:0:0:0:
99,305,14996,1,2,0:0:0:0:
245,244,15145,1,8,0:0:0:0:
250,249,15442,6,0,P|336:239|431:231,1,170,4|2,0:0|0:0,0:0:0:0:
476,144,15887,2,0,P|420:136|375:133,1,85,8|0,0:0|0:0,0:0:0:0:
294,85,16185,1,2,0:0:0:0:
316,187,16333,1,2,0:0:0:0:
215,154,16482,1,8,0:0:0:0:
238,303,16630,6,0,P|131:285|69:272,1,170,4|2,0:0|0:0,0:0:0:0:
32,154,17076,1,8,0:0:0:0:
124,202,17224,1,0,0:0:0:0:
193,123,17373,2,0,P|203:72|210:24,1,85,2|2,0:0|0:0,0:0:0:0:
279,190,17670,1,8,0:0:0:0:
181,234,17818,1,0,0:0:0:0:
290,182,17967,6,0,P|296:264|307:355,1,170,4|0,0:0|0:0,0:0:0:0:
389,274,18412,2,0,P|383:192|372:101,1,170,8|0,0:3|0:0,0:0:0:0:
263,53,18858,2,0,P|189:113|215:190,1,170,2|0,0:0|0:0,0:0:0:0:
282,249,19303,6,0,P|223:219|114:199,1,170,2|2,0:0|0:0,0:0:0:0:
34,129,19749,1,4,0:0:0:0:
65,296,19897,1,4,0:0:0:0:
70,302,20343,6,0,L|245:291,1,170,4|0,0:0|0:0,0:0:0:0:
336,264,20788,2,0,P|275:199|190:202,1,170,2|0,0:0|0:0,0:0:0:0:
112,257,21234,2,0,P|117:133|118:68,1,170,2|0,0:0|0:0,0:0:0:0:
223,29,21680,6,0,P|221:99|223:129,1,85,2|0,0:0|0:0,0:0:0:0:
275,206,21977,1,2,0:0:0:0:
372,174,22125,2,0,P|426:169|458:170,1,85,8|0,0:0|0:0,0:0:0:0:
478,273,22422,1,8,0:0:0:0:
473,284,22496,1,0,0:0:0:0:
468,295,22571,1,0,0:0:0:0:
464,307,22645,1,0,0:0:0:0:
459,318,22719,6,0,P|342:304|283:294,2,170,4|8|2,0:0|0:0|0:0,0:0:0:0:
357,224,23462,1,2,0:0:0:0:
357,224,23610,2,0,P|351:177|346:127,1,85,8|2,0:0|0:0,0:0:0:0:
281,61,23907,5,0,0:0:0:0:
251,159,24056,1,2,0:0:0:0:
180,86,24204,2,0,P|132:91|91:98,1,85,8|0,0:0|0:0,0:0:0:0:
30,190,24501,2,0,P|71:196|114:201,1,85,2|2,0:0|0:0,0:0:0:0:
197,264,24798,1,8,0:0:0:0:
270,187,24947,6,0,P|297:230|259:352,1,170,4|2,0:0|0:0,0:0:0:0:
172,360,25392,2,0,L|83:348,1,85,8|0,0:0|0:0,0:0:0:0:
12,280,25689,1,2,0:0:0:0:
108,248,25838,1,2,0:0:0:0:
204,216,25986,2,0,P|207:155|207:95,1,85,8|0,0:0|0:0,0:0:0:0:
231,27,26284,6,0,P|286:56|398:36,1,170,4|8,0:0|0:0,0:0:0:0:
463,172,26729,2,0,P|408:143|296:163,1,170,2|2,0:0|0:0,0:0:0:0:
240,242,27175,2,0,P|229:278|225:332,1,85,8|0,0:0|0:0,0:0:0:0:
390,383,27472,6,0,B|399:345|384:313|384:313|390:301|390:301|366:268|378:208,1,170,4|8,0:0|0:0,0:0:0:0:
406,120,27917,1,0,0:0:0:0:
308,148,28066,2,0,P|246:162|195:170,1,85,2|2,0:0|0:0,0:0:0:0:
156,85,28363,2,0,P|218:71|269:63,1,85,8|2,0:0|0:0,0:0:0:0:
412,33,28660,6,0,P|406:125|396:208,1,170,4|8,0:0|0:0,0:0:0:0:
307,256,29105,2,0,P|227:211|150:339,1,255,4|2,0:0|0:0,0:0:0:0:
143,321,29848,6,0,P|123:194|121:130,1,170,4|0,0:0|0:0,0:0:0:0:
202,69,30293,2,0,P|217:152|223:237,1,170,2|0,0:0|0:0,0:0:0:0:
298,314,30739,2,0,P|361:319|450:261,1,170,2|0,0:0|0:0,0:0:0:0:
412,161,31185,6,0,P|349:156|260:214,1,170,2|0,0:0|0:0,0:0:0:0:
198,291,31630,1,2,0:0:0:0:
104,250,31779,1,2,0:0:0:0:
209,298,31927,2,0,P|256:291|305:281,1,85,8|0,0:0|0:0,0:0:0:0:
352,199,32224,6,0,P|341:133|339:107,1,85,4|0,0:0|0:0,0:0:0:0:
434,69,32521,2,0,P|476:111|450:214,1,170,8|2,0:0|0:0,0:0:0:0:
375,286,32967,2,0,P|316:270|255:268,1,85,2|8,0:0|0:0,0:0:0:0:
205,325,33264,6,0,P|223:202|242:144,1,170,2|2,0:0|0:0,0:0:0:0:
301,83,33709,2,0,P|326:124|332:169,1,85,8|0,0:0|0:0,0:0:0:0:
293,255,34006,1,2,0:0:0:0:
142,198,34155,1,2,0:0:0:0:
189,317,34303,1,8,0:0:0:0:
194,325,34600,6,0,L|186:147,1,170,4|8,0:0|0:0,0:0:0:0:
185,56,35046,2,0,P|251:55|276:157,1,170,0|2,0:0|0:0,0:0:0:0:
263,241,35491,2,0,P|331:227|368:211,1,85,8|0,0:0|0:0,0:0:0:0:
438,133,35788,6,0,L|430:311,1,170,4|8,0:0|0:0,0:0:0:0:
343,356,36234,1,0,0:0:0:0:
262,293,36383,2,0,P|208:276|156:268,1,85,0|2,0:0|0:0,0:0:0:0:
77,289,36680,1,8,0:0:0:0:
109,190,36828,1,0,0:0:0:0:
140,91,36977,6,0,B|190:115|247:125|247:125|260:190,1,170,4|8,0:0|0:0,0:0:0:0:
267,285,37422,1,0,0:0:0:0:
358,235,37571,2,0,P|368:181|367:129,1,85,2|2,0:0|0:0,0:0:0:0:
316,55,37868,1,8,0:0:0:0:
295,58,37942,1,0,0:0:0:0:
274,61,38016,1,0,0:0:0:0:
253,64,38090,1,0,0:0:0:0:
231,67,38165,6,0,P|232:109|241:150,1,85,2|8,0:0|0:0,0:0:0:0:
407,332,38610,2,0,P|443:232|436:161,1,170,4|2,0:0|0:0,0:0:0:0:
346,118,39056,2,0,P|305:134|252:142,1,85,8|0,0:0|0:0,0:0:0:0:
99,108,39353,5,4,0:0:0:0:
105,114,39650,2,0,P|110:179|112:228,1,85,8|0,0:0|0:0,0:0:0:0:
70,296,39947,1,2,0:0:0:0:
170,325,40095,1,2,0:0:0:0:
232,240,40244,1,8,0:0:0:0:
334,265,40392,6,0,P|315:127|311:76,1,170,2|2,0:0|0:0,0:0:0:0:
378,17,40838,2,0,P|408:64|413:104,1,85,8|0,0:0|0:0,0:0:0:0:
405,195,41135,2,0,P|316:175|209:173,1,170,2|8,0:0|0:0,0:0:0:0:
135,186,41581,1,0,0:0:0:0:
55,253,41729,6,0,P|38:189|35:146,1,85,2|0,0:0|0:0,0:0:0:0:
105,94,42026,2,0,P|194:108|228:182,1,170,8|2,0:0|0:0,0:0:0:0:
186,269,42472,1,2,0:0:0:0:
262,339,42620,1,8,0:0:0:0:
358,298,42769,6,0,P|370:224|380:111,1,170,2|2,0:0|0:0,0:0:0:0:
290,72,43214,2,0,P|283:123|277:178,1,85,8|0,0:0|0:0,0:0:0:0:
177,180,43511,2,0,P|184:129|190:74,1,85,2|2,0:0|0:0,0:0:0:0:
95,44,43808,2,0,P|83:118|73:231,1,170,8|2,0:0|0:0,0:0:0:0:
277,332,44402,6,0,P|266:278|250:238,1,85,4|0,0:0|0:0,0:0:0:0:
177,180,44699,2,0,P|163:220|155:261,2,85,0|2|8,0:0|0:0|0:0,0:0:0:0:
256,109,45145,6,0,P|323:125|383:54,1,170,4|0,0:0|0:0,0:0:0:0:
453,144,45590,2,0,P|446:209|447:246,1,85,8|0,0:0|0:0,0:0:0:0:
353,301,45887,2,0,P|351:258|346:216,1,85,2|2,0:0|0:0,0:0:0:0:
270,140,46185,2,0,P|220:141|172:152,1,85,8|0,0:0|0:0,0:0:0:0:
83,179,46482,5,4,0:0:0:0:
105,74,46630,1,0,0:0:0:0:
80,190,46779,1,8,0:0:0:0:
192,212,46927,2,0,P|243:169|356:188,1,170,0|2,0:0|0:0,0:0:0:0:
459,294,47373,2,0,P|392:289|368:281,1,85,8|0,0:0|0:0,0:0:0:0:
280,245,47670,5,0,0:0:0:0:
235,341,47818,1,2,0:0:0:0:
137,309,47967,2,0,P|132:259|133:217,1,85,8|0,0:0|0:0,0:0:0:0:
185,131,48264,1,2,0:0:0:0:
311,172,48412,1,2,0:0:0:0:
175,127,48561,2,0,P|170:77|171:35,1,85,8|0,0:0|0:0,0:0:0:0:
375,189,48858,5,2,0:0:0:0:
381,195,49155,2,0,P|386:145|385:103,1,85,4|0,0:0|0:0,0:0:0:0:
289,59,49452,2,0,P|284:109|285:151,1,85,0|2,0:0|0:0,0:0:0:0:
293,247,49749,1,8,0:0:0:0:
293,247,49897,6,0,P|190:231|126:217,1,170,2|2,0:0|0:0,0:0:0:0:
39,297,50343,2,0,P|92:308|151:324,1,85,8|0,0:0|0:0,0:0:0:0:
219,357,50640,2,0,P|272:346|331:330,1,85,2|0,0:0|0:0,0:0:0:0:
387,276,50937,2,0,L|379:115,1,127.5,8|0,0:0|0:0,0:0:0:0:
380,130,51234,1,2,0:0:0:0:
121,315,51531,6,0,L|113:196,1,85,4|0,0:0|0:0,0:0:0:0:
118,126,51828,2,0,P|168:145|217:151,1,85,0|2,0:0|0:0,0:0:0:0:
301,152,52125,1,8,0:0:0:0:
366,68,52274,6,0,P|361:154|359:240,1,170,2|2,0:0|0:0,0:0:0:0:
307,328,52719,2,0,P|259:318|203:314,1,85,8|0,0:0|0:0,0:0:0:0:
150,240,53016,2,0,P|160:192|164:136,1,85,2|0,0:0|0:0,0:0:0:0:
79,91,53313,2,0,P|69:139|65:195,1,85,8|0,0:0|0:0,0:0:0:0:
95,305,53610,6,0,P|163:324|234:244,1,170,4|2,0:0|0:0,0:0:0:0:
220,158,54056,1,0,0:0:0:0:
315,201,54204,2,0,P|324:259|326:297,1,85,8|0,0:0|0:0,0:0:0:0:
256,361,54501,1,2,0:0:0:0:
162,317,54650,6,0,P|153:259|151:221,1,85
220,158,54947,1,2,0:0:0:0:
124,132,55095,2,0,P|80:158|56:198,1,85,2|0,0:0|0:0,0:0:0:0:
70,289,55392,1,8,0:0:0:0:
70,289,55541,2,0,P|157:275|259:271,1,170
334,307,55986,6,0,P|317:215|311:135,1,170,4|8,0:0|0:0,0:0:0:0:
396,68,56432,2,0,P|413:160|419:240,1,170,2|2,0:0|0:0,0:0:0:0:
235,298,56878,2,0,P|185:288|151:278,1,85,8|0,0:0|0:0,0:0:0:0:
75,137,57175,6,0,B|109:122|146:132|146:132|158:126|158:126|202:141|241:134,1,170,4|8,0:0|0:0,0:0:0:0:
423,212,57620,2,0,B|389:227|352:217|352:217|340:223|340:223|296:208|257:215,1,170,2|2,0:0|0:0,0:0:0:0:
203,321,58066,2,0,P|253:311|287:301,1,85,8|0,0:0|0:0,0:0:0:0:
386,141,58363,6,0,P|381:92|369:30,1,85,4|0,0:0|0:0,0:0:0:0:
225,149,58660,1,8,0:0:0:0:
225,149,58808,2,0,P|218:190|213:233,1,85,2|0,0:0|0:0,0:0:0:0:
198,354,59105,1,2,0:0:0:0:
110,284,59254,1,8,0:0:0:0:
304,306,59402,1,4,0:0:0:0:
256,192,59477,12,4,60590,0:0:0:0:
401,298,60887,6,0,P|394:256|380:215,1,85,2|8,0:0|0:0,0:0:0:0:
310,141,61185,2,0,P|267:190|158:174,1,170,2|2,0:0|0:0,0:0:0:0:
208,38,61630,2,0,P|227:110|229:143,1,85,8|0,0:0|0:0,0:0:0:0:
160,279,61927,6,0,P|109:274|66:261,1,85,4|0,0:0|0:0,0:0:0:0:
10,186,62224,1,8,0:0:0:0:
158,147,62373,2,0,P|209:152|252:165,1,85,2|0,0:0|0:0,0:0:0:0:
325,228,62670,2,0,P|341:183|345:145,1,85,2|8,0:0|0:0,0:0:0:0:
341,39,62967,1,0,0:0:0:0:
449,160,63115,6,0,P|443:246|432:348,1,170,4|8,0:0|0:0,0:0:0:0:
335,353,63561,2,0,P|286:335|243:319,1,85,2|0,0:0|0:0,0:0:0:0:
155,288,63858,1,2,0:0:0:0:
281,228,64006,1,8,0:0:0:0:
142,295,64155,1,0,0:0:0:0:
294,225,64303,6,0,P|299:177|302:126,1,85,4|0,0:0|0:0,0:0:0:0:
222,50,64600,1,8,0:0:0:0:
183,163,64749,1,0,0:0:0:0:
301,140,64897,2,0,P|367:121|417:121,1,85,2|2,0:0|0:0,0:0:0:0:
459,219,65194,2,0,P|419:233|377:239,1,85,8|0,0:0|0:0,0:0:0:0:
284,329,65491,6,0,P|221:276|136:300,1,170,2|8,0:0|0:0,0:0:0:0:
19,172,65937,2,0,P|76:189|138:188,1,85,0|2,0:0|0:0,0:0:0:0:
209,176,66234,1,0,0:0:0:0:
138,81,66383,1,8,0:0:0:0:
214,186,66531,1,0,0:0:0:0:
324,65,66680,6,0,P|321:111|317:153,1,85,4|0,0:0|0:0,0:0:0:0:
208,198,66977,2,0,P|211:244|215:286,1,85,8|0,0:0|0:0,0:0:0:0:
310,357,67274,2,0,P|368:368|425:271,1,170,2|8,0:0|0:0,0:0:0:0:
355,134,67719,6,0,B|321:154|321:154|291:148|291:148|233:174|163:156,1,170,4|0,0:0|0:0,0:0:0:0:
100,120,68165,2,0,P|92:177|99:216,1,85,8|0,0:0|0:0,0:0:0:0:
123,312,68462,1,2,0:0:0:0:
221,272,68610,1,2,0:0:0:0:
321,235,68759,2,0,P|329:292|322:331,1,85,8|0,0:0|0:0,0:0:0:0:
221,272,69056,6,0,P|206:212|236:103,1,170,4|8,0:0|0:0,0:0:0:0:
335,67,69501,2,0,P|388:86|428:87,2,85,0|2|2,0:0|0:0|0:0,0:0:0:0:
246,0,69947,1,8,0:0:0:0:
191,141,70095,6,0,P|85:128|51:75,1,170,4|2,0:0|0:0,0:0:0:0:
52,81,70541,2,0,P|63:129|70:186,1,85,8|0,0:0|0:0,0:0:0:0:
35,271,70838,2,0,P|73:293|123:315,1,85,2|0,0:0|0:0,0:0:0:0:
219,335,71135,1,8,0:0:0:0:
223,314,71209,1,0,0:0:0:0:
227,293,71284,1,0,0:0:0:0:
231,272,71358,1,0,0:0:0:0:
236,251,71432,6,0,L|256:152,1,85,4|0,0:0|0:0,0:0:0:0:
278,64,71729,1,8,0:0:0:0:
358,134,71878,2,0,P|405:130|456:123,1,85,2|0,0:0|0:0,0:0:0:0:
495,220,72175,2,0,P|448:224|397:231,1,85,2|8,0:0|0:0,0:0:0:0:
328,299,72472,1,0,0:0:0:0:
243,160,72620,6,0,P|156:193|146:265,1,170,4|8,0:0|0:0,0:0:0:0:
248,362,73066,2,0,P|237:284|219:229,1,127.5,2|0,0:0|0:0,0:0:0:0:
222,237,73363,1,2,0:0:0:0:
122,111,73511,1,8,0:0:0:0:
252,167,73660,1,0,0:0:0:0:
337,55,73808,6,0,P|344:103|357:147,1,85,4|0,0:0|0:0,0:0:0:0:
400,235,74105,2,0,P|351:242|308:255,1,85,8|2,0:0|0:0,0:0:0:0:
228,314,74402,1,0,0:0:0:0:
171,223,74551,2,0,P|188:155|207:40,1,170,2|0,0:0|0:0,0:0:0:0:
79,223,74996,6,0,P|112:294|228:295,1,203.999993774414,4|0,0:0|0:0,0:0:0:0:
308,132,75442,2,0,P|230:125|171:225,1,203.999993774414,4|0,0:0|0:0,0:0:0:0:
272,376,75887,2,0,P|316:311|259:210,1,203.999993774414,4|4,0:0|0:0,0:0:0:0:
114,300,76333,5,4,0:0:0:0:
73,201,76482,1,0,0:0:0:0:
226,296,76630,1,8,0:3:0:0:
226,296,76704,1,8,0:3:0:0:
226,296,76779,1,8,0:3:0:0:
274,200,76927,2,0,P|283:154|290:109,1,85,8|0,0:0|0:0,0:0:0:0:
221,37,77224,6,0,P|138:37|94:116,1,170,4|2,0:0|0:0,0:0:0:0:
69,206,77670,2,0,P|79:258|80:306,1,85,8|0,0:0|0:0,0:0:0:0:
136,380,77967,1,2,0:0:0:0:
327,343,78115,1,8,0:0:0:0:
337,349,78412,6,0,P|326:238|328:153,1,170,4|0,0:0|0:0,0:0:0:0:
339,75,78858,2,0,P|264:82|233:90,1,85,0|0,3:0|0:0,0:0:0:0:
127,186,79155,2,0,P|168:193|211:195,1,85,0|0,3:0|0:0,0:0:0:0:
369,233,79452,1,0,3:0:0:0:
260,325,79600,6,0,P|159:324|119:244,1,170,4|2,0:0|0:0,0:0:0:0:
114,249,79972,1,2,0:0:0:0:
112,223,80046,1,2,0:0:0:0:
208,260,80194,1,2,0:0:0:0:
163,131,80343,2,0,P|156:82|156:33,1,85,8|0,0:0|0:0,0:0:0:0:
327,152,80640,2,0,P|325:194|319:236,1,85
166,319,80937,6,0,P|88:322|67:226,1,170,4|2,0:0|0:0,0:0:0:0:
107,151,81383,1,0,0:0:0:0:
201,201,81531,2,0,P|262:202|389:186,1,170,8|0,0:0|0:0,0:0:0:0:
410,95,81977,6,0,P|465:144|454:246,1,170,0|2,0:0|0:0,0:0:0:0:
382,308,82422,2,0,P|327:298|295:289,1,85,2|0,0:0|0:0,0:0:0:0:
221,211,82719,1,8,0:0:0:0:
196,324,82868,1,0,0:0:0:0:
223,196,83016,2,0,P|234:133|237:102,1,85
176,24,83313,5,4,0:0:0:0:
73,171,83462,2,0,P|81:271|93:348,1,170
194,374,83907,2,0,P|204:318|207:279,1,85,8|0,0:0|0:0,0:0:0:0:
202,188,84204,1,2,0:0:0:0:
369,266,84353,1,4,0:0:0:0:
376,272,84650,5,2,0:0:0:0:
302,172,84799,1,8,0:0:0:0:
223,312,84947,1,0,0:0:0:0:
223,312,85021,1,0,0:0:0:0:
223,312,85095,1,2,0:0:0:0:
140,166,85244,2,0,P|136:109|136:67,1,85,8|0,0:0|0:0,0:0:0:0:
304,21,85541,6,0,P|366:38|367:157,1,170,4|2,0:0|0:0,0:0:0:0:
312,229,85986,2,0,P|246:220|200:214,1,85,8|0,0:0|0:0,0:0:0:0:
144,150,86284,1,2,0:0:0:0:
131,258,86432,2,0,P|123:305|119:346,1,85,0|8,0:0|0:0,0:0:0:0:
225,371,86729,6,0,L|416:367,1,191.250007295609,4|0,0:0|0:0,0:0:0:0:
270,140,87472,2,0,L|254:216,1,63.7500024318696
167,176,87769,2,0,L|151:252,1,63.7500024318696
132,347,88066,5,4,0:0:0:0:
229,309,88214,1,8,0:0:0:0:
75,235,88363,2,0,P|66:177|64:141,1,85,0|2,0:0|0:0,0:0:0:0:
186,248,88660,5,8,0:0:0:0:
64,150,88808,1,0,0:0:0:0:
228,43,88957,1,0,0:0:0:0:
237,238,89105,1,4,0:0:0:0:
