osu file format v14

[General]
AudioFilename: Setsuna no Kajitsu.mp3
AudioLeadIn: 1400
PreviewTime: 61779
Countdown: 0
SampleSet: Soft
StackLeniency: 0.7
Mode: 0
LetterboxInBreaks: 0
WidescreenStoryboard: 0

[Editor]
Bookmarks: 19303
DistanceSpacing: 1.1
BeatDivisor: 2
GridSize: 4
TimelineZoom: 1

[Metadata]
Title:Setsuna no Kajitsu
TitleUnicode:刹那の果実
Artist:Maon Kurosaki
ArtistUnicode:黒崎真音
Creator:Guy
Version:Easy
Source:グリザイアの楽園 - LE EDEN DE LA GRISAIA -
Tags:tv size opening grisaia no rakuen
BeatmapID:716610
BeatmapSetID:322076

[Difficulty]
HPDrainRate:2
CircleSize:3
OverallDifficulty:2
ApproachRate:3
SliderMultiplier:0.8
SliderTickRate:1

[Events]
//Background and Video events
0,0,"bg.jpg",0,0
Video,0,"video (2).flv"
//Break Periods
//Storyboard Layer 0 (Background)
//Storyboard Layer 1 (Fail)
//Storyboard Layer 2 (Pass)
//Storyboard Layer 3 (Foreground)
//Storyboard Sound Samples

[TimingPoints]
614,368.098159509202,4,2,1,50,1,0
2086,357.142857142857,4,2,1,50,1,0
3514,337.078651685393,4,2,1,50,1,0
4862,306.122448979592,4,2,1,50,1,0
6086,297.029702970297,4,2,1,50,1,0
9947,-100,4,2,2,60,0,0
61927,-100,4,2,2,70,0,1
80937,-100,4,2,2,60,0,0
86729,-100,4,2,1,60,0,0
86803,-100,4,2,1,50,0,0
88066,-100,4,2,2,60,0,0

[Colours]
Combo1 : 255,0,204
Combo2 : 39,231,124
Combo3 : 232,139,0
Combo4 : 1,197,254
Combo5 : 170,201,48

[HitObjects]
201,260,614,6,0,P|93:252|33:236,2,160,2|2|2,0:0|0:0|0:0,0:0:0:0:
269,204,2443,6,0,P|262:136|261:86,2,80,0|2|0,0:0|0:0|0:0,0:0:0:0:
289,294,3514,5,2,0:0:0:0:
376,283,3851,2,0,P|424:278|472:268,2,80,0|2|0,0:0|0:0|0:0,0:0:0:0:
321,203,4862,6,0,P|233:191|156:187,2,160,2|2|2,0:0|0:0|0:0,0:0:0:0:
408,195,6383,5,0,0:0:0:0:
358,122,6680,2,0,P|279:108|196:101,2,160,2|2|2,0:0|0:0|0:0,0:0:0:0:
296,288,8462,1,2,0:0:0:0:
135,359,9056,2,0,P|128:306|129:234,1,120,2|4,0:0|0:0,0:0:0:0:
428,87,10689,6,0,P|360:71|292:65,1,120,4|8,0:0|0:0,0:0:0:0:
222,53,11432,2,0,P|132:68|123:150,2,160,2|2|2,0:0|0:0|0:0,0:0:0:0:
253,135,12917,1,8,0:0:0:0:
291,214,13214,6,0,P|286:266|279:321,1,80,0|8,0:0|0:0,0:0:0:0:
218,353,13808,2,0,P|167:351|110:300,2,120,2|2|8,0:0|0:0|0:0,0:0:0:0:
196,267,14996,1,4,0:0:0:0:
305,340,15442,6,0,P|314:239|321:196,1,120,4|8,0:0|0:0,0:0:0:0:
333,134,16185,2,0,P|274:124|214:107,1,120,2|4,0:0|0:0,0:0:0:0:
97,165,17076,1,8,0:0:0:0:
84,253,17373,2,0,P|138:243|165:221,1,80,2|8,0:0|0:0,0:0:0:0:
183,143,17967,6,0,P|239:193|239:256,1,120,4|8,0:0|0:3,0:0:0:0:
175,350,18858,2,0,P|226:337|315:336,1,120,2|2,0:0|0:0,0:0:0:0:
422,357,19749,1,4,0:0:0:0:
368,189,20343,6,0,P|354:89|352:36,2,120,4|2|2,0:0|0:0|0:0,0:0:0:0:
237,170,21680,2,0,P|251:270|253:323,1,120,2|2,0:0|0:0,0:0:0:0:
178,337,22422,1,8,0:0:0:0:
94,310,22719,6,0,P|86:264|87:228,1,80,4|8,0:0|0:0,0:0:0:0:
94,143,23313,2,0,P|154:111|223:129,2,120,2|2|8,0:0|0:0|0:0,0:0:0:0:
164,195,24501,1,2,0:0:0:0:
293,168,24947,6,0,P|304:261|313:304,1,120,4|8,0:0|0:0,0:0:0:0:
370,349,25689,2,0,P|411:344|453:333,1,80,2|8,0:0|0:0,0:0:0:0:
492,257,26284,2,0,P|481:164|472:121,1,120,4|2,0:0|0:0,0:0:0:0:
349,99,27175,1,8,0:0:0:0:
293,168,27472,6,0,P|217:180|162:103,1,160,4|2,0:0|0:0,0:0:0:0:
85,84,28363,1,8,0:0:0:0:
89,171,28660,2,0,P|93:229|94:295,2,120,4|4|2,0:0|0:0|0:0,0:0:0:0:
85,84,29848,6,0,P|134:98|203:106,1,120,4|0,0:0|0:0,0:0:0:0:
305,188,30739,2,0,P|256:202|187:210,1,120,2|2,0:0|0:0,0:0:0:0:
90,299,31630,2,0,P|131:309|180:316,1,80,2|8,0:0|0:0,0:0:0:0:
255,300,32224,6,0,P|293:290|333:284,1,80,4|8,0:0|0:0,0:0:0:0:
418,261,32818,2,0,P|392:217|304:200,2,120,2|2|8,0:0|0:0|0:0,0:0:0:0:
400,347,34006,2,0,P|361:360|323:368,1,80,2|8,0:0|0:0,0:0:0:0:
237,342,34600,6,0,P|153:331|72:309,1,160,4|2,0:0|0:0,0:0:0:0:
13,255,35491,1,8,0:0:0:0:
96,228,35788,2,0,P|110:140|125:46,1,160,4|2,0:0|0:0,0:0:0:0:
196,23,36680,1,8,0:0:0:0:
259,84,36977,6,0,P|253:137|246:187,1,80,4|8,0:0|0:0,0:0:0:0:
242,251,37571,2,0,P|302:254|399:226,1,160,2|2,0:0|0:0,0:0:0:0:
477,121,38610,2,0,P|417:97|354:101,1,120,4|8,0:0|0:0,0:0:0:0:
275,115,39353,6,0,P|238:127|194:129,1,80,4|8,0:0|0:0,0:0:0:0:
146,57,39947,2,0,P|112:108|125:178,1,120,2|2,0:0|0:0,0:0:0:0:
185,277,40838,1,8,0:0:0:0:
272,272,41135,2,0,L|369:265,1,80,2|8,0:0|0:0,0:0:0:0:
439,258,41729,6,0,L|446:169,2,80,2|8|2,0:0|0:0|0:0,0:0:0:0:
362,365,42769,2,0,P|305:362|243:352,1,120,2|8,0:0|0:0,0:0:0:0:
160,320,43511,1,2,0:0:0:0:
229,265,43808,2,0,P|236:224|240:182,1,80,8|2,0:0|0:0,0:0:0:0:
213,101,44402,6,0,P|133:70|66:176,1,200,4|4,0:0|0:0,0:0:0:0:
78,276,45590,2,0,P|81:326|75:364,2,80,8|2|8,0:0|0:0|0:0,0:0:0:0:
145,218,46482,6,0,P|194:234|239:236,1,80,4|8,0:0|0:0,0:0:0:0:
307,217,47076,2,0,L|301:89,2,120,2|2|8,0:0|0:0|0:0,0:0:0:0:
326,302,48264,2,0,P|371:273|390:242,2,80,2|8|2,0:0|0:0|0:0,0:0:0:0:
241,276,49155,6,0,P|171:239|69:247,1,160,4|8,0:0|0:0,0:0:0:0:
38,169,50046,2,0,P|48:112|61:69,1,80,2|8,0:0|0:0,0:0:0:0:
128,43,50640,2,0,P|169:54|222:65,1,80,2|8,0:0|0:0,0:0:0:0:
265,126,51234,2,0,P|306:115|359:104,1,80,2|4,0:0|0:0,0:0:0:0:
429,90,51828,6,0,P|420:158|415:227,1,120,2|2,0:0|0:0,0:0:0:0:
407,341,52719,1,8,0:0:0:0:
319,330,53016,2,0,P|277:323|237:313,1,80,2|8,0:0|0:0,0:0:0:0:
155,294,53610,6,0,P|192:240|292:244,1,160,4|8,0:0|0:0,0:0:0:0:
366,255,54501,2,0,P|361:203|330:161,2,80,0|0|2,0:0|0:0|0:0,0:0:0:0:
319,330,55392,2,0,P|277:323|237:313,1,80,8|0,0:0|0:0,0:0:0:0:
256,192,55986,12,4,59402,0:0:0:0:
92,103,61927,6,0,P|84:167|81:249,2,120,4|2|8,0:0|0:0|0:0,0:0:0:0:
177,124,63115,2,0,P|217:143|260:158,1,80,4|8,0:0|0:0,0:0:0:0:
338,149,63709,2,0,P|326:195|308:226,1,80,2|8,0:0|0:0,0:0:0:0:
223,240,64303,6,0,P|152:228|83:275,2,160,6|2|2,0:0|0:0|0:0,0:0:0:0:
279,307,65788,1,8,0:0:0:0:
366,294,66086,2,0,P|370:241|372:203,1,80,2|8,0:0|0:0,0:0:0:0:
379,126,66680,6,0,P|310:133|262:136,1,80,4|8,0:0|0:0,0:0:0:0:
239,69,67274,2,0,P|215:120|230:188,1,120,2|4,0:0|0:0,0:0:0:0:
281,300,68165,1,8,0:0:0:0:
193,289,68462,2,0,P|147:280|107:269,1,80,2|8,0:0|0:0,0:0:0:0:
56,205,69056,6,0,P|104:129|198:146,1,160,4|2,0:0|0:0,0:0:0:0:
273,204,70095,2,0,L|259:361,1,120,4|8,0:0|0:0,0:0:0:0:
350,320,70838,2,0,L|358:232,1,80,2|8,0:0|0:0,0:0:0:0:
354,152,71432,6,0,P|308:117|234:115,1,120,4|2,0:0|0:0,0:0:0:0:
185,173,72175,2,0,P|192:92|196:45,2,120,2|4|2,0:0|0:0|0:0,0:0:0:0:
166,303,73511,1,8,0:0:0:0:
253,300,73808,6,0,P|299:295|355:283,1,80,4|8,0:0|0:0,0:0:0:0:
418,271,74402,2,0,P|377:209|268:228,1,160,0|4,0:0|0:0,0:0:0:0:
166,227,75442,2,0,P|89:222|41:197,1,120,4|4,0:0|0:0,0:0:0:0:
52,115,76185,6,0,P|107:93|257:120,1,200,4|8,0:0|0:0,0:0:0:0:
299,179,77224,2,0,P|302:240|288:308,1,120,4|8,0:0|0:0,0:0:0:0:
242,371,77967,1,2,0:0:0:0:
111,349,78412,6,0,P|100:290|103:230,1,120,4|0,0:0|3:0,0:0:0:0:
141,150,79155,2,0,P|208:169|289:175,1,120,0|4,3:0|0:0,0:0:0:0:
386,146,80046,1,8,0:0:0:0:
381,233,80343,2,0,P|374:300|369:332,1,80,8|2,0:0|0:0,0:0:0:0:
291,348,80937,6,0,P|217:359|168:290,1,160,4|8,0:0|0:0,0:0:0:0:
144,168,81977,2,0,P|208:184|269:189,1,120,0|2,0:0|0:0,0:0:0:0:
349,184,82719,2,0,P|337:145|312:114,1,80,8|0,0:0|0:0,0:0:0:0:
227,94,83313,6,0,P|146:75|70:82,1,160,4|8,0:0|0:0,0:0:0:0:
50,212,84353,2,0,P|69:251|85:327,1,120,4|8,0:0|0:0,0:0:0:0:
163,365,85095,2,0,P|223:343|296:340,1,120,8|4,0:0|0:0,0:0:0:0:
392,270,85986,1,8,0:0:0:0:
338,199,86284,2,0,P|332:121|336:46,2,120,0|4|0,0:0|0:0|0:0,0:0:0:0:
392,270,87472,2,0,P|354:285|314:286,1,80
252,224,88066,6,0,P|186:134|31:175,1,280,4|4,0:0|0:0,0:0:0:0:
