osu file format v14

[General]
AudioFilename: Setsuna.mp3
AudioLeadIn: 1100
PreviewTime: 61927
Countdown: 0
SampleSet: Soft
StackLeniency: 0.7
Mode: 0
LetterboxInBreaks: 0
WidescreenStoryboard: 0

[Editor]
Bookmarks: 16630
DistanceSpacing: 1
BeatDivisor: 4
GridSize: 4
TimelineZoom: 1.7

[Metadata]
Title:Setsuna no Kajitsu
TitleUnicode:刹那の果実
Artist:Maon Kurosaki
ArtistUnicode:黒崎真音
Creator:Aerous
Version:Normal
Source:グリザイアの楽園 - LE EDEN DE LA GRISAIA -
Tags:grisaia no rakuen opening tv size
BeatmapID:758462
BeatmapSetID:342826

[Difficulty]
HPDrainRate:4
CircleSize:3
OverallDifficulty:4
ApproachRate:5
SliderMultiplier:1.1
SliderTickRate:1

[Events]
//Background and Video events
0,0,"setsuna.jpg",0,0
Video,0,"video (2).flv"
//Break Periods
//Storyboard Layer 0 (Background)
//Storyboard Layer 1 (Fail)
//Storyboard Layer 2 (Pass)
//Storyboard Layer 3 (Foreground)
//Storyboard Sound Samples

[TimingPoints]
614,368.098159509202,4,2,1,50,1,0
614,-100,4,2,1,50,0,0
2086,357.142857142857,4,2,1,50,1,0
2086,-100,4,2,1,50,0,0
3514,337.078651685393,4,2,1,50,1,0
3514,-100,4,2,1,50,0,0
4862,314.13612565445,4,2,1,50,1,0
4862,-100,4,2,1,50,0,0
5490,297.029702970297,4,2,1,50,1,0
6086,297.029702970297,4,2,1,50,1,0
6086,-100,4,2,1,50,0,0
9947,-100,4,2,5,50,0,0
10689,-100,4,2,5,60,0,0
15442,-100,4,2,5,60,0,0
61927,-100,4,2,5,70,0,1
80937,-100,4,2,5,60,0,0
88066,-100,4,2,5,60,0,0

[Colours]
Combo1 : 255,201,36
Combo2 : 2,200,242
Combo3 : 52,224,125
Combo4 : 244,72,98

[HitObjects]
415,104,614,6,0,B|424:160|424:160|420:232,1,110,2|2,0:0|0:0,0:0:0:0:
348,296,1350,2,0,B|292:287|292:287|220:291,1,110,2|2,0:0|0:0,0:0:0:0:
148,224,2086,6,0,L|38:229,1,110,2|2,0:0|0:0,0:0:0:0:
40,120,2800,2,0,L|154:114,1,110,2|2,0:0|0:0,0:0:0:0:
248,48,3514,6,0,P|260:120|256:180,1,110,2|2,0:0|0:0,0:0:0:0:
228,260,4188,2,0,P|228:314|239:368,1,110,2|2,0:0|0:0,0:0:0:0:
340,308,4862,6,0,B|360:272|360:272|348:240|348:240|372:176|348:80,1,220,2|2,0:0|0:0,0:0:0:0:
252,52,5787,1,2,0:0:0:0:
260,164,6086,6,0,L|132:148,1,110,2|2,0:0|0:0,0:0:0:0:
120,256,6680,2,0,L|229:269,1,110,2|2,0:0|0:0,0:0:0:0:
340,308,7274,6,0,B|360:272|360:272|348:240|348:240|372:176|348:80,1,220,2|2,0:0|0:0,0:0:0:0:
256,52,8165,1,2,0:0:0:0:
164,112,8462,5,2,0:0:0:0:
164,112,8610,2,0,L|164:236,1,110,2|0,0:0|0:0,0:0:0:0:
112,240,9056,2,0,L|123:349,1,110,2|2,0:0|0:0,0:0:0:0:
176,364,9501,1,4,0:0:0:0:
284,344,9798,1,2,0:0:0:0:
284,344,9947,2,0,P|336:332|404:352,1,110,8|8,0:0|0:0,0:0:0:0:
444,360,10392,1,8,0:0:0:0:
468,252,10689,6,0,B|536:176|472:80,1,165,4|8,0:0|0:0,0:0:0:0:
396,168,11432,2,0,L|260:168,1,110,2|8,0:0|0:0,0:0:0:0:
236,268,12026,2,0,L|100:268,1,110,2|8,0:0|0:0,0:0:0:0:
40,336,12620,2,0,L|40:200,1,110,2|8,0:0|0:0,0:0:0:0:
80,188,13066,6,0,B|108:120|108:120|108:24,1,165,2|8,0:0|0:0,0:0:0:0:
204,80,13808,2,0,P|258:93|322:85,1,110,2|8,0:0|0:0,0:0:0:0:
356,56,14254,2,0,P|369:135|371:230,1,165,2|8,0:0|0:0,0:0:0:0:
400,328,14996,2,0,L|324:324,1,55,2|8,0:0|0:0,0:0:0:0:
240,364,15442,6,0,P|227:285|225:190,1,165,4|8,0:0|0:0,0:0:0:0:
308,128,16185,2,0,L|200:88,1,110,2|8,0:0|0:0,0:0:0:0:
168,52,16630,2,0,P|164:116|104:216,1,165,4|8,0:0|0:0,0:0:0:0:
44,284,17373,2,0,L|16:224,2,55,2|2|8,0:0|0:0|0:0,0:0:0:0:
56,336,17818,1,0,0:0:0:0:
56,336,17967,6,0,P|110:340|172:324,1,110,4|0,0:0|0:0,0:0:0:0:
212,300,18412,2,0,L|348:300,1,110,8|0,0:3|0:0,0:0:0:0:
352,252,18858,2,0,L|488:252,1,110,2|0,0:0|0:0,0:0:0:0:
504,216,19303,2,0,P|499:161|492:106,1,110,0|2,0:0|0:0,0:0:0:0:
480,52,19749,1,4,0:0:0:0:
480,52,19897,1,4,0:0:0:0:
316,72,20343,6,0,P|256:76|192:68,1,110,4|0,0:0|0:0,0:0:0:0:
168,32,20788,2,0,L|184:196,1,165,2|2,0:0|0:0,0:0:0:0:
120,288,21531,1,0,0:0:0:0:
120,288,21680,2,0,P|173:311|236:300,1,110,2|2,0:0|0:0,0:0:0:0:
272,284,22125,2,0,P|316:274|384:279,1,110,8|8,0:0|0:0,0:0:0:0:
480,324,22719,6,0,L|463:193,1,110,4|8,0:0|0:0,0:0:0:0:
448,108,23313,2,0,P|404:98|336:103,1,110,2|8,0:0|0:0,0:0:0:0:
300,140,23759,2,0,B|236:124|236:124|132:144,1,165,2|8,0:0|0:0,0:0:0:0:
103,226,24501,2,0,P|60:234|35:241,2,55,2|2|8,0:0|0:0|0:0,0:0:0:0:
132,272,24947,6,0,B|212:282|212:282|260:276,1,110,4|2,0:0|0:0,0:0:0:0:
288,304,25392,2,0,B|369:294|369:294|416:300,1,110,8|2,0:0|0:0,0:0:0:0:
452,304,25838,2,0,L|468:176,1,110,0|0,0:0|0:0,0:0:0:0:
484,144,26284,2,0,P|404:160|360:144,1,110,4|8,0:0|0:0,0:0:0:0:
336,120,26729,1,2,0:0:0:0:
288,92,26878,2,0,L|292:204,1,110,0|8,0:0|0:0,0:0:0:0:
272,312,27472,6,0,P|220:300|152:320,1,110,4|8,0:0|0:0,0:0:0:0:
56,332,28066,2,0,L|76:208,1,110,2|8,0:0|0:0,0:0:0:0:
20,128,28660,2,0,P|73:117|128:107,1,110,4|2,0:0|0:0,0:0:0:0:
176,84,29105,2,0,P|229:94|284:104,1,110,4|0,0:0|0:0,0:0:0:0:
340,104,29551,1,2,0:0:0:0:
408,188,29848,6,0,L|236:212,1,165,4|2,0:0|0:0,0:0:0:0:
104,296,30739,2,0,L|265:336,1,165,2|2,0:0|0:0,0:0:0:0:
428,356,31630,2,0,L|480:244,1,110,2|8,0:0|0:0,0:0:0:0:
480,148,32224,6,0,P|444:164|368:152,1,110,4|8,0:0|0:0,0:0:0:0:
288,88,32818,2,0,L|276:156,1,55,2|2,0:0|0:0,0:0:0:0:
256,192,33115,1,8,0:0:0:0:
256,192,33264,2,0,P|232:268|264:356,1,165,2|8,0:0|0:0,0:0:0:0:
336,268,34006,2,0,L|460:268,1,110,2|8,0:0|0:0,0:0:0:0:
504,176,34600,6,0,P|464:129|424:80,1,110,4|8,0:0|0:0,0:0:0:0:
328,60,35194,2,0,L|204:60,1,110,2|8,0:0|0:0,0:0:0:0:
108,52,35788,2,0,P|96:116|104:168,1,110,4|8,0:0|0:0,0:0:0:0:
88,212,36234,2,0,P|163:180|244:216,1,165,2|8,0:0|0:0,0:0:0:0:
316,132,36977,6,0,P|331:184|331:239,1,110,4|8,0:0|0:0,0:0:0:0:
396,328,37571,2,0,P|335:344|285:342,1,110,2|8,0:0|0:0,0:0:0:0:
180,320,38165,2,0,L|104:320,1,55,2|8,0:0|0:0,0:0:0:0:
64,228,38610,2,0,L|67:118,1,110,4|0,0:0|0:0,0:0:0:0:
80,64,39056,1,8,0:0:0:0:
188,40,39353,6,0,L|188:168,1,110,4|8,0:0|0:0,0:0:0:0:
276,216,39947,2,0,P|330:225|384:229,1,110,2|8,0:0|0:0,0:0:0:0:
432,260,40392,2,0,P|440:192|428:96,1,165,2|8,0:0|0:0,0:0:0:0:
324,132,41135,2,0,P|269:122|208:144,1,110,2|8,0:0|0:0,0:0:0:0:
140,216,41729,6,0,L|117:108,1,110,2|8,0:0|0:0,0:0:0:0:
40,184,42323,1,2,0:0:0:0:
40,184,42472,2,0,L|62:291,1,110,2|2,0:0|0:0,0:0:0:0:
160,340,43066,1,2,0:0:0:0:
160,340,43214,2,0,P|248:312|280:320,1,110,8|2,0:0|0:0,0:0:0:0:
308,344,43660,2,0,L|384:344,1,55,2|8,0:0|0:0,0:0:0:0:
428,256,44105,5,2,0:0:0:0:
378,156,44402,2,0,P|431:147|488:160,2,110,4|0|8,0:0|0:0|0:0,0:0:0:0:
328,175,45145,2,0,P|246:183|164:171,1,165,4|8,0:0|0:0,0:0:0:0:
60,196,45887,2,0,P|63:139|96:96,1,110,2|8,0:0|0:0,0:0:0:0:
192,48,46482,6,0,B|256:56|256:56|312:52,1,110,4|8,0:0|0:0,0:0:0:0:
348,24,46927,2,0,P|338:107|328:192,1,165,0|8,0:0|0:0,0:0:0:0:
392,264,47670,2,0,L|344:320,1,55,0|2,0:0|0:0,0:0:0:0:
304,328,47967,2,0,P|248:296|184:304,1,110,8|2,0:0|0:0,0:0:0:0:
152,316,48412,1,2,0:0:0:0:
152,316,48561,2,0,L|96:200,1,110,8|2,0:0|0:0,0:0:0:0:
172,132,49155,6,0,L|67:98,2,110,4|0|8,0:0|0:0|0:0,0:0:0:0:
224,152,49897,2,0,P|305:159|379:124,1,165,2|8,0:0|0:0,0:0:0:0:
464,52,50640,2,0,P|478:105|483:159,1,110,2|8,0:0|0:0,0:0:0:0:
444,264,51234,2,2,L|484:328,2,55,2|2|4,0:0|0:0|0:0,0:0:0:0:
336,316,51828,2,0,L|208:312,1,110,0|8,0:0|0:0,0:0:0:0:
176,336,52274,2,0,P|200:260|188:172,1,165,2|8,0:0|0:0,0:0:0:0:
228,76,53016,2,0,P|173:75|121:92,1,110,2|8,0:0|0:0,0:0:0:0:
24,140,53610,6,0,P|24:85|35:31,2,110,4|2|8,0:0|0:0|0:0,0:0:0:0:
4,248,54501,1,2,0:0:0:0:
4,248,54650,2,0,P|88:228|172:272,1,165,0|2,0:0|0:0,0:0:0:0:
248,324,55392,2,0,L|376:320,1,110,8|0,0:0|0:0,0:0:0:0:
460,280,55986,6,0,P|480:204|452:120,1,165,4|2,0:0|0:0,0:0:0:0:
412,87,56581,2,0,P|361:107|306:105,1,110,0|8,0:0|0:0,0:0:0:0:
220,35,57175,2,0,P|200:114|225:192,1,165,4|2,0:0|0:0,0:0:0:0:
268,228,57769,2,0,P|320:208|392:216,1,110,0|8,0:0|0:0,0:0:0:0:
460,280,58363,2,0,P|480:204|452:120,1,165,4|0,0:0|0:0,0:0:0:0:
412,88,58957,2,0,P|360:108|288:100,1,110,2|0,0:0|0:0,0:0:0:0:
252,120,59402,6,0,B|184:132|184:132|76:96,1,165,8|0,0:0|0:0,0:0:0:0:
8,172,60145,2,0,L|108:216,1,110,0|0,0:0|0:0,0:0:0:0:
140,260,60590,1,0,0:0:0:0:
244,296,60887,2,0,L|257:362,2,55,2|2|8,0:0|0:0|0:0,0:0:0:0:
320,216,61482,2,0,L|304:140,1,55,2|8,0:0|0:0,0:0:0:0:
236,80,61927,6,0,L|347:62,1,110,4|8,0:0|0:0,0:0:0:0:
400,64,62373,2,0,P|404:130|400:187,1,110,0|2,0:0|0:0,0:0:0:0:
440,276,62967,1,0,0:0:0:0:
440,276,63115,2,0,L|316:312,1,110,4|8,0:0|0:0,0:0:0:0:
280,324,63561,2,0,L|152:308,1,110,2|2,0:0|0:0,0:0:0:0:
116,304,64006,1,8,0:0:0:0:
72,204,64303,6,0,P|144:209|209:224,1,110,4|8,0:0|0:0,0:0:0:0:
288,236,64897,2,0,P|343:233|398:223,1,110,2|8,0:0|0:0,0:0:0:0:
480,152,65491,2,0,P|475:80|460:15,1,110,4|8,0:0|0:0,0:0:0:0:
412,56,65937,2,0,L|240:64,1,165,0|8,0:0|0:0,0:0:0:0:
136,48,66680,5,4,0:0:0:0:
92,148,66977,1,8,0:0:0:0:
16,228,67274,2,0,L|60:347,1,110,2|8,0:0|0:0,0:0:0:0:
108,332,67719,2,0,P|196:304|276:336,1,165,4|8,0:0|0:0,0:0:0:0:
368,356,68462,2,0,L|436:244,1,110,2|8,0:0|0:0,0:0:0:0:
496,180,69056,6,0,B|460:132|460:132|400:184|308:152,1,220,4|2,0:0|0:0,0:0:0:0:
380,68,69947,1,8,0:0:0:0:
380,68,70095,2,0,L|248:60,1,110,4|2,0:0|0:0,0:0:0:0:
220,40,70541,1,8,0:0:0:0:
112,32,70838,1,2,0:0:0:0:
56,128,71135,1,8,0:0:0:0:
80,236,71432,6,0,P|66:272|58:304,2,55,4|0|8,0:0|0:0|0:0,0:0:0:0:
136,248,71878,2,8,P|210:238|266:236,1,110,2|2,0:0|0:0,0:0:0:0:
328,164,72472,1,0,0:0:0:0:
328,164,72620,2,0,P|392:156|444:164,1,110,6|8,0:0|0:0,0:0:0:0:
488,140,73066,2,0,L|484:272,1,110,2|0,0:0|0:0,0:0:0:0:
448,292,73511,1,8,0:0:0:0:
340,264,73808,5,4,0:0:0:0:
236,296,74105,2,0,L|124:300,1,110,8|2,0:0|0:0,0:0:0:0:
84,336,74551,2,0,P|80:268|96:212,1,110
96,172,74996,2,0,P|180:172|260:144,2,165,4|4|4,0:0|0:0|0:0,0:0:0:0:
108,64,76185,6,0,P|134:57|162:52,1,55,4|4,0:0|0:0,0:0:0:0:
216,48,76482,2,0,L|388:68,1,165,0|0,0:0|0:0,0:0:0:0:
484,32,77224,2,0,L|460:212,1,165,4|8,0:0|0:0,0:0:0:0:
416,296,77967,1,2,0:0:0:0:
416,296,78115,1,4,0:0:0:0:
316,340,78412,6,0,P|230:344|139:320,1,165,4|0,0:0|3:0,0:0:0:0:
96,232,79155,1,0,3:0:0:0:
106,123,79452,1,0,0:0:0:0:
106,123,79600,2,0,P|189:128|269:110,1,165,4|2,0:0|0:0,0:0:0:0:
367,55,80343,2,0,P|379:109|365:161,1,110,8|0,0:0|0:0,0:0:0:0:
312,256,80937,5,6,0:0:0:0:
384,348,81234,1,2,0:0:0:0:
276,352,81531,2,0,P|208:344|160:328,1,110,8|0,0:0|0:0,0:0:0:0:
100,244,82125,2,0,P|57:190|34:145,1,110,0|2,3:0|0:0,0:0:0:0:
148,148,82719,1,8,0:0:0:0:
224,68,83016,1,0,0:0:0:0:
332,88,83313,6,0,L|441:75,2,110,4|2|8,0:0|0:0|0:0,0:0:0:0:
264,176,84204,1,2,0:0:0:0:
264,176,84353,1,4,0:0:0:0:
372,196,84650,2,0,P|365:265|356:327,1,110,2|0,0:0|0:0,0:0:0:0:
308,324,85095,2,0,L|241:313,1,55,2|4,0:0|0:3,0:0:0:0:
143,315,85541,6,0,P|168:236|160:154,1,165,4|8,0:0|0:0,0:0:0:0:
80,84,86284,2,0,P|124:53|179:47,1,110,2|8,0:0|0:0,0:0:0:0:
228,72,86729,2,0,L|400:72,1,165,4|0,0:0|0:0,0:0:0:0:
180,324,88066,6,0,L|300:312,1,110,4|0,0:0|0:0,0:0:0:0:
344,328,88511,1,2,0:0:0:0:
396,344,88660,2,0,L|376:228,1,110,8|2,0:0|0:0,0:0:0:0:
384,180,89105,1,4,0:0:0:0:
