osu file format v14

[General]
AudioFilename: Setsuna.mp3
AudioLeadIn: 1100
PreviewTime: 61927
Countdown: 0
SampleSet: Soft
StackLeniency: 0.7
Mode: 0
LetterboxInBreaks: 0
WidescreenStoryboard: 0

[Editor]
Bookmarks: 16630
DistanceSpacing: 1
BeatDivisor: 4
GridSize: 4
TimelineZoom: 1.7

[Metadata]
Title:Setsuna no Kajitsu
TitleUnicode:刹那の果実
Artist:Maon Kurosaki
ArtistUnicode:黒崎真音
Creator:Aerous
Version:Insane
Source:グリザイアの楽園 - LE EDEN DE LA GRISAIA -
Tags:grisaia no rakuen opening tv size
BeatmapID:758461
BeatmapSetID:342826

[Difficulty]
HPDrainRate:6
CircleSize:4
OverallDifficulty:7
ApproachRate:9
SliderMultiplier:1.75
SliderTickRate:1

[Events]
//Background and Video events
0,0,"setsuna.jpg",0,0
Video,0,"video (2).flv"
//Break Periods
//Storyboard Layer 0 (Background)
//Storyboard Layer 1 (Fail)
//Storyboard Layer 2 (Pass)
//Storyboard Layer 3 (Foreground)
//Storyboard Sound Samples

[TimingPoints]
614,368.098159509202,4,2,1,50,1,0
614,-125,4,2,1,50,0,0
2086,357.142857142857,4,2,1,50,1,0
2086,-125,4,2,1,50,0,0
3514,337.078651685393,4,2,1,50,1,0
3514,-125,4,2,1,50,0,0
4862,314.13612565445,4,2,1,50,1,0
4862,-125,4,2,1,50,0,0
5490,297.029702970297,4,2,1,50,1,0
5490,-125,4,2,1,50,0,0
6086,297.029702970297,4,2,1,50,1,0
6086,-125,4,2,1,50,0,0
9947,-100,4,2,1,50,0,0
10689,-100,4,2,5,60,0,0
15442,-100,4,2,5,60,0,0
61927,-100,4,2,5,70,0,1
80937,-100,4,2,5,60,0,0
88066,-100,4,2,5,60,0,0

[Colours]
Combo1 : 255,201,36
Combo2 : 2,200,242
Combo3 : 52,224,125
Combo4 : 244,72,98

[HitObjects]
140,200,614,6,0,L|236:200,1,70,2|0,0:0|0:0,0:0:0:0:
352,112,982,2,0,L|256:112,1,70,2|0,0:0|0:0,0:0:0:0:
184,40,1350,2,0,L|184:128,1,70,2|0,0:0|0:0,0:0:0:0:
120,212,1718,1,2,0:0:0:0:
252,152,1902,1,0,0:0:0:0:
368,256,2086,6,0,P|372:192|368:160,1,70,2|0,0:0|0:0,0:0:0:0:
240,136,2443,2,0,P|236:200|240:232,1,70,2|0,0:0|0:0,0:0:0:0:
276,336,2800,2,0,P|212:339|180:336,2,70,2|0|2,0:0|0:0|0:0,0:0:0:0:
384,272,3335,1,0,0:0:0:0:
224,220,3514,6,0,L|132:220,1,70,2|0,0:0|0:0,0:0:0:0:
310,136,3851,2,0,L|218:136,1,70,2|0,0:0|0:0,0:0:0:0:
408,52,4188,2,0,L|316:52,1,70,2|0,0:0|0:0,0:0:0:0:
232,20,4525,1,2,0:0:0:0:
152,96,4693,1,0,0:0:0:0:
223,220,4862,6,0,P|292:207|360:221,1,140,2|2,0:0|0:0,0:0:0:0:
440,176,5333,1,0,0:0:0:0:
330,69,5490,6,0,L|304:153,1,70,2|0,0:0|0:0,0:0:0:0:
223,220,5787,2,0,L|192:308,1,70,2|0,0:0|0:0,0:0:0:0:
100,120,6086,6,0,L|180:120,1,70,2|0,0:0|0:0,0:0:0:0:
268,160,6383,2,0,L|348:160,1,70,2|0,0:0|0:0,0:0:0:0:
445,122,6680,2,0,L|437:222,1,70,2|0,0:0|0:0,0:0:0:0:
308,236,6977,2,0,L|316:336,1,70,2|0,0:0|0:0,0:0:0:0:
212,268,7274,6,0,P|176:240|72:260,1,140,2|2,0:0|0:0,0:0:0:0:
140,324,7719,1,0,0:0:0:0:
16,296,7868,2,0,P|8:244|8:208,1,70,2|0,0:0|0:0,0:0:0:0:
80,96,8165,2,0,P|88:148|88:184,1,70,2|0,0:0|0:0,0:0:0:0:
140,324,8462,5,2,0:0:0:0:
140,324,8610,2,0,P|188:348|288:304,1,140,2|0,0:0|0:0,0:0:0:0:
210,194,9056,2,0,L|208:264,1,70,2|0,0:0|0:0,0:0:0:0:
300,116,9353,1,2,0:0:0:0:
152,76,9501,1,4,0:0:0:0:
136,84,9798,5,0,0:0:0:0:
32,40,9947,1,8,0:0:0:0:
36,72,10021,1,8,0:0:0:0:
41,104,10095,1,8,0:0:0:0:
46,137,10169,1,8,0:0:0:0:
51,169,10244,1,8,0:0:0:0:
36,296,10392,2,0,L|132:272,1,87.5,8|0,0:0|0:0,0:0:0:0:
372,304,10689,6,0,P|312:276|200:304,1,175,4|2,0:0|0:0,0:0:0:0:
120,352,11135,1,8,0:0:0:0:
84,252,11284,1,0,0:0:0:0:
176,200,11432,2,0,P|200:128|152:44,1,175,2|8,0:0|0:0,0:0:0:0:
92,132,11878,1,0,0:0:0:0:
188,208,12026,6,0,B|248:212|248:212|368:200,1,175,2|8,0:0|0:0,0:0:0:0:
436,128,12472,1,0,0:0:0:0:
468,228,12620,2,0,P|472:300|468:340,1,87.5,2|2,0:0|0:0,0:0:0:0:
384,372,12917,1,8,0:0:0:0:
284,288,13066,6,0,B|224:292|224:292|104:280,1,175,2|2,0:0|0:0,0:0:0:0:
48,196,13511,2,0,P|116:188|148:188,1,87.5,8|0,0:0|0:0,0:0:0:0:
248,216,13808,1,2,0:0:0:0:
320,124,13957,1,2,0:0:0:0:
220,80,14105,1,8,0:0:0:0:
356,108,14254,6,0,B|364:148|364:148|348:176|348:176|368:204|344:308,1,175,2|2,0:0|0:0,0:0:0:0:
216,352,14699,2,0,P|220:300|240:240,1,87.5,8|0,0:0|0:0,0:0:0:0:
244,244,14922,1,0,0:0:0:0:
264,228,14996,1,2,0:0:0:0:
432,192,15145,1,8,0:0:0:0:
312,48,15442,6,0,P|280:84|320:192,1,175,4|2,0:0|0:0,0:0:0:0:
440,100,15887,2,0,L|352:116,1,87.5,8|0,0:0|0:0,0:0:0:0:
256,124,16185,1,2,0:0:0:0:
184,204,16333,1,2,0:0:0:0:
136,88,16482,1,8,0:0:0:0:
104,232,16630,6,0,P|176:216|308:248,1,175,4|2,0:0|0:0,0:0:0:0:
340,336,17076,1,8,0:0:0:0:
416,292,17224,1,0,0:0:0:0:
492,336,17373,1,2,0:0:0:0:
344,248,17521,5,2,0:0:0:0:
328,160,17670,1,8,0:0:0:0:
392,100,17818,1,0,0:0:0:0:
284,176,17967,6,0,L|96:176,1,175,4|0,0:0|0:0,0:0:0:0:
328,256,18412,2,0,P|368:208|328:96,1,175,8|0,0:3|0:0,0:0:0:0:
109,176,18858,2,0,L|284:176,1,175,2|0,0:0|0:0,0:0:0:0:
452,136,19303,6,0,L|448:240,1,87.5
404,348,19600,1,2,0:0:0:0:
382,344,19675,1,2,0:0:0:0:
360,341,19749,1,4,0:0:0:0:
216,244,19897,1,4,0:0:0:0:
192,232,20343,6,0,P|279:232|388:228,1,175,4|0,0:0|0:0,0:0:0:0:
164,160,20788,2,0,P|116:208|164:304,1,175,2|0,0:0|0:0,0:0:0:0:
328,296,21234,2,0,P|366:222|314:157,1,175,2|0,0:0|0:0,0:0:0:0:
192,48,21680,6,0,L|304:48,1,87.5,2|0,0:0|0:0,0:0:0:0:
402,157,21977,2,0,L|290:157,1,87.5,2|8,0:0|0:0,0:0:0:0:
192,232,22274,1,2,0:0:0:0:
306,358,22422,1,8,0:0:0:0:
317,327,22496,1,0,0:0:0:0:
328,296,22571,1,0,0:0:0:0:
339,265,22645,1,0,0:0:0:0:
350,234,22719,6,0,B|288:268|288:268|184:228,1,175,4|8,0:0|0:0,0:0:0:0:
84,240,23165,1,0,0:0:0:0:
140,108,23313,1,2,0:0:0:0:
240,152,23462,1,2,0:0:0:0:
116,108,23610,1,8,0:0:0:0:
256,24,23759,6,0,P|258:93|256:208,1,175,2|2,0:0|0:0,0:0:0:0:
120,304,24204,2,0,P|117:234|120:120,1,175,8|2,0:0|0:0,0:0:0:0:
252,52,24650,1,2,0:0:0:0:
192,164,24798,1,8,0:0:0:0:
336,164,24947,6,0,L|524:164,1,175,4|2,0:0|0:0,0:0:0:0:
424,8,25392,2,0,L|424:96,1,87.5,8|0,0:0|0:0,0:0:0:0:
456,196,25689,1,2,0:0:0:0:
348,260,25838,1,0,0:0:0:0:
472,316,25986,2,0,L|472:212,1,87.5,8|0,0:0|0:0,0:0:0:0:
332,276,26284,6,0,B|288:300|288:300|156:292,1,175,4|8,0:0|0:0,0:0:0:0:
68,340,26729,1,2,0:0:0:0:
124,228,26878,1,0,0:0:0:0:
36,140,27026,1,2,0:0:0:0:
144,216,27175,2,0,L|244:220,1,87.5,8|0,0:0|0:0,0:0:0:0:
408,312,27472,6,0,P|364:348|248:304,1,175,4|8,0:0|0:0,0:0:0:0:
168,204,27917,1,0,0:0:0:0:
256,124,28066,2,0,L|252:220,1,87.5,2|2,0:0|0:0,0:0:0:0:
164,336,28363,1,8,0:0:0:0:
92,268,28511,1,2,0:0:0:0:
192,356,28660,6,0,L|296:356,1,87.5,4|0,0:0|0:0,0:0:0:0:
388,232,28957,1,2,0:0:0:0:
240,272,29105,2,0,B|196:232|196:232|140:296|56:256,1,175,4|0,0:0|0:0,0:0:0:0:
112,164,29551,2,0,P|111:113|112:64,1,87.5,2|0,0:0|0:0,0:0:0:0:
264,4,29848,6,0,L|264:94|264:184,1,175,4|0,0:0|0:0,0:0:0:0:
460,268,30293,2,0,P|464:212|364:156,1,175,2|0,0:0|0:0,0:0:0:0:
168,96,30739,2,0,P|167:142|168:220,1,87.5,2|0,0:0|0:0,0:0:0:0:
36,260,31036,5,0,0:0:0:0:
96,152,31185,1,2,0:0:0:0:
192,232,31333,2,0,L|304:232,1,87.5,0|0,0:0|0:0,0:0:0:0:
384,164,31630,1,2,0:0:0:0:
344,48,31779,1,2,0:0:0:0:
472,128,31927,1,8,0:0:0:0:
461,169,32001,1,0,0:0:0:0:
451,212,32076,1,0,0:0:0:0:
336,308,32224,6,0,L|144:308,1,175,4|8,0:0|0:0,0:0:0:0:
60,276,32670,1,0,0:0:0:0:
183,145,32818,2,0,P|189:187|191:237,1,87.5,2|2,0:0|0:0,0:0:0:0:
44,272,33115,1,8,0:0:0:0:
104,128,33264,6,0,P|144:76|248:104,1,175,2|2,0:0|0:0,0:0:0:0:
348,168,33709,2,0,P|313:192|272:216,1,87.5,8|0,0:0|0:0,0:0:0:0:
416,72,34006,1,2,0:0:0:0:
476,188,34155,1,2,0:0:0:0:
360,240,34303,2,0,L|313:240|260:240,1,87.5,8|0,0:0|0:0,0:0:0:0:
120,348,34600,6,0,P|180:324|312:372,1,175,4|8,0:0|0:0,0:0:0:0:
364,276,35046,1,0,0:0:0:0:
424,368,35194,1,2,0:0:0:0:
488,260,35343,1,2,0:0:0:0:
352,256,35491,2,0,P|305:252|248:256,1,87.5,8|0,0:0|0:0,0:0:0:0:
24,160,35788,6,0,B|60:184|60:184|84:164|84:164|128:196|192:176,1,175,4|8,0:0|0:0,0:0:0:0:
252,100,36234,1,2,0:0:0:0:
236,240,36383,1,0,0:0:0:0:
344,156,36531,1,2,0:0:0:0:
240,268,36680,2,0,L|144:268,1,87.5,8|0,0:0|0:0,0:0:0:0:
256,352,36977,6,0,P|308:320|288:196,1,175,4|8,0:0|0:0,0:0:0:0:
252,128,37422,1,0,0:0:0:0:
400,132,37571,1,2,0:0:0:0:
336,28,37719,1,2,0:0:0:0:
420,160,37868,2,0,P|421:203|420:252,1,87.5,8|0,0:0|0:0,0:0:0:0:
256,352,38165,5,2,0:0:0:0:
332,208,38313,1,8,0:0:0:0:
348,200,38610,2,0,L|132:200,1,175,4|2,0:0|0:0,0:0:0:0:
64,160,39056,2,0,P|64:212|68:252,1,87.5,8|0,0:0|0:0,0:0:0:0:
204,104,39353,6,0,L|392:104,1,175,4|8,0:0|0:0,0:0:0:0:
472,56,39798,1,0,0:0:0:0:
428,196,39947,1,2,0:0:0:0:
344,120,40095,1,2,0:0:0:0:
464,76,40244,1,8,0:0:0:0:
380,264,40392,6,0,P|448:272|508:184,1,175,2|2,0:0|0:0,0:0:0:0:
378,123,40838,2,0,L|438:211,1,87.5,8|0,0:0|0:0,0:0:0:0:
468,320,41135,1,2,0:0:0:0:
468,320,41284,1,2,0:0:0:0:
348,276,41432,2,0,L|248:276,1,87.5,8|0,0:0|0:0,0:0:0:0:
100,340,41729,6,0,P|128:292|100:152,1,175,2|8,0:0|0:0,0:0:0:0:
52,96,42175,1,0,0:0:0:0:
184,48,42323,1,2,0:0:0:0:
60,72,42472,1,2,0:0:0:0:
152,156,42620,1,8,0:0:0:0:
244,284,42769,6,0,P|247:193|244:88,1,175,2|2,0:0|0:0,0:0:0:0:
66,143,43214,2,0,P|162:155|186:151,1,87.5,8|0,0:0|0:0,0:0:0:0:
280,188,43511,1,2,0:0:0:0:
356,280,43660,1,2,0:0:0:0:
416,112,43808,2,0,P|320:100|296:104,1,87.5,8|0,0:0|0:0,0:0:0:0:
176,24,44105,5,2,0:0:0:0:
160,32,44402,2,0,P|157:102|160:136,1,87.5,4|0,0:0|0:0,0:0:0:0:
180,224,44699,1,0,0:0:0:0:
304,172,44848,1,0,0:0:0:0:
232,84,44996,1,8,0:0:0:0:
344,260,45145,6,0,L|348:68,1,175,4|0,0:0|0:0,0:0:0:0:
504,152,45590,2,0,P|448:160|408:160,1,87.5,8|0,0:0|0:0,0:0:0:0:
288,192,45887,1,2,0:0:0:0:
288,192,46036,1,2,0:0:0:0:
200,72,46185,2,0,P|192:132|200:180,1,87.5,8|0,0:0|0:0,0:0:0:0:
344,260,46482,6,0,P|368:200|300:104,1,175,4|8,0:0|0:0,0:0:0:0:
184,72,46927,1,0,0:0:0:0:
264,204,47076,1,2,0:0:0:0:
264,204,47224,1,2,0:0:0:0:
152,300,47373,2,0,P|144:257|146:213,1,87.5,8|2,0:0|0:0,0:0:0:0:
296,144,47670,5,0,0:0:0:0:
216,252,47818,1,2,0:0:0:0:
324,136,47967,2,0,L|324:28,1,87.5,8|0,0:0|0:0,0:0:0:0:
156,12,48264,1,2,0:0:0:0:
248,92,48412,1,2,0:0:0:0:
132,140,48561,2,0,L|132:236,1,87.5,8|0,0:0|0:0,0:0:0:0:
176,348,48858,5,2,0:0:0:0:
152,356,49155,2,0,P|200:328|324:376,1,175,4|0,0:0|0:0,0:0:0:0:
384,284,49600,1,2,0:0:0:0:
300,192,49749,1,8,0:0:0:0:
464,204,49897,6,0,L|392:368,1,175,2|2,0:0|0:0,0:0:0:0:
320,272,50343,2,0,L|380:168,1,87.5,8|0,0:0|0:0,0:0:0:0:
444,120,50640,1,2,0:0:0:0:
376,16,50788,1,2,0:0:0:0:
276,108,50937,1,8,0:0:0:0:
296,96,51234,6,0,L|192:96,1,87.5,2|0,0:0|0:0,0:0:0:0:
88,224,51531,1,4,0:0:0:0:
104,300,51828,2,0,L|100:192,1,87.5,0|2,0:0|0:0,0:0:0:0:
28,120,52125,1,8,0:0:0:0:
192,256,52274,6,0,P|256:272|340:184,1,175,2|0,0:0|0:0,0:0:0:0:
204,104,52719,2,0,P|231:146|252:192,1,87.5,8|0,0:0|0:0,0:0:0:0:
220,352,53016,2,0,P|192:309|172:264,1,87.5,2|2,0:0|0:0,0:0:0:0:
164,184,53313,1,8,0:0:0:0:
164,184,53462,1,0,0:0:0:0:
60,64,53610,6,0,L|272:64,1,175,4|2,0:0|0:0,0:0:0:0:
468,220,54056,2,0,L|256:220,1,175,0|0,0:0|0:0,0:0:0:0:
164,184,54501,1,2,0:0:0:0:
293,45,54650,6,0,L|293:221,1,175,0|2,0:0|0:0,0:0:0:0:
164,359,55095,2,0,L|164:183,1,175,2|8,0:0|0:0,0:0:0:0:
76,100,55541,1,0,0:0:0:0:
8,240,55689,2,0,P|77:240|112:236,1,87.5,0|0,0:0|0:0,0:0:0:0:
260,176,55986,5,4,0:0:0:0:
316,268,56135,1,0,0:0:0:0:
424,176,56284,1,8,0:0:0:0:
336,284,56432,1,2,0:0:0:0:
228,196,56581,2,0,L|128:196,1,87.5,0|0,0:0|0:0,0:0:0:0:
40,308,56878,2,0,L|140:308,1,87.5,8|0,0:0|0:0,0:0:0:0:
356,296,57175,5,4,0:0:0:0:
332,136,57323,1,0,0:0:0:0:
232,216,57472,1,8,0:0:0:0:
272,64,57620,1,2,0:0:0:0:
364,160,57769,2,0,L|464:160,1,87.5,0|2,0:0|0:0,0:0:0:0:
256,48,58066,2,0,L|156:48,1,87.5,8|0,0:0|0:0,0:0:0:0:
32,176,58363,5,4,0:0:0:0:
204,120,58511,1,0,0:0:0:0:
124,252,58660,1,8,0:0:0:0:
176,112,58808,1,0,0:0:0:0:
260,216,58957,2,0,L|372:216,1,87.5,2|2,0:0|0:0,0:0:0:0:
420,112,59254,1,8,0:0:0:0:
256,192,59402,12,0,60590,0:0:0:0:
160,72,60887,5,2,0:0:0:0:
116,196,61036,2,0,P|184:194|228:192,1,87.5,2|8,0:0|0:0,0:0:0:0:
324,104,61333,1,0,0:0:0:0:
404,264,61482,1,2,0:0:0:0:
360,265,61556,1,0,0:0:0:0:
316,268,61630,2,0,L|272:269|228:270,1,87.5,8|2,0:0|0:0,0:0:0:0:
88,172,61927,6,0,P|191:168|300:168,1,175,4|8,0:0|0:0,0:0:0:0:
360,224,62373,2,0,P|372:168|368:128,1,87.5,0|0,0:0|0:0,0:0:0:0:
320,44,62670,1,2,0:0:0:0:
224,120,62818,1,8,0:0:0:0:
88,36,62967,1,0,0:0:0:0:
240,148,63115,6,0,L|136:172,1,87.5,6|0,0:0|0:0,0:0:0:0:
36,316,63412,2,0,L|140:292,1,87.5,8|2,0:0|0:0,0:0:0:0:
320,352,63709,2,0,L|216:376,1,87.5,0|2,0:0|0:0,0:0:0:0:
128,256,64006,1,8,0:0:0:0:
244,288,64155,1,0,0:0:0:0:
304,160,64303,6,0,P|248:184|128:128,1,175,4|8,0:0|0:0,0:0:0:0:
232,64,64749,1,0,0:0:0:0:
324,156,64897,1,2,0:0:0:0:
424,88,65046,1,2,0:0:0:0:
424,88,65194,2,0,P|472:87|524:88,1,87.5,8|0,0:0|0:0,0:0:0:0:
380,224,65491,6,0,P|384:280|368:348,1,87.5,2|0,0:0|0:0,0:0:0:0:
288,360,65788,1,8,0:0:0:0:
228,236,65937,2,0,L|40:240,1,175,2|2,0:0|0:0,0:0:0:0:
0,108,66383,1,8,0:0:0:0:
21,108,66457,1,0,0:0:0:0:
43,108,66531,1,0,0:0:0:0:
65,108,66605,1,0,0:0:0:0:
88,108,66680,6,0,P|84:52|100:-16,1,87.5,4|0,0:0|0:0,0:0:0:0:
228,72,66977,2,0,P|232:128|216:196,1,87.5,8|0,0:0|0:0,0:0:0:0:
96,272,67274,2,0,L|208:272,1,87.5,2|0,0:0|0:0,0:0:0:0:
292,348,67571,1,8,0:0:0:0:
328,208,67719,6,0,B|344:148|344:148|328:120|328:120|344:88|328:8,1,175,4|2,0:0|0:0,0:0:0:0:
160,72,68165,2,0,L|268:68,1,87.5,8|0,0:0|0:0,0:0:0:0:
80,160,68462,2,0,L|188:156,1,87.5,2|2,0:0|0:0,0:0:0:0:
292,200,68759,1,8,0:0:0:0:
200,292,68907,1,0,0:0:0:0:
328,160,69056,6,0,L|320:364,1,175,4|8,0:0|0:0,0:0:0:0:
216,300,69501,1,0,0:0:0:0:
92,224,69650,2,0,L|100:336,1,87.5,2|2,0:0|0:0,0:0:0:0:
232,308,69947,1,8,0:0:0:0:
400,284,70095,6,0,L|406:109,1,175,4|2,0:0|0:0,0:0:0:0:
304,24,70541,1,8,0:0:0:0:
332,172,70689,1,0,0:0:0:0:
224,104,70838,1,2,0:0:0:0:
160,228,70986,1,0,0:0:0:0:
160,228,71061,1,0,0:0:0:0:
160,228,71135,1,8,0:0:0:0:
160,228,71209,1,0,0:0:0:0:
160,228,71284,1,2,0:0:0:0:
160,228,71358,1,2,0:0:0:0:
160,228,71432,6,0,L|268:228,1,87.5,4|0,0:0|0:0,0:0:0:0:
348,160,71729,1,8,0:0:0:0:
428,308,71878,2,0,L|316:308,1,87.5,2|0,0:0|0:0,0:0:0:0:
240,348,72175,1,2,0:0:0:0:
320,232,72323,2,0,L|312:132,1,87.5,8|0,0:0|0:0,0:0:0:0:
136,136,72620,6,0,L|156:336,1,175,4|8,0:0|0:0,0:0:0:0:
272,360,73066,2,0,L|260:248,1,87.5,2|0,0:0|0:0,0:0:0:0:
360,140,73363,1,2,0:0:0:0:
344,300,73511,1,8,0:0:0:0:
440,224,73660,1,0,0:0:0:0:
292,204,73808,6,0,P|212:224|104:192,1,175,4|8,0:0|0:0,0:0:0:0:
72,112,74254,1,2,0:0:0:0:
208,60,74402,2,0,L|208:147,1,87.5,2|0,0:0|0:0,0:0:0:0:
160,304,74699,1,8,0:0:0:0:
192,303,74774,1,0,0:0:0:0:
225,302,74848,1,0,0:0:0:0:
258,301,74922,1,0,0:0:0:0:
291,300,74996,6,0,P|316:224|276:112,1,175,4|0,0:0|0:0,0:0:0:0:
68,212,75442,2,0,L|260:212,1,175,4|0,0:0|0:0,0:0:0:0:
388,120,75887,2,0,B|416:188|416:188|392:304,1,175,4|4,0:0|0:0,0:0:0:0:
280,340,76333,5,4,0:0:0:0:
192,228,76482,1,0,0:0:0:0:
144,348,76630,1,8,0:3:0:0:
144,348,76704,1,8,0:3:0:0:
144,348,76779,1,8,0:3:0:0:
280,228,76927,2,0,P|284:176|280:120,1,87.5,4|0,0:0|0:0,0:0:0:0:
116,32,77224,6,0,L|324:32,1,175,4|2,0:0|0:0,0:0:0:0:
400,120,77670,2,0,P|403:163|402:207,1,87.5,8|0,0:0|0:0,0:0:0:0:
280,320,77967,1,2,0:0:0:0:
312,168,78115,1,4,0:0:0:0:
328,160,78412,6,0,P|284:188|156:164,1,175,4|0,0:0|0:0,0:0:0:0:
248,36,78858,2,0,P|248:104|244:144,1,87.5,0|0,3:0|0:0,0:0:0:0:
80,232,79155,2,0,P|80:164|84:124,1,87.5,0|0,3:0|0:0,0:0:0:0:
172,88,79452,1,0,0:0:0:0:
220,216,79600,6,0,L|419:215,1,175,4|2,0:0|0:0,0:0:0:0:
412,204,79972,1,2,0:0:0:0:
432,192,80046,1,2,0:0:0:0:
488,312,80194,1,2,0:0:0:0:
460,176,80343,2,0,L|460:88,1,87.5,8|0,0:0|0:0,0:0:0:0:
320,20,80640,2,0,L|320:116,1,87.5,0|0,0:0|0:0,0:0:0:0:
272,292,80937,6,0,P|194:295|130:225,1,175,6|2,0:0|0:0,0:0:0:0:
136,124,81383,1,0,0:0:0:0:
220,216,81531,2,0,L|284:216|408:216,1,175,8|0,0:0|0:0,0:0:0:0:
504,88,81977,6,0,L|440:88|316:88,1,175,0|2,0:0|0:0,0:0:0:0:
240,56,82422,2,0,P|247:97|260:144,1,87.5,2|0,0:0|0:0,0:0:0:0:
336,280,82719,1,8,0:0:0:0:
408,168,82868,1,0,0:0:0:0:
312,292,83016,2,0,L|208:292,1,87.5,0|0,0:0|0:0,0:0:0:0:
112,336,83313,5,4,0:0:0:0:
180,200,83462,2,0,P|188:144|96:96,1,175,0|0,0:0|0:0,0:0:0:0:
56,224,83907,2,0,P|99:187|128:148,1,87.5,8|0,0:0|0:0,0:0:0:0:
232,52,84204,1,2,0:0:0:0:
352,140,84353,1,4,0:0:0:0:
380,124,84650,5,2,0:0:0:0:
316,232,84798,1,8,0:0:0:0:
456,248,84947,1,0,0:0:0:0:
456,248,85021,1,0,0:0:0:0:
456,248,85095,1,2,0:0:0:0:
296,320,85244,2,0,P|292:263|292:220,1,87.5,4|0,0:3|0:0,0:0:0:0:
404,112,85541,6,0,P|344:136|232:96,1,175,4|2,0:0|0:0,0:0:0:0:
136,24,85986,2,0,L|130:66|120:120,1,87.5,8|0,0:0|0:0,0:0:0:0:
64,196,86284,1,2,0:0:0:0:
184,168,86432,1,0,0:0:0:0:
136,288,86581,1,8,0:0:0:0:
212,148,86729,5,4,0:0:0:0:
207,298,88066,5,4,0:0:0:0:
324,252,88214,1,8,0:0:0:0:
149,198,88363,2,0,P|153:248|161:299,1,87.5,0|0,0:0|0:0,0:0:0:0:
357,251,88660,5,8,0:0:0:0:
276,128,88808,1,0,0:0:0:0:
392,248,88957,1,2,0:0:0:0:
396,32,89105,1,4,0:0:0:0:
