osu file format v14

[General]
AudioFilename: Setsuna.mp3
AudioLeadIn: 1100
PreviewTime: 61927
Countdown: 0
SampleSet: Soft
StackLeniency: 0.7
Mode: 0
LetterboxInBreaks: 0
WidescreenStoryboard: 0

[Editor]
Bookmarks: 16630
DistanceSpacing: 1.3
BeatDivisor: 4
GridSize: 4
TimelineZoom: 1.7

[Metadata]
Title:Setsuna no Kajitsu
TitleUnicode:刹那の果実
Artist:Maon Kurosaki
ArtistUnicode:黒崎真音
Creator:Aerous
Version:Hard
Source:グリザイアの楽園 - LE EDEN DE LA GRISAIA -
Tags:grisaia no rakuen opening tv size
BeatmapID:758460
BeatmapSetID:342826

[Difficulty]
HPDrainRate:6
CircleSize:3.5
OverallDifficulty:6
ApproachRate:8
SliderMultiplier:1.45
SliderTickRate:1

[Events]
//Background and Video events
0,0,"setsuna.jpg",0,0
Video,0,"video (2).flv"
//Break Periods
//Storyboard Layer 0 (Background)
//Storyboard Layer 1 (Fail)
//Storyboard Layer 2 (Pass)
//Storyboard Layer 3 (Foreground)
//Storyboard Sound Samples

[TimingPoints]
614,368.098159509202,4,2,1,50,1,0
614,-125,4,2,1,50,0,0
2086,357.142857142857,4,2,1,50,1,0
2086,-125,4,2,1,50,0,0
3514,337.078651685393,4,2,1,50,1,0
3514,-125,4,2,1,50,0,0
4862,314.13612565445,4,2,1,50,1,0
4862,-125,4,2,1,50,0,0
5490,297.029702970297,4,2,1,50,1,0
6086,297.029702970297,4,2,1,50,1,0
6086,-125,4,2,1,50,0,0
9947,-100,4,2,1,50,0,0
10689,-100,4,2,5,60,0,0
15442,-100,4,2,5,60,0,0
61927,-100,4,2,5,70,0,1
80937,-100,4,2,5,60,0,0
88066,-100,4,2,5,60,0,0

[Colours]
Combo1 : 255,201,36
Combo2 : 2,200,242
Combo3 : 52,224,125
Combo4 : 244,72,98

[HitObjects]
476,136,614,6,0,P|432:144|344:132,1,116,2|2,0:0|0:0,0:0:0:0:
300,88,1166,1,0,0:0:0:0:
236,140,1350,2,0,P|192:148|104:136,1,116,2|2,0:0|0:0,0:0:0:0:
56,100,1902,1,0,0:0:0:0:
28,192,2086,6,0,B|16:248|16:248|44:308,1,116,2|2,0:0|0:0,0:0:0:0:
112,360,2621,1,0,0:0:0:0:
168,284,2800,2,0,L|296:284,1,116,2|2,0:0|0:0,0:0:0:0:
364,240,3335,1,0,0:0:0:0:
456,200,3514,6,0,L|472:280,2,58,2|0|2,0:0|0:0|0:0,0:0:0:0:
392,132,4019,1,0,0:0:0:0:
300,156,4188,2,0,P|246:166|180:156,1,116,2|2,0:0|0:0,0:0:0:0:
108,116,4693,1,0,0:0:0:0:
184,48,4862,6,0,P|238:38|304:48,1,116,2|2,0:0|0:0,0:0:0:0:
384,52,5333,1,0,0:0:0:0:
452,112,5490,6,0,L|464:184,1,72.5,2|0,0:0|0:0,0:0:0:0:
368,256,5787,2,0,L|372:184,1,72.5,2|0,0:0|0:0,0:0:0:0:
300,140,6086,6,0,P|224:144|168:136,1,116,2|0,0:0|0:0,0:0:0:0:
104,132,6531,1,0,0:0:0:0:
104,132,6680,2,0,P|108:186|108:260,1,116,2|2,0:0|0:0,0:0:0:0:
68,332,7125,1,0,0:0:0:0:
160,332,7274,6,0,B|220:320|220:320|296:328,1,116,2|2,0:0|0:0,0:0:0:0:
368,332,7719,1,0,0:0:0:0:
396,244,7868,2,0,L|424:112,1,116,2|2,0:0|0:0,0:0:0:0:
240,108,8462,5,2,0:0:0:0:
296,208,8610,2,0,P|227:221|168:196,1,116,2|0,0:0|0:0,0:0:0:0:
184,124,9056,2,0,P|239:109|295:123,1,116,2|0,0:0|0:0,0:0:0:0:
380,172,9501,1,4,0:0:0:0:
320,336,9798,5,0,0:0:0:0:
305,242,9947,2,0,L|295:207,4,36.25,8|8|8|8|8,0:0|0:0|0:0|0:0|0:0,0:0:0:0:
188,248,10392,2,0,L|115:248,1,72.5,8|0,0:0|0:0,0:0:0:0:
44,308,10689,6,0,P|24:240|80:164,1,145,4|2,0:0|0:0,0:0:0:0:
144,132,11135,2,0,L|243:135,1,72.5,8|0,0:0|0:0,0:0:0:0:
304,96,11432,2,0,L|304:248,1,145,2|8,0:0|0:0,0:0:0:0:
368,312,11878,1,0,0:0:0:0:
368,312,12026,6,0,L|456:316,1,72.5,2|0,0:0|0:0,0:0:0:0:
404,228,12323,2,0,L|492:232,1,72.5,8|0,0:0|0:0,0:0:0:0:
452,140,12620,1,2,0:0:0:0:
360,152,12769,2,0,P|363:115|368:80,1,72.5,2|8,0:0|0:0,0:0:0:0:
276,100,13066,6,0,P|204:86|136:63,1,145,2|2,0:0|0:0,0:0:0:0:
52,24,13511,2,0,L|47:107,1,72.5,8|0,0:0|0:0,0:0:0:0:
24,188,13808,1,2,0:0:0:0:
72,268,13957,2,0,L|67:351,1,72.5,2|8,0:0|0:0,0:0:0:0:
156,308,14254,6,0,B|218:277|218:277|300:224,1,145,2|2,0:0|0:0,0:0:0:0:
328,152,14699,2,0,L|265:115,1,72.5,8|0,0:0|0:0,0:0:0:0:
200,184,14996,2,0,L|137:147,1,72.5,2|8,0:0|0:0,0:0:0:0:
6,44,15442,6,0,L|27:219,1,145,4|2,0:0|0:0,0:0:0:0:
8,280,15887,2,0,L|104:280,1,72.5,8|0,0:0|0:0,0:0:0:0:
152,344,16185,2,0,L|248:344,1,72.5,2|2,0:0|0:0,0:0:0:0:
316,324,16482,1,8,0:0:0:0:
404,292,16630,6,0,P|399:220|396:140,1,145,4|2,0:0|0:0,0:0:0:0:
380,52,17076,1,8,0:0:0:0:
296,92,17224,1,0,0:0:0:0:
212,52,17373,2,0,L|108:52,1,72.5,2|2,0:0|0:0,0:0:0:0:
96,136,17670,2,0,L|-8:136,1,72.5,8|0,0:0|0:0,0:0:0:0:
60,224,17967,6,0,P|68:296|124:336,1,145,4|0,0:0|0:0,0:0:0:0:
148,244,18412,2,0,L|304:244,1,145,8|0,0:3|0:0,0:0:0:0:
320,336,18858,2,0,P|376:294|383:224,1,145,2|0,0:0|0:0,0:0:0:0:
293,244,19303,6,0,L|281:99,1,145,0|2,0:0|0:0,0:0:0:0:
232,20,19749,1,4,0:0:0:0:
124,64,19897,1,4,0:0:0:0:
164,280,20343,6,0,P|234:285|292:243,1,145,4|0,0:0|0:0,0:0:0:0:
356,176,20788,2,0,L|456:316,1,145,2|0,0:0|0:0,0:0:0:0:
512,232,21234,2,0,L|427:114,1,145,2|0,0:0|0:0,0:0:0:0:
364,44,21680,5,2,0:0:0:0:
280,88,21828,2,0,L|180:88,1,72.5,0|2,0:0|0:0,0:0:0:0:
112,76,22125,2,0,L|138:146,1,72.5,8|2,0:0|0:0,0:0:0:0:
227,167,22422,2,0,L|212:237,1,72.5,8|0,0:0|0:0,0:0:0:0:
204,332,22719,6,0,P|268:312|304:236,1,145,4|8,0:0|0:0,0:0:0:0:
316,160,23165,1,0,0:0:0:0:
412,144,23313,2,0,P|406:191|398:222,1,72.5,2|2,0:0|0:0,0:0:0:0:
444,304,23610,1,8,0:0:0:0:
347,313,23759,6,0,P|269:318|199:333,1,145,2|2,0:0|0:0,0:0:0:0:
108,360,24204,2,0,L|120:288,1,72.5,8|0,0:0|0:0,0:0:0:0:
100,196,24501,1,2,0:0:0:0:
184,240,24650,1,2,0:0:0:0:
272,208,24798,1,8,0:0:0:0:
319,117,24947,6,0,P|250:104|192:144,1,145,4|2,0:0|0:0,0:0:0:0:
184,240,25392,2,0,L|336:228,1,145,8|2,0:0|0:0,0:0:0:0:
424,212,25838,1,0,0:0:0:0:
416,304,25986,2,0,L|332:312,1,72.5,8|0,0:0|0:0,0:0:0:0:
256,348,26284,6,0,B|164:328|164:328|114:338,1,145,4|8,0:0|0:0,0:0:0:0:
24,368,26729,2,0,P|40:276|92:248,1,145,2|2,0:0|0:0,0:0:0:0:
148,188,27175,2,0,P|168:224|172:260,1,72.5,8|0,0:0|0:0,0:0:0:0:
124,336,27472,6,0,L|284:336,1,145,4|8,0:0|0:0,0:0:0:0:
352,292,27917,1,0,0:0:0:0:
444,312,28066,2,0,P|441:275|434:240,1,72.5,2|2,0:0|0:0,0:0:0:0:
360,180,28363,2,0,P|362:143|369:108,1,72.5,8|2,0:0|0:0,0:0:0:0:
448,56,28660,6,0,P|380:24|300:40,1,145,4|2,0:0|0:0,0:0:0:0:
248,104,29105,2,0,P|175:106|103:102,1,145,4|0,0:0|0:0,0:0:0:0:
12,88,29551,2,0,L|30:174,1,72.5,2|0,0:0|0:0,0:0:0:0:
8,264,29848,6,0,B|32:256|32:256|64:264|64:264|108:244|168:268,1,145,4|0,0:0|0:0,0:0:0:0:
216,328,30293,2,0,B|259:334|297:303|297:303|330:302|330:302|351:288,1,145,2|0,0:0|0:0,0:0:0:0:
412,216,30739,1,2,0:0:0:0:
500,184,30887,6,0,P|503:229|493:264,1,72.5,0|0,0:0|0:0,0:0:0:0:
412,216,31185,2,0,P|352:192|268:232,1,145,2|0,0:0|0:0,0:0:0:0:
188,192,31630,2,0,P|151:191|115:185,1,72.5,2|2,0:0|0:0,0:0:0:0:
40,132,31927,2,0,P|31:167|26:203,1,72.5,8|0,0:0|0:0,0:0:0:0:
8,292,32224,6,0,P|68:280|168:300,1,145,4|8,0:0|0:0,0:0:0:0:
240,320,32670,1,0,0:0:0:0:
332,292,32818,2,0,P|392:280|492:300,1,145,2|8,0:0|0:0,0:0:0:0:
484,200,33264,6,0,P|480:128|412:80,1,145,2|2,0:0|0:0,0:0:0:0:
396,172,33709,2,0,P|353:165|310:147,1,72.5,8|0,0:0|0:0,0:0:0:0:
235,173,34006,2,0,P|250:104|308:64,1,145,2|8,0:0|0:0,0:0:0:0:
400,184,34600,6,0,L|336:336,1,145,4|8,0:0|0:0,0:0:0:0:
252,360,35046,1,0,0:0:0:0:
172,308,35194,2,0,L|94:299,1,72.5,2|2,0:0|0:0,0:0:0:0:
48,220,35491,2,0,L|126:211,1,72.5,8|0,0:0|0:0,0:0:0:0:
216,220,35788,6,0,L|357:187,1,145,4|8,0:0|0:0,0:0:0:0:
420,116,36234,2,0,P|448:168|420:256,1,145,2|2,0:0|0:0,0:0:0:0:
376,328,36680,2,0,L|305:345,1,72.5,8|0,0:0|0:0,0:0:0:0:
216,372,36977,6,0,B|208:340|208:340|212:316|212:316|216:268|196:200,1,145,4|8,0:0|0:0,0:0:0:0:
120,188,37422,2,0,P|152:156|200:140,1,72.5,0|2,0:0|0:0,0:0:0:0:
240,72,37719,1,2,0:0:0:0:
328,104,37868,2,0,P|373:104|418:126,1,72.5,8|0,0:0|0:0,0:0:0:0:
348,192,38165,5,2,0:0:0:0:
396,272,38313,2,0,L|308:288,1,72.5,8|0,0:0|0:0,0:0:0:0:
252,360,38610,2,0,L|238:202,1,145,4|2,0:0|0:0,0:0:0:0:
264,124,39056,2,0,L|172:132,1,72.5,8|0,0:0|0:0,0:0:0:0:
108,176,39353,6,0,P|96:128|156:52,1,145,4|8,0:0|0:0,0:0:0:0:
240,36,39798,1,0,0:0:0:0:
328,72,39947,2,0,L|424:68,1,72.5,2|2,0:0|0:0,0:0:0:0:
464,144,40244,1,8,0:0:0:0:
464,244,40392,6,0,P|400:228|302:252,1,145,2|2,0:0|0:0,0:0:0:0:
244,292,40838,2,0,L|241:203,1,72.5,8|0,0:0|0:0,0:0:0:0:
236,124,41135,2,0,L|396:116,1,145,2|8,0:0|0:0,0:0:0:0:
460,64,41581,1,0,0:0:0:0:
372,32,41729,6,0,L|280:36,1,72.5,2|0,0:0|0:0,0:0:0:0:
204,40,42026,2,0,L|112:44,1,72.5,8|0,0:0|0:0,0:0:0:0:
40,76,42323,2,0,P|8:128|36:224,1,145,2|8,0:0|0:0,0:0:0:0:
100,152,42769,6,0,B|160:176|160:176|256:168,1,145,2|2,0:0|0:0,0:0:0:0:
316,116,43214,2,0,L|326:193,1,72.5,8|0,0:0|0:0,0:0:0:0:
348,280,43511,2,0,L|255:260,1,72.5,2|2,0:0|0:0,0:0:0:0:
188,292,43808,2,0,B|128:316|128:316|32:308,1,145,8|2,0:0|0:0,0:0:0:0:
36,120,44402,6,0,L|108:120,1,72.5,4|0,0:0|0:0,0:0:0:0:
188,68,44699,2,0,P|200:108|156:200,1,145,0|8,0:0|0:0,0:0:0:0:
124,288,45145,6,0,L|296:285,1,145,4|0,0:0|0:0,0:0:0:0:
364,296,45590,2,0,L|356:219,1,72.5,8|0,0:0|0:0,0:0:0:0:
436,176,45887,2,0,L|428:103,2,72.5,2|2|8,0:0|0:0|0:0,0:0:0:0:
456,364,46482,6,0,P|388:344|300:364,1,145,4|8,0:0|0:0,0:0:0:0:
224,368,46927,2,0,P|232:300|216:204,1,145,0|2,0:0|0:0,0:0:0:0:
148,164,47373,2,0,P|177:143|211:129,1,72.5,8|2,0:0|0:0,0:0:0:0:
301,159,47670,6,0,P|302:123|296:88,1,72.5,0|2,0:0|0:0,0:0:0:0:
216,57,47967,2,0,P|209:92|211:129,1,72.5,8|0,0:0|0:0,0:0:0:0:
240,220,48264,2,0,P|312:244|376:196,1,145,2|8,0:0|0:0,0:0:0:0:
444,156,48709,2,0,L|453:227,1,72.5,0|2,0:0|0:0,0:0:0:0:
320,360,49155,6,0,P|288:340|168:368,1,145,4|0,0:0|0:0,0:0:0:0:
96,372,49600,2,0,P|100:336|108:300,1,72.5,2|8,0:0|0:0,0:0:0:0:
192,260,49897,6,0,B|212:188|212:188|196:92,1,145,2|2,0:0|0:0,0:0:0:0:
172,28,50343,2,0,P|222:35|254:43,1,72.5,8|0,0:0|0:0,0:0:0:0:
308,108,50640,2,0,P|358:101|390:93,1,72.5,2|2,0:0|0:0,0:0:0:0:
460,48,50937,1,8,0:0:0:0:
488,236,51234,6,0,B|436:228|436:228|396:240,1,72.5,2|0,0:0|0:0,0:0:0:0:
360,308,51531,2,0,B|308:316|308:316|288:310,1,72.5,4|0,0:0|0:0,0:0:0:0:
224,256,51828,2,0,P|208:303|208:340,2,72.5,0|2|8,0:0|0:0|0:0,0:0:0:0:
344,212,52274,6,0,B|368:180|368:180|356:156|356:156|372:112|360:52,1,145,2|0,0:0|0:0,0:0:0:0:
276,108,52719,2,0,P|239:110|204:115,1,72.5,8|0,0:0|0:0,0:0:0:0:
144,184,53016,2,0,P|116:124|152:44,1,145,2|8,0:0|0:0,0:0:0:0:
232,32,53462,1,0,0:0:0:0:
328,44,53610,6,0,P|353:109|325:174,1,145,4|2,0:0|0:0,0:0:0:0:
268,248,54056,1,0,0:0:0:0:
268,248,54204,2,0,P|216:232|104:260,1,145,8|2,0:0|0:0,0:0:0:0:
130,340,54650,6,0,P|200:355|270:337,1,145,0|2,0:0|0:0,0:0:0:0:
364,324,55095,2,0,L|361:243,1,72.5,2|0,0:0|0:0,0:0:0:0:
400,164,55392,1,8,0:0:0:0:
400,164,55541,2,0,P|336:176|248:144,1,145,0|0,0:0|0:0,0:0:0:0:
176,80,55986,6,0,B|164:152|164:152|164:224,1,145,4|8,0:0|0:0,0:0:0:0:
84,312,56432,2,0,B|156:328|156:328|253:323,1,145,2|0,0:0|0:0,0:0:0:0:
292,255,56878,2,0,P|322:236|355:221,1,72.5,8|0,0:0|0:0,0:0:0:0:
448,272,57175,6,0,P|460:224|396:128,1,145,4|8,0:0|0:0,0:0:0:0:
340,88,57620,2,0,P|284:101|191:105,1,145,2|2,0:0|0:0,0:0:0:0:
104,120,58066,2,0,L|156:200,1,72.5,8|0,0:0|0:0,0:0:0:0:
72,240,58363,6,0,P|116:224|212:260,1,145,4|8,0:0|0:0,0:0:0:0:
284,304,58808,2,0,L|429:297,1,145,0|2,0:0|0:0,0:0:0:0:
472,212,59254,1,8,0:0:0:0:
432,128,59402,6,0,L|287:135,1,145,8|0,0:0|0:0,0:0:0:0:
316,220,59848,2,0,P|241:216|203:134,1,145,2|0,0:0|0:0,0:0:0:0:
208,72,60293,2,0,L|121:106,1,72.5,0|2,0:0|0:0,0:0:0:0:
80,168,60590,5,0,0:0:0:0:
48,312,60887,1,2,0:0:0:0:
48,312,61036,1,2,0:0:0:0:
48,312,61185,2,0,P|100:296|192:328,1,145,8|2,0:0|0:0,0:0:0:0:
276,316,61630,2,0,P|308:301|344:295,1,72.5,8|2,0:0|0:0,0:0:0:0:
440,292,61927,6,0,B|444:232|444:232|416:124,1,145,4|8,0:0|0:0,0:0:0:0:
400,56,62373,2,0,P|356:96|248:84,1,145,0|2,0:0|0:0,0:0:0:0:
180,88,62818,2,0,L|92:88,1,72.5,8|0,0:0|0:0,0:0:0:0:
60,168,63115,6,0,L|212:168,1,145,4|8,0:0|0:0,0:0:0:0:
244,256,63561,2,0,L|386:223,1,145,2|2,0:0|0:0,0:0:0:0:
464,172,64006,2,0,P|473:214|471:249,1,72.5,8|0,0:0|0:0,0:0:0:0:
404,312,64303,6,0,L|262:345,1,145,4|8,0:0|0:0,0:0:0:0:
176,308,64749,2,0,P|166:273|164:236,2,72.5,0|2|2,0:0|0:0|0:0,0:0:0:0:
248,248,65194,2,0,P|241:212|227:178,1,72.5,8|0,0:0|0:0,0:0:0:0:
168,108,65491,6,0,P|232:95|312:140,1,145,2|8,0:0|0:0,0:0:0:0:
344,216,65937,2,0,P|420:228|488:180,1,145,2|2,0:0|0:0,0:0:0:0:
396,128,66383,2,0,L|392:28,1,72.5,8|0,0:0|0:0,0:0:0:0:
295,79,66680,6,0,P|267:107|147:91,1,145,4|8,0:0|0:0,0:0:0:0:
104,40,67125,1,0,0:0:0:0:
32,100,67274,2,0,L|28:192,1,72.5,2|0,0:0|0:0,0:0:0:0:
12,264,67571,1,8,0:0:0:0:
108,308,67719,6,0,P|184:332|264:304,1,145,4|2,0:0|0:0,0:0:0:0:
332,352,68165,2,0,L|336:259,1,72.5,8|0,0:0|0:0,0:0:0:0:
416,228,68462,2,0,P|356:196|272:208,1,145,2|8,0:0|0:0,0:0:0:0:
188,212,68907,1,0,0:0:0:0:
96,192,69056,6,0,P|128:140|232:136,1,145,4|8,0:0|0:0,0:0:0:0:
296,152,69501,1,0,0:0:0:0:
376,204,69650,2,0,L|380:132,1,72.5,2|2,0:0|0:0,0:0:0:0:
372,36,69947,1,8,0:0:0:0:
372,36,70095,6,0,P|300:27|208:44,1,145,4|2,0:0|0:0,0:0:0:0:
136,16,70541,2,0,L|131:89,1,72.5,8|0,0:0|0:0,0:0:0:0:
64,156,70838,2,0,L|68:229,1,72.5,2|0,0:0|0:0,0:0:0:0:
160,260,71135,2,0,L|155:333,1,72.5,8|2,0:0|0:0,0:0:0:0:
244,304,71432,6,0,P|296:284|400:328,1,145,4|8,0:0|0:0,0:0:0:0:
460,356,71878,2,0,L|464:198,1,145,2|2,0:0|0:0,0:0:0:0:
484,120,72323,2,0,P|448:124|413:135,1,72.5,8|0,0:0|0:0,0:0:0:0:
340,196,72620,6,0,P|280:208|172:172,1,145,6|8,0:0|0:0,0:0:0:0:
104,188,73066,2,0,L|176:36,1,145,2|2,0:0|0:0,0:0:0:0:
260,52,73511,2,0,L|224:132,1,72.5,8|0,0:0|0:0,0:0:0:0:
192,204,73808,6,0,B|184:268|184:268|200:360,1,145,4|8,0:0|0:0,0:0:0:0:
292,360,74254,1,2,0:0:0:0:
372,312,74402,1,2,0:0:0:0:
372,312,74551,2,0,B|385:232|385:232|377:168,1,145,0|0,0:0|0:0,0:0:0:0:
380,76,74996,6,0,P|336:88|220:68,1,145,4|0,0:0|0:0,0:0:0:0:
144,24,75442,2,0,P|149:97|152:169,1,145,4|0,0:0|0:0,0:0:0:0:
84,252,75887,2,0,P|95:286|109:319,1,72.5,4|0,0:0|0:0,0:0:0:0:
216,340,76185,5,4,0:0:0:0:
284,276,76333,1,4,0:0:0:0:
360,332,76482,2,0,P|395:327|431:319,1,72.5,0|8,0:0|0:3,0:0:0:0:
452,228,76779,2,0,P|416:235|380:240,1,72.5,8|0,0:3|0:0,0:0:0:0:
216,340,77224,6,0,P|128:348|76:308,1,145,4|2,0:0|0:0,0:0:0:0:
160,264,77670,2,0,P|163:206|173:173,1,72.5,8|0,0:0|0:0,0:0:0:0:
220,120,77967,2,0,P|217:62|207:29,1,72.5,2|4,0:0|0:0,0:0:0:0:
248,208,78412,6,0,P|288:188|396:224,1,145,4|0,0:0|0:0,0:0:0:0:
452,272,78858,2,0,P|463:231|468:189,1,72.5,0|0,3:0|0:0,0:0:0:0:
504,116,79155,2,0,P|504:73|497:31,1,72.5,0|0,3:0|0:0,0:0:0:0:
416,84,79452,1,0,0:0:0:0:
332,140,79600,6,0,L|168:136,1,145,4|2,0:0|0:0,0:0:0:0:
92,124,80046,2,0,P|101:174|108:202,1,72.5,2|2,0:0|0:0,0:0:0:0:
104,288,80343,1,8,0:0:0:0:
156,364,80491,1,0,0:0:0:0:
224,296,80640,2,0,P|260:294|295:288,1,72.5,0|0,0:0|0:0,0:0:0:0:
384,320,80937,6,0,P|388:260|316:200,1,145,2|2,0:0|0:0,0:0:0:0:
280,124,81383,1,0,0:0:0:0:
280,124,81531,2,0,B|200:152|200:152|136:146,1,145,8|0,0:0|0:0,0:0:0:0:
84,64,81977,6,0,B|188:56|188:56|228:42,1,145,0|2,0:0|0:0,0:0:0:0:
320,40,82422,2,0,L|388:112,1,72.5,2|0,0:0|0:0,0:0:0:0:
432,164,82719,2,0,P|450:132|463:99,2,72.5,8|0|0,0:0|0:0|0:0,0:0:0:0:
448,352,83313,6,0,L|345:351,1,72.5,4|0,0:0|0:0,0:0:0:0:
284,328,83610,2,0,L|181:327,1,72.5,2|0,0:0|0:0,0:0:0:0:
120,356,83907,2,0,L|146:195,1,145,8|2,0:0|0:0,0:0:0:0:
204,140,84353,1,4,0:0:0:0:
392,124,84650,6,0,L|461:143,2,72.5,2|8|0,0:0|0:0|0:0,0:0:0:0:
328,56,85095,1,2,0:0:0:0:
276,136,85244,2,0,L|192:140,1,72.5,4|0,0:3|0:0,0:0:0:0:
148,64,85541,6,0,P|112:132|137:222,1,145,4|2,0:0|0:0,0:0:0:0:
120,292,85986,2,0,P|166:276|201:254,1,72.5,8|0,0:0|0:0,0:0:0:0:
280,284,86284,1,2,0:0:0:0:
368,248,86432,2,0,P|376:197|380:168,1,72.5,0|8,0:0|0:0,0:0:0:0:
440,88,86729,1,4,0:0:0:0:
132,160,88066,6,0,B|140:228|140:228|92:304,1,145,4|0,0:0|0:0,0:0:0:0:
52,200,88511,1,2,0:0:0:0:
152,160,88660,2,0,L|332:160,1,145,8|2,0:0|0:0,0:0:0:0:
404,212,89105,1,4,0:0:0:0:
