osu file format v14

[General]
AudioFilename: Setsuna.mp3
AudioLeadIn: 1100
PreviewTime: 61927
Countdown: 0
SampleSet: Soft
StackLeniency: 0.7
Mode: 0
LetterboxInBreaks: 0
WidescreenStoryboard: 0

[Editor]
Bookmarks: 16630
DistanceSpacing: 0.5
BeatDivisor: 4
GridSize: 4
TimelineZoom: 1.7

[Metadata]
Title:Setsuna no Kajitsu
TitleUnicode:刹那の果実
Artist:Maon Kurosaki
ArtistUnicode:黒崎真音
Creator:Aerous
Version:Expert
Source:グリザイアの楽園 - LE EDEN DE LA GRISAIA -
Tags:grisaia no rakuen opening tv size
BeatmapID:757664
BeatmapSetID:342826

[Difficulty]
HPDrainRate:7
CircleSize:4
OverallDifficulty:8.3
ApproachRate:9.3
SliderMultiplier:1.9
SliderTickRate:1

[Events]
//Background and Video events
0,0,"setsuna.jpg",0,0
Video,0,"video (2).flv"
//Break Periods
//Storyboard Layer 0 (Background)
//Storyboard Layer 1 (Fail)
//Storyboard Layer 2 (Pass)
//Storyboard Layer 3 (Foreground)
//Storyboard Sound Samples

[TimingPoints]
614,368.098159509202,4,2,1,50,1,0
614,-125,4,2,1,50,0,0
2086,357.142857142857,4,2,1,50,1,0
2086,-125,4,2,1,50,0,0
3514,337.078651685393,4,2,1,50,1,0
3514,-125,4,2,1,50,0,0
4862,314.13612565445,4,2,1,50,1,0
4862,-125,4,2,1,50,0,0
5490,297.029702970297,4,2,1,50,1,0
5490,-125,4,2,1,50,0,0
6086,297.029702970297,4,2,1,50,1,0
6086,-125,4,2,1,50,0,0
9947,-100,4,2,5,60,0,0
14996,-66.6666666666667,4,2,5,60,0,0
15442,-100,4,2,5,60,0,0
29105,-125,4,2,5,60,0,0
29848,-100,4,2,5,60,0,0
44402,-83.3333333333333,4,2,5,60,0,0
44699,-100,4,2,5,60,0,0
45145,-83.3333333333333,4,2,5,60,0,0
45442,-100,4,2,5,60,0,0
49155,-83.3333333333333,4,2,5,60,0,0
49452,-100,4,2,5,60,0,0
51531,-83.3333333333333,4,2,5,60,0,0
51828,-100,4,2,5,60,0,0
61927,-100,4,2,5,70,0,1
74996,-83.3333333333333,4,2,5,70,0,1
75442,-80,4,2,5,70,0,1
75887,-76.9230769230769,4,2,5,70,0,1
76185,-100,4,2,5,70,0,1
80937,-100,4,2,5,60,0,0
86729,-125,4,2,1,60,0,0
86803,-125,4,2,1,50,0,0
88066,-100,4,2,5,60,0,0

[Colours]
Combo1 : 255,201,36
Combo2 : 2,200,242
Combo3 : 52,224,125
Combo4 : 244,72,98

[HitObjects]
124,136,614,6,0,L|224:132,1,76,2|0,0:0|0:0,0:0:0:0:
388,216,982,2,0,L|288:220,1,76,2|0,0:0|0:0,0:0:0:0:
212,308,1350,2,0,L|208:208,1,76,2|0,0:0|0:0,0:0:0:0:
244,64,1718,1,2,0:0:0:0:
340,140,1902,1,0,0:0:0:0:
408,24,2086,6,0,L|332:27,1,76,2|0,0:0|0:0,0:0:0:0:
232,84,2443,2,0,L|156:87,1,76,2|0,0:0|0:0,0:0:0:0:
52,48,2800,2,0,L|55:123,1,76,2|0,0:0|0:0,0:0:0:0:
104,260,3157,1,2,0:0:0:0:
192,160,3335,1,0,0:0:0:0:
84,280,3514,6,0,L|188:272,1,76,2|0,0:0|0:0,0:0:0:0:
288,320,3851,2,0,L|276:208,1,76,2|0,0:0|0:0,0:0:0:0:
212,128,4188,1,2,0:0:0:0:
276,40,4356,1,0,0:0:0:0:
344,148,4525,2,0,L|440:148,1,76,2|0,0:0|0:0,0:0:0:0:
468,320,4862,6,0,L|292:296,1,152,2|2,0:0|0:0,0:0:0:0:
224,332,5333,1,0,0:0:0:0:
268,220,5490,6,0,L|272:128,1,76,2|0,0:0|0:0,0:0:0:0:
168,84,5787,2,0,L|160:180,1,76,2|0,0:0|0:0,0:0:0:0:
88,325,6086,6,0,B|129:299|129:299|188:352|250:323,1,152,2|2,0:0|0:0,0:0:0:0:
332,352,6531,1,0,0:0:0:0:
348,236,6680,2,0,L|340:144,1,76,2|0,0:0|0:0,0:0:0:0:
220,68,6977,2,0,L|228:160,1,76,2|0,0:0|0:0,0:0:0:0:
328,240,7274,6,0,L|276:268,3,38,2|0|0|0,0:0|0:0|0:0|0:0,0:0:0:0:
320,352,7571,2,0,L|268:380,3,38,2|0|0|0,0:0|0:0|0:0|0:0,0:0:0:0:
204,296,7868,2,0,P|136:264|52:324,1,152,2|2,0:0|0:0,0:0:0:0:
136,348,8313,1,0,0:0:0:0:
260,188,8462,5,2,0:0:0:0:
260,188,8610,2,0,P|328:156|412:216,1,152,2|0,0:0|0:0,0:0:0:0:
298,309,9056,2,0,P|319:259|337:213,1,76,2|0,0:0|0:0,0:0:0:0:
404,132,9353,1,2,0:0:0:0:
256,24,9501,1,4,0:0:0:0:
232,24,9798,5,0,0:0:0:0:
118,188,9947,1,8,0:0:0:0:
153,188,10021,1,8,0:0:0:0:
189,188,10095,1,8,0:0:0:0:
224,188,10170,1,8,0:0:0:0:
260,188,10244,1,8,0:0:0:0:
420,112,10392,1,8,0:0:0:0:
436,88,10689,6,0,L|420:296,1,190,4|2,0:0|0:0,0:0:0:0:
316,360,11135,1,8,0:0:0:0:
356,192,11284,1,0,0:0:0:0:
224,272,11432,2,0,L|112:272,1,95,2|2,0:0|0:0,0:0:0:0:
48,144,11729,1,8,0:0:0:0:
88,292,11878,1,0,0:0:0:0:
202,184,12026,6,0,P|241:148|361:208,1,190,2|8,0:0|0:0,0:0:0:0:
416,276,12472,1,0,0:0:0:0:
272,312,12620,2,0,P|272:252|284:192,1,95,2|2,0:0|0:0,0:0:0:0:
348,68,12917,1,8,0:0:0:0:
440,212,13066,6,0,L|224:184,1,190,2|2,0:0|0:0,0:0:0:0:
128,240,13511,1,8,0:0:0:0:
196,124,13660,1,0,0:0:0:0:
228,312,13808,2,0,L|104:292,1,95,2|2,0:0|0:0,0:0:0:0:
32,168,14105,1,8,0:0:0:0:
192,40,14254,6,0,L|208:232,1,190,2|2,0:0|0:0,0:0:0:0:
160,360,14699,1,8,0:0:0:0:
280,224,14848,1,0,0:0:0:0:
140,116,14996,6,0,L|160:268,1,142.500005435944,2|8,0:0|0:0,0:0:0:0:
80,340,15442,6,0,P|120:292|236:328,1,190,4|2,0:0|0:0,0:0:0:0:
280,224,15887,1,8,0:0:0:0:
232,96,16036,1,0,0:0:0:0:
104,220,16185,2,0,L|208:208,1,95,2|2,0:0|0:0,0:0:0:0:
308,236,16482,1,8,0:0:0:0:
444,144,16630,6,0,L|428:336,1,190,4|2,0:0|0:0,0:0:0:0:
336,376,17076,1,8,0:0:0:0:
308,236,17224,1,0,0:0:0:0:
232,340,17373,1,2,0:0:0:0:
160,216,17521,1,2,0:0:0:0:
36,312,17670,2,0,L|136:312,1,95,8|0,0:0|0:0,0:0:0:0:
308,236,17967,6,0,P|312:144|192:108,1,190,4|0,0:0|0:0,0:0:0:0:
96,284,18412,2,0,B|208:236|208:236|252:172,1,190,8|0,0:3|0:0,0:0:0:0:
392,100,18858,2,0,B|356:72|356:72|304:96|304:96|260:80|184:88,1,190,2|0,0:0|0:0,0:0:0:0:
81,190,19303,6,0,L|95:283,1,95
256,356,19600,1,2,0:0:0:0:
256,356,19675,1,2,0:0:0:0:
256,356,19749,1,4,0:0:0:0:
344,152,19897,1,4,0:0:0:0:
178,158,20343,6,0,L|368:144,1,190,4|0,0:0|0:0,0:0:0:0:
152,88,20788,2,0,P|104:152|184:236,1,190,2|0,0:0|0:0,0:0:0:0:
355,206,21234,2,0,B|259:154|259:154|178:157,1,190,2|0,0:0|0:0,0:0:0:0:
74,277,21680,6,0,L|161:231,1,95,2|0,0:0|0:0,0:0:0:0:
232,128,21977,1,2,0:0:0:0:
368,216,22125,2,0,P|372:148|356:88,1,95,8|2,0:0|0:0,0:0:0:0:
260,36,22422,1,8,0:0:0:0:
236,36,22496,1,0,0:0:0:0:
212,36,22571,1,0,0:0:0:0:
188,36,22645,1,0,0:0:0:0:
164,36,22719,6,0,P|152:120|172:164,1,95,4|0,0:0|0:0,0:0:0:0:
274,235,23016,2,0,L|399:209,1,95,8|0,0:0|0:0,0:0:0:0:
428,72,23313,1,2,0:0:0:0:
308,148,23462,1,2,0:0:0:0:
384,272,23610,1,8,0:0:0:0:
224,168,23759,6,0,P|192:220|268:320,1,190,2|2,0:0|0:0,0:0:0:0:
367,215,24204,2,0,L|274:235,1,95,8|0,0:0|0:0,0:0:0:0:
156,352,24501,1,2,0:0:0:0:
96,256,24650,1,2,0:0:0:0:
168,84,24798,1,8,0:0:0:0:
41,157,24947,6,0,B|101:185|101:185|245:165,1,190,4|2,0:0|0:0,0:0:0:0:
360,32,25392,2,0,P|364:96|364:144,1,95,8|0,0:0|0:0,0:0:0:0:
227,262,25689,2,0,P|223:198|223:150,1,95,2|0,0:0|0:0,0:0:0:0:
244,36,25986,1,8,0:0:0:0:
340,204,26135,1,0,0:0:0:0:
152,76,26284,6,0,B|96:136|136:216|136:216|88:196,1,190,4|8,0:0|0:0,0:0:0:0:
216,156,26729,1,2,0:0:0:0:
376,132,26878,2,0,L|336:256,1,95,0|2,0:0|0:0,0:0:0:0:
197,352,27175,2,0,L|237:228,1,95,8|0,0:0|0:0,0:0:0:0:
280,80,27472,6,0,B|376:136|376:136|476:116,1,190,4|8,0:0|0:0,0:0:0:0:
392,36,27917,1,0,0:0:0:0:
298,203,28066,2,0,L|215:155,1,95,2|2,0:0|0:0,0:0:0:0:
156,72,28363,1,8,0:0:0:0:
88,196,28511,1,2,0:0:0:0:
228,192,28660,5,4,0:0:0:0:
144,296,28808,1,0,0:0:0:0:
48,168,28957,1,2,0:0:0:0:
276,76,29105,6,0,L|248:324,1,228,4|2,0:0|0:0,0:0:0:0:
184,376,29699,1,0,0:0:0:0:
333,185,29848,6,0,B|296:172|228:200|228:200|168:144,1,190,4|0,0:0|0:0,0:0:0:0:
347,264,30293,2,0,P|409:199|370:118,1,190,2|0,0:0|0:0,0:0:0:0:
155,50,30739,2,0,L|168:144,1,95,2|0,0:0|0:0,0:0:0:0:
80,320,31036,6,0,P|124:308|200:300,1,95,0|2,0:0|0:0,0:0:0:0:
333,185,31333,1,0,0:0:0:0:
333,185,31482,2,0,P|289:173|208:176,1,95,0|2,0:0|0:0,0:0:0:0:
92,104,31779,1,2,0:0:0:0:
104,212,31927,6,0,L|156:188,1,47.5,8|0,0:0|0:0,0:0:0:0:
240,52,32076,2,0,L|244:108,1,47.5
296,264,32224,6,0,P|368:264|400:144,1,190,4|8,0:0|0:0,0:0:0:0:
376,56,32670,1,0,0:0:0:0:
238,175,32818,2,0,P|302:179|358:191,1,95,2|2,0:0|0:0,0:0:0:0:
432,272,33115,1,8,0:0:0:0:
204,280,33264,6,0,L|224:64,1,190,2|2,0:0|0:0,0:0:0:0:
376,56,33709,2,0,P|320:120|288:136,1,95,8|0,0:0|0:0,0:0:0:0:
188,196,34006,1,2,0:0:0:0:
136,60,34155,1,2,0:0:0:0:
76,204,34303,2,0,L|228:180,1,142.5,8|0,0:0|0:0,0:0:0:0:
312,124,34600,6,0,B|292:208|292:208|300:336,1,190,4|8,0:0|0:0,0:0:0:0:
360,384,35046,1,0,0:0:0:0:
268,312,35194,1,2,0:0:0:0:
380,248,35343,1,2,0:0:0:0:
220,184,35491,2,0,L|248:68,1,95,8|0,0:0|0:0,0:0:0:0:
469,69,35788,6,0,B|401:141|401:141|301:121,1,190,4|8,0:0|0:0,0:0:0:0:
196,52,36234,1,2,0:0:0:0:
125,196,36383,2,0,L|241:180,1,95,0|2,0:0|0:0,0:0:0:0:
316,68,36680,1,8,0:0:0:0:
304,240,36828,1,0,0:0:0:0:
480,152,36977,6,0,L|385:140,1,95,4|0,0:0|0:0,0:0:0:0:
240,212,37274,1,8,0:0:0:0:
316,68,37422,1,0,0:0:0:0:
125,196,37571,2,0,L|149:312,1,95,2|2,0:0|0:0,0:0:0:0:
296,344,37868,1,8,0:0:0:0:
344,344,37942,1,0,0:0:0:0:
392,344,38016,1,0,0:0:0:0:
440,344,38090,1,0,0:0:0:0:
488,344,38165,5,2,0:0:0:0:
428,148,38313,1,8,0:0:0:0:
460,124,38610,2,0,B|368:152|368:152|312:116|248:128,1,190,4|2,0:0|0:0,0:0:0:0:
208,261,39056,2,0,L|296:224,1,95,8|0,0:0|0:0,0:0:0:0:
376,72,39353,6,0,L|288:35,1,95,4|0,0:0|0:0,0:0:0:0:
108,160,39650,2,0,L|208:161,1,95,8|0,0:0|0:0,0:0:0:0:
360,264,39947,1,2,0:0:0:0:
276,124,40095,1,2,0:0:0:0:
196,248,40244,1,8,0:0:0:0:
408,344,40392,6,0,L|370:157,1,190,2|2,0:0|0:0,0:0:0:0:
216,236,40838,2,0,L|312:220,1,95,8|0,0:0|0:0,0:0:0:0:
468,120,41135,1,2,0:0:0:0:
408,252,41284,1,2,0:0:0:0:
276,124,41432,2,0,L|182:139,1,95,8|0,0:0|0:0,0:0:0:0:
44,236,41729,5,2,0:0:0:0:
28,252,42026,2,0,L|136:216,1,95,8|0,0:0|0:0,0:0:0:0:
232,44,42323,1,2,0:0:0:0:
248,228,42472,2,0,P|204:192|180:148,1,95,2|8,0:0|0:0,0:0:0:0:
384,32,42769,6,0,B|327:65|327:65|203:53,1,190,2|2,0:0|0:0,0:0:0:0:
20,188,43214,1,8,0:0:0:0:
67,188,43288,1,0,0:0:0:0:
115,188,43363,1,0,0:0:0:0:
162,188,43437,1,0,0:0:0:0:
210,188,43511,1,2,0:0:0:0:
108,96,43660,1,2,0:0:0:0:
180,268,43808,2,0,L|312:268,1,95,8|0,0:0|0:0,0:0:0:0:
132,336,44105,6,0,P|108:300|148:188,1,142.5,2|0,0:0|0:0,0:0:0:0:
210,188,44402,6,0,P|252:220|172:260,1,170.999994781494,4|0,0:0|0:0,0:0:0:0:
120,112,44699,6,0,L|256:108,1,95
316,68,44996,1,8,0:0:0:0:
210,188,45145,6,0,P|168:220|264:224,1,227.999993041992,4|0,0:0|0:0,0:0:0:0:
324,72,45590,1,8,0:0:0:0:
372,184,45739,1,0,0:0:0:0:
512,112,45887,1,2,0:0:0:0:
380,208,46036,1,2,0:0:0:0:
240,24,46185,2,0,L|240:140,1,95,8|0,0:0|0:0,0:0:0:0:
132,240,46482,5,4,0:0:0:0:
164,80,46630,1,0,0:0:0:0:
277,184,46779,2,0,L|401:184,1,95,8|0,0:0|0:0,0:0:0:0:
464,104,47076,1,2,0:0:0:0:
464,104,47224,1,2,0:0:0:0:
416,228,47373,1,8,0:0:0:0:
328,100,47521,1,2,0:0:0:0:
244,208,47670,5,0,0:0:0:0:
344,84,47818,1,2,0:0:0:0:
292,292,47967,2,0,L|168:292,1,95,8|0,0:0|0:0,0:0:0:0:
44,140,48264,2,0,L|168:140,1,95,2|2,0:0|0:0,0:0:0:0:
360,72,48561,1,8,0:0:0:0:
372,64,48858,6,0,L|372:212,1,142.5,2|0,0:0|0:0,0:0:0:0:
448,256,49155,6,0,P|356:204|280:264,1,170.999994781494,4|0,0:0|0:0,0:0:0:0:
368,284,49452,1,0,0:0:0:0:
272,148,49600,1,2,0:0:0:0:
472,56,49749,2,0,L|452:172,1,95,8|2,0:0|0:0,0:0:0:0:
368,284,50046,6,0,L|252:280,1,95,0|2,0:0|0:0,0:0:0:0:
156,144,50343,1,8,0:0:0:0:
320,212,50491,1,0,0:0:0:0:
168,292,50640,2,0,L|168:172,1,95,2|2,0:0|0:0,0:0:0:0:
24,48,50937,2,0,B|96:72|96:72|200:48,1,142.5,8|0,0:0|0:0,0:0:0:0:
264,24,51234,6,0,L|240:136,1,95,2|0,0:0|0:0,0:0:0:0:
320,212,51531,6,0,P|268:168|164:220,1,170.999994781494,4|0,0:0|0:0,0:0:0:0:
244,240,51828,5,0,0:0:0:0:
344,112,51977,1,2,0:0:0:0:
336,104,52051,1,0,0:0:0:0:
328,96,52125,1,8,0:0:0:0:
177,196,52274,6,0,B|221:320|221:320|261:264,1,190,2|0,0:0|0:0,0:0:0:0:
352,224,52719,1,8,0:0:0:0:
320,356,52868,1,0,0:0:0:0:
420,181,53016,2,0,L|296:177,1,95,2|2,0:0|0:0,0:0:0:0:
177,196,53313,1,8,0:0:0:0:
268,288,53462,1,0,0:0:0:0:
196,104,53610,6,0,P|252:88|324:188,1,190,4|2,0:0|0:0,0:0:0:0:
220,304,54056,1,0,0:0:0:0:
248,168,54204,1,8,0:0:0:0:
340,264,54353,1,0,0:0:0:0:
160,200,54501,1,2,0:0:0:0:
240,328,54650,1,0,0:0:0:0:
76,248,54798,6,0,L|80:148,1,95,0|2,0:0|0:0,0:0:0:0:
228,32,55095,1,2,0:0:0:0:
160,200,55244,1,0,0:0:0:0:
288,272,55392,2,0,L|404:268,1,95,8|0,0:0|0:0,0:0:0:0:
488,200,55689,1,0,0:0:0:0:
424,360,55838,1,0,0:0:0:0:
333,192,55986,5,4,0:0:0:0:
148,132,56135,1,0,0:0:0:0:
286,270,56284,1,8,0:0:0:0:
258,81,56432,1,2,0:0:0:0:
172,254,56581,5,0,0:0:0:0:
340,192,56729,1,0,0:0:0:0:
136,126,56878,1,8,0:0:0:0:
290,279,57026,1,0,0:0:0:0:
258,69,57175,5,4,0:0:0:0:
164,261,57323,1,0,0:0:0:0:
350,192,57472,1,8,0:0:0:0:
124,120,57620,1,2,0:0:0:0:
291,287,57769,5,0,0:0:0:0:
258,56,57917,1,2,0:0:0:0:
156,267,58066,1,8,0:0:0:0:
360,192,58214,1,0,0:0:0:0:
112,114,58363,5,4,0:0:0:0:
296,297,58511,1,0,0:0:0:0:
259,43,58660,1,8,0:0:0:0:
145,275,58808,1,0,0:0:0:0:
385,192,58957,1,2,0:0:0:0:
200,143,59105,5,2,0:0:0:0:
268,320,59254,1,8,0:0:0:0:
412,196,59402,1,8,0:0:0:0:
256,192,59551,12,0,60739,0:0:0:0:
260,188,60887,5,2,0:0:0:0:
400,344,61036,2,0,L|296:340,1,95,2|8,0:0|0:0,0:0:0:0:
144,224,61333,1,0,0:0:0:0:
368,76,61482,1,2,0:0:0:0:
363,123,61556,1,0,0:0:0:0:
359,170,61630,2,0,P|352:214|344:264,1,95,8|2,0:0|0:0,0:0:0:0:
136,204,61927,6,0,L|264:188,1,95,4|0,0:0|0:0,0:0:0:0:
340,28,62224,1,8,0:0:0:0:
180,120,62373,1,0,0:0:0:0:
104,28,62521,1,0,0:0:0:0:
312,116,62670,2,0,L|296:232,1,95,2|8,0:0|0:0,0:0:0:0:
172,276,62967,1,0,0:0:0:0:
308,368,63115,5,4,0:0:0:0:
144,272,63264,1,0,0:0:0:0:
232,136,63412,1,8,0:0:0:0:
300,292,63561,2,0,L|192:288,1,95,2|0,0:0|0:0,0:0:0:0:
92,136,63858,1,2,0:0:0:0:
248,216,64006,1,8,0:0:0:0:
296,80,64155,1,0,0:0:0:0:
60,40,64303,6,0,L|80:244,1,190,4|8,0:0|0:0,0:0:0:0:
80,344,64749,1,0,0:0:0:0:
120,220,64897,1,2,0:0:0:0:
268,324,65046,1,2,0:0:0:0:
140,116,65194,2,0,L|144:224,1,95,8|0,0:0|0:0,0:0:0:0:
340,356,65491,6,0,P|344:304|208:268,1,190,2|8,0:0|0:0,0:0:0:0:
82,344,65937,2,0,B|182:352|182:352|278:320,1,190,2|2,0:0|0:0,0:0:0:0:
380,184,66383,1,8,0:0:0:0:
412,192,66457,1,0,0:0:0:0:
444,200,66531,1,0,0:0:0:0:
268,324,66680,6,0,P|264:264|264:208,1,95,4|0,0:0|0:0,0:0:0:0:
472,112,66977,2,0,P|476:172|476:228,1,95,8|0,0:0|0:0,0:0:0:0:
267,323,67274,2,0,B|182:352|182:352|82:344,1,190,2|8,0:0|0:0,0:0:0:0:
259,142,67719,6,0,B|255:182|255:182|279:214|279:214|251:310|279:358,1,190,4|2,0:0|0:0,0:0:0:0:
452,272,68165,2,0,P|376:264|332:276,1,95,8|0,0:0|0:0,0:0:0:0:
172,184,68462,2,0,P|175:107|194:66,1,95,2|2,0:0|0:0,0:0:0:0:
344,24,68759,1,8,0:0:0:0:
259,142,68907,1,0,0:0:0:0:
287,267,69056,6,0,B|342:268|369:310|369:310|401:270|481:270,1,190,4|8,0:0|0:0,0:0:0:0:
388,172,69501,1,0,0:0:0:0:
288,364,69650,2,0,L|176:368,1,95,2|2,0:0|0:0,0:0:0:0:
72,280,69947,1,8,0:0:0:0:
224,96,70095,6,0,B|208:212|208:212|236:312,1,190,4|2,0:0|0:0,0:0:0:0:
452,272,70541,1,8,0:0:0:0:
284,204,70689,1,0,0:0:0:0:
396,104,70838,1,2,0:0:0:0:
360,288,70986,1,0,0:0:0:0:
324,320,71061,1,0,0:0:0:0:
276,324,71135,1,8,0:0:0:0:
232,304,71209,1,0,0:0:0:0:
188,284,71284,1,2,0:0:0:0:
140,284,71358,1,2,0:0:0:0:
92,276,71432,6,0,P|88:204|100:144,1,95,4|0,0:0|0:0,0:0:0:0:
252,76,71729,2,0,P|256:148|244:208,1,95,8|2,0:0|0:0,0:0:0:0:
160,356,72026,1,0,0:0:0:0:
180,136,72175,1,2,0:0:0:0:
288,248,72323,1,8,0:0:0:0:
100,228,72472,1,0,0:0:0:0:
180,41,72620,6,0,L|180:153,1,95,6|0,0:0|0:0,0:0:0:0:
257,281,72917,1,8,0:0:0:0:
365,134,73066,2,0,B|290:149|290:149|217:114|158:145,1,190,2|2,0:0|0:0,0:0:0:0:
48,204,73511,1,8,0:0:0:0:
104,76,73660,1,0,0:0:0:0:
220,204,73808,6,0,L|211:299,1,95,4|0,0:0|0:0,0:0:0:0:
76,380,74105,1,8,0:0:0:0:
136,232,74254,1,2,0:0:0:0:
328,256,74402,1,2,0:0:0:0:
232,96,74551,1,0,0:0:0:0:
416,44,74699,1,8,0:0:0:0:
412,67,74774,1,0,0:0:0:0:
409,91,74848,1,0,0:0:0:0:
405,114,74922,1,0,0:0:0:0:
400,132,74996,6,0,B|336:144|336:144|280:108|280:108|200:92|152:88,1,227.999993041992,4|0,0:0|0:0,0:0:0:0:
48,192,75442,6,0,B|112:248|112:248|220:188|280:260,1,237.5,4|0,0:0|0:0,0:0:0:0:
456,200,75887,6,0,P|486:134|490:66,1,123.499994346619,4|0,0:0|0:0,0:0:0:0:
332,140,76185,5,4,0:0:0:0:
320,328,76333,1,4,0:0:0:0:
208,184,76482,2,0,P|208:136|212:76,1,95,0|8,0:0|0:3,0:0:0:0:
212,64,76704,1,8,0:3:0:0:
220,40,76779,1,8,0:3:0:0:
360,40,76927,2,0,L|472:40,1,95,4|0,0:0|0:0,0:0:0:0:
476,216,77224,6,0,B|388:180|388:180|264:204,1,190,4|2,0:0|0:0,0:0:0:0:
152,300,77670,2,0,P|216:296|272:288,1,95,8|0,0:0|0:0,0:0:0:0:
352,140,77967,1,2,0:0:0:0:
488,240,78115,2,0,P|424:244|368:252,1,95,4|0,0:0|0:0,0:0:0:0:
244,360,78412,6,0,B|256:320|256:320|248:292|248:292|264:184|236:132,1,190,4|0,0:0|0:0,0:0:0:0:
72,220,78858,2,0,P|148:224|192:224,1,95,0|0,3:0|0:0,0:0:0:0:
327,276,79155,2,0,P|374:266|420:254,1,95,0|0,3:0|0:0,0:0:0:0:
236,148,79452,1,0,0:0:0:0:
344,64,79600,6,0,P|296:108|164:84,1,190,4|2,0:0|0:0,0:0:0:0:
160,84,79972,1,2,0:0:0:0:
140,68,80046,1,2,0:0:0:0:
236,148,80194,1,2,0:0:0:0:
188,272,80343,1,8,0:0:0:0:
344,336,80491,1,0,0:0:0:0:
308,196,80640,1,0,0:0:0:0:
208,288,80788,1,0,0:0:0:0:
392,240,80937,6,0,P|395:192|387:146,1,95,6|0,0:0|0:0,0:0:0:0:
476,352,81234,2,0,P|479:304|471:258,1,95,2|0,0:0|0:0,0:0:0:0:
344,64,81531,2,0,P|296:108|164:84,1,190,8|0,0:0|0:0,0:0:0:0:
248,16,81977,1,0,0:0:0:0:
344,152,82125,6,0,L|240:160,1,95,0|2,3:0|0:0,0:0:0:0:
64,296,82422,2,0,L|168:288,1,95,2|0,0:0|0:0,0:0:0:0:
372,132,82719,2,0,L|364:240,1,95,8|0,0:0|0:0,0:0:0:0:
240,268,83016,2,0,L|248:376,1,95
176,236,83313,6,0,B|238:263|238:263|372:222,1,190,4|2,0:0|0:0,0:0:0:0:
464,96,83759,1,0,0:0:0:0:
456,288,83907,2,0,L|348:324,1,95,8|0,0:0|0:0,0:0:0:0:
204,344,84204,1,2,0:0:0:0:
268,152,84353,1,4,0:0:0:0:
292,136,84650,5,2,0:0:0:0:
228,256,84798,1,8,0:0:0:0:
352,288,84947,1,0,0:0:0:0:
368,296,85021,1,0,0:0:0:0:
384,304,85095,1,2,0:0:0:0:
204,344,85244,1,4,0:3:0:0:
53,248,85541,6,0,B|101:284|101:284|241:252,1,190,4|2,0:0|0:0,0:0:0:0:
292,136,85986,1,8,0:0:0:0:
296,328,86135,1,0,0:0:0:0:
376,208,86284,1,2,0:0:0:0:
196,176,86432,1,0,0:0:0:0:
384,232,86581,1,8,0:0:0:0:
376,32,86729,5,4,0:0:0:0:
404,46,88066,5,4,0:0:0:0:
268,218,88214,1,8,0:0:0:0:
71,104,88363,1,0,0:0:0:0:
421,60,88511,5,2,0:0:0:0:
286,230,88660,1,8,0:0:0:0:
88,116,88808,1,0,0:0:0:0:
256,37,88957,5,2,0:0:0:0:
268,217,89105,1,4,0:0:0:0:
