osu file format v14

[General]
AudioFilename: Setsuna.mp3
AudioLeadIn: 1100
PreviewTime: 61927
Countdown: 0
SampleSet: Soft
StackLeniency: 0.7
Mode: 0
LetterboxInBreaks: 0
WidescreenStoryboard: 0

[Editor]
Bookmarks: 16630
DistanceSpacing: 1.1
BeatDivisor: 2
GridSize: 4
TimelineZoom: 1.7

[Metadata]
Title:Setsuna no Kajitsu
TitleUnicode:刹那の果実
Artist:Maon Kurosaki
ArtistUnicode:黒崎真音
Creator:Aerous
Version:Easy
Source:グリザイアの楽園 - LE EDEN DE LA GRISAIA -
Tags:grisaia no rakuen opening tv size
BeatmapID:758426
BeatmapSetID:342826

[Difficulty]
HPDrainRate:3
CircleSize:3
OverallDifficulty:2
ApproachRate:3
SliderMultiplier:0.799999999999999
SliderTickRate:1

[Events]
//Background and Video events
0,0,"setsuna.jpg",0,0
Video,0,"video (2).flv"
//Break Periods
//Storyboard Layer 0 (Background)
//Storyboard Layer 1 (Fail)
//Storyboard Layer 2 (Pass)
//Storyboard Layer 3 (Foreground)
//Storyboard Sound Samples

[TimingPoints]
614,368.098159509202,4,2,1,50,1,0
614,-100,4,2,1,50,0,0
2086,357.142857142857,4,2,1,50,1,0
2086,-100,4,2,1,50,0,0
3514,337.078651685393,4,2,1,50,1,0
3514,-100,4,2,1,50,0,0
4862,314.13612565445,4,2,1,50,1,0
4862,-100,4,2,1,50,0,0
5490,297.029702970297,4,2,1,50,1,0
6086,297.029702970297,4,2,1,50,1,0
6086,-100,4,2,1,50,0,0
10689,-100,4,2,5,60,0,0
15442,-100,4,2,5,60,0,0
61927,-100,4,2,5,70,0,1
80937,-100,4,2,5,60,0,0
88066,-100,4,2,5,60,0,0

[Colours]
Combo1 : 255,201,36
Combo2 : 2,200,242
Combo3 : 52,224,125
Combo4 : 244,72,98

[HitObjects]
444,48,614,6,0,B|476:92|476:92|444:140|444:140|476:188|460:252|460:252|440:236,1,240,2|2,0:0|0:0,0:0:0:0:
372,200,2086,6,0,B|284:184|284:184|212:248|136:196,1,240,2|2,0:0|0:0,0:0:0:0:
208,132,3514,6,0,L|284:80,1,79.9999999999999,2|2,0:0|0:0,0:0:0:0:
348,40,4188,2,0,L|424:64,1,79.9999999999999,2|2,0:0|0:0,0:0:0:0:
472,144,4862,6,0,B|460:208|460:208|472:248|472:248|464:312,1,160,2|2,0:0|0:0,0:0:0:0:
392,348,5787,1,2,0:0:0:0:
316,304,6086,6,0,P|244:284|156:308,1,160,2|2,0:0|0:0,0:0:0:0:
76,324,6977,1,2,0:0:0:0:
84,236,7274,2,0,P|68:148|84:80,1,160,2|2,0:0|0:0,0:0:0:0:
164,44,8165,2,0,L|296:44,1,120,2|2,0:0|0:0,0:0:0:0:
408,84,9056,6,0,L|391:211,1,120,2|4,0:0|0:0,0:0:0:0:
64,332,10689,6,0,P|152:320|192:324,1,120,4|8,0:0|0:0,0:0:0:0:
264,352,11432,2,0,L|360:340,1,79.9999999999999,2|8,0:0|0:0,0:0:0:0:
400,276,12026,2,0,P|432:200|388:124,1,160,2|2,0:0|0:0,0:0:0:0:
344,204,12917,1,8,0:0:0:0:
268,156,13214,6,0,P|257:194|259:234,1,79.9999999999999,0|8,0:0|0:0,0:0:0:0:
232,316,13808,2,0,P|172:321|112:319,2,120,2|2|8,0:0|0:0|0:0,0:0:0:0:
312,352,14996,1,2,0:0:0:0:
444,336,15442,6,0,P|451:276|448:216,1,120,4|8,0:0|0:0,0:0:0:0:
428,131,16185,2,0,P|364:124|311:104,1,120,2|4,0:0|0:0,0:0:0:0:
200,36,17076,2,0,P|132:32|104:36,2,79.9999999999999,8|2|8,0:0|0:0|0:0,0:0:0:0:
160,116,17967,6,0,B|140:188|140:188|145:232,1,120,4|8,0:0|0:3,0:0:0:0:
104,360,18858,2,0,P|163:357|222:343,1,120,2|0,0:0|0:0,0:0:0:0:
320,252,19749,1,4,0:0:0:0:
164,224,20343,6,0,L|152:92,2,120,4|2|2,0:0|0:0|0:0,0:0:0:0:
268,160,21680,2,0,L|401:158,1,120,2|8,0:0|0:0,0:0:0:0:
440,88,22422,1,8,0:0:0:0:
484,164,22719,6,0,L|491:246,1,79.9999999999999,4|8,0:0|0:0,0:0:0:0:
436,312,23313,2,0,P|392:308|304:312,1,120,2|2,0:0|0:0,0:0:0:0:
236,352,24056,2,0,P|192:356|104:352,1,120,2|2,0:0|0:0,0:0:0:0:
180,240,24947,6,0,L|197:121,1,120,4|8,0:0|0:0,0:0:0:0:
144,52,25689,2,0,P|182:42|222:37,1,80,2|8,0:0|0:0,0:0:0:0:
300,80,26284,2,0,L|420:80,1,120,4|2,0:0|0:0,0:0:0:0:
476,200,27175,1,8,0:0:0:0:
460,288,27472,6,0,B|412:260|412:260|364:276|300:268,1,160,4|2,0:0|0:0,0:0:0:0:
224,296,28363,1,8,0:0:0:0:
148,252,28660,2,0,P|144:194|143:128,2,120,4|4|2,0:0|0:0|0:0,0:0:0:0:
224,296,29848,6,0,P|283:302|352:288,1,120,4|2,0:0|0:0,0:0:0:0:
460,228,30739,2,0,P|466:168|452:100,1,120,2|2,0:0|0:0,0:0:0:0:
336,164,31630,2,0,L|246:147,1,79.9999999999999,2|8,0:0|0:0,0:0:0:0:
184,100,32224,6,0,L|106:116,1,79.9999999999999,4|8,0:0|0:0,0:0:0:0:
104,204,32818,2,0,P|47:186|15:137,2,120,2|2|8,0:0|0:0|0:0,0:0:0:0:
172,260,34006,2,0,L|250:276,1,79.9999999999999,2|8,0:0|0:0,0:0:0:0:
308,344,34600,6,0,B|336:280|336:280|340:188,1,160,4|2,0:0|0:0,0:0:0:0:
372,108,35491,1,8,0:0:0:0:
304,52,35788,2,0,P|216:38|128:20,1,160,4|0,0:0|0:0,0:0:0:0:
60,36,36680,1,8,0:0:0:0:
24,116,36977,6,0,L|24:204,1,79.9999999999999,4|8,0:0|0:0,0:0:0:0:
92,248,37571,2,0,B|167:223|167:223|247:223,1,160,2|2,0:0|0:0,0:0:0:0:
352,140,38610,2,0,P|376:200|371:263,1,120,4|8,0:0|0:0,0:0:0:0:
396,340,39353,6,0,L|316:328,1,79.9999999999999,4|8,0:0|0:0,0:0:0:0:
232,300,39947,2,0,L|104:320,2,120,2|2|8,0:0|0:0|0:0,0:0:0:0:
248,212,41135,2,0,L|156:228,1,79.9999999999999,2|8,0:0|0:0,0:0:0:0:
84,240,41729,6,0,P|72:172|88:72,1,160,2|2,0:0|0:0,0:0:0:0:
212,48,42769,2,0,P|269:51|331:61,1,120,2|8,0:0|0:0,0:0:0:0:
420,48,43511,1,2,0:0:0:0:
420,136,43808,2,0,L|392:211,1,79.9999999999999,8|2,0:0|0:0,0:0:0:0:
412,296,44402,6,0,B|364:296|336:276|336:276|292:316|208:296,1,200,4|4,0:0|0:0,0:0:0:0:
96,332,45590,2,0,L|112:248,1,79.9999999999999,8|2,0:0|0:0,0:0:0:0:
116,164,46185,1,8,0:0:0:0:
100,76,46482,6,0,P|139:80|177:94,1,80,4|8,0:0|0:0,0:0:0:0:
264,84,47076,2,0,L|270:212,2,120,2|2|8,0:0|0:0|0:0,0:0:0:0:
352,68,48264,2,0,L|360:236,1,160,2|2,0:0|0:0,0:0:0:0:
363,316,49155,6,0,P|287:336|209:318,1,160,4|8,0:0|0:0,0:0:0:0:
120,316,50046,2,0,L|160:240,1,79.9999999999999,0|8,0:0|0:0,0:0:0:0:
236,208,50640,2,0,L|332:220,2,79.9999999999999,2|8|2,0:0|0:0|0:0,0:0:0:0:
172,144,51531,5,4,0:0:0:0:
228,76,51828,2,0,P|168:56|108:80,1,120,0|2,0:0|0:0,0:0:0:0:
16,160,52719,1,8,0:0:0:0:
52,240,53016,2,0,L|44:344,1,79.9999999999999,2|8,0:0|0:0,0:0:0:0:
128,284,53610,6,0,P|207:276|284:294,1,160,4|8,0:0|0:0,0:0:0:0:
372,280,54501,2,0,P|367:332|336:374,2,80,2|0|2,0:0|0:0|0:0,0:0:0:0:
324,208,55392,2,0,P|321:168|334:130,1,80,8|0,0:0|0:0,0:0:0:0:
256,192,55986,12,0,60739,0:0:0:0:
256,192,61927,6,0,L|125:247,2,120,4|0|8,0:0|0:0|0:0,0:0:0:0:
336,156,63115,2,0,L|419:122,1,79.9999999999999,4|8,0:0|0:0,0:0:0:0:
376,44,63709,2,0,L|301:74,1,79.9999999999999,0|8,0:0|0:0,0:0:0:0:
212,72,64303,6,0,L|208:264,1,160,4|2,0:0|0:0,0:0:0:0:
184,316,65194,1,8,0:0:0:0:
268,336,65491,2,0,L|372:336,1,79.9999999999999,2|8,0:0|0:0,0:0:0:0:
424,292,66086,2,0,L|438:213,1,79.9999999999999,0|8,0:0|0:0,0:0:0:0:
472,132,66680,6,0,P|432:135|392:139,1,80,4|8,0:0|0:0,0:0:0:0:
308,108,67274,2,0,L|188:112,1,120,2|4,0:0|0:0,0:0:0:0:
64,68,68165,1,8,0:0:0:0:
16,140,68462,2,0,L|20:232,1,79.9999999999999,2|8,0:0|0:0,0:0:0:0:
44,304,69056,6,0,P|92:292|200:308,1,160,4|2,0:0|0:0,0:0:0:0:
324,356,70095,2,0,L|338:199,1,120,4|8,0:0|0:0,0:0:0:0:
408,188,70838,2,0,L|415:108,1,80,2|8,0:0|0:0,0:0:0:0:
340,60,71432,6,0,P|283:75|227:55,1,120,4|2,0:0|0:0,0:0:0:0:
140,36,72175,1,2,0:0:0:0:
68,148,72620,2,0,L|12:36,2,120,6|2|8,0:0|0:0|0:0,0:0:0:0:
100,232,73808,6,0,L|179:220,1,79.9999999999999,4|8,0:0|0:0,0:0:0:0:
244,280,74402,2,0,L|321:258,1,79.9999999999999,2|8,0:0|0:0,0:0:0:0:
320,172,74996,2,0,P|360:180|404:248,2,120,4|4|4,0:0|0:0|0:0,0:0:0:0:
244,128,76185,6,0,P|154:164|62:129,1,200,4|4,0:0|0:0,0:0:0:0:
24,48,77224,2,0,P|85:44|144:88,1,120,4|8,0:0|0:0,0:0:0:0:
220,48,77967,1,2,0:0:0:0:
328,124,78412,6,0,P|339:183|336:243,1,120,4|0,0:0|3:0,0:0:0:0:
372,324,79155,2,0,L|236:316,1,120,0|4,3:0|0:0,0:0:0:0:
120,324,80046,1,2,0:0:0:0:
112,236,80343,2,0,P|119:169|124:137,1,80,8|0,0:0|0:0,0:0:0:0:
136,68,80937,6,0,L|300:84,1,160,6|8,0:0|0:0,0:0:0:0:
424,52,81977,2,0,P|418:111|403:169,1,120,0|2,0:0|0:0,0:0:0:0:
360,244,82719,2,0,L|273:244,1,79.9999999999999,8|0,0:0|0:0,0:0:0:0:
200,276,83313,6,0,P|120:296|43:263,1,160,4|8,0:0|0:0,0:0:0:0:
128,164,84353,2,0,L|140:40,2,120,4|8|4,0:0|0:0|0:3,0:0:0:0:
216,168,85541,2,0,P|255:179|335:171,1,120,4|8,0:0|0:0,0:0:0:0:
420,168,86284,2,0,L|468:44,2,120,2|4|0,0:0|0:0|0:0,0:0:0:0:
444,252,87472,2,0,P|404:251|367:236,1,80,0|0,0:0|0:0,0:0:0:0:
284,260,88066,6,0,B|224:304|224:304|176:268|176:268|108:316|32:272,1,280,4|4,0:0|0:0,0:0:0:0:
