osu file format v9

[General]
AudioFilename: [PV] Memories Last - Maon Kurosaki - A Anime video.mp3
AudioLeadIn: 0
PreviewTime: 54820
Countdown: 0
SampleSet: Normal
StackLeniency: 0.5
Mode: 0
LetterboxInBreaks: 1

[Editor]
Bookmarks: 40082,99555,141602,150705,169431,211069,226069
DistanceSpacing: 1.2
BeatDivisor: 4
GridSize: 8

[Metadata]
Title:Memories Last
Artist:Maon Kurosaki
Creator:chamelepeace710
Version:Insane
Source:
Tags:to aru majutsu no index kagaku railgun last order accelerator backfire

[Difficulty]
HPDrainRate:7
CircleSize:5
OverallDifficulty:6
ApproachRate:8
SliderMultiplier:1.9
SliderTickRate:1

[Events]
//Background and Video events
0,0,"accelast order.png"
//Break Periods
2,36471,40377
2,89188,99336
2,147454,151359
2,158552,168700
2,216818,226966
//Storyboard Layer 0 (Background)
//Storyboard Layer 1 (Fail)
//Storyboard Layer 2 (Pass)
//Storyboard Layer 3 (Foreground)
//Storyboard Sound Samples
//Background Colour Transformations
3,100,163,162,255

[TimingPoints]
2977,346.820809248555,4,2,1,100,1,0
41643,-100,4,1,1,100,0,0
53000,-100,4,1,1,50,0,0
54213,-100,4,1,1,90,0,0
55254,-100,4,1,1,20,0,0
55427,-100,4,1,1,40,0,0
55514,-100,4,1,1,60,0,0
55600,-100,4,1,1,80,0,0
55693,-100,4,1,1,100,0,1
77890,-100,4,2,1,70,0,0
80569,-100,4,2,1,50,0,0
82129,-100,4,2,1,70,0,0
83439,-100,4,1,1,100,0,1
88988,-100,4,2,1,100,0,0
105624,-100,4,1,1,100,0,0
116894,-100,4,1,1,50,0,0
117934,-100,4,1,1,100,0,0
119161,-100,4,1,1,20,0,0
119248,-100,4,1,1,40,0,0
119335,-100,4,1,1,60,0,0
119422,-100,4,1,1,80,0,0
119508,-100,4,1,1,100,0,1
141689,-100,4,2,1,100,0,1
146907,-100,4,2,1,20,0,1
146994,-100,4,2,1,40,0,1
147081,-100,4,2,1,60,0,1
147167,-100,4,2,1,80,0,1
147254,-100,4,2,1,100,0,0
152612,-200,4,2,1,100,0,0
153393,-200,4,2,2,100,0,0
153566,-200,4,2,1,100,0,0
154693,-200,4,2,1,100,0,0
156427,-100,4,1,1,100,0,0
169171,-100,4,2,1,100,0,0
169431,-100,4,1,1,100,0,0
180702,-100,4,1,1,50,0,0
181829,-100,4,1,1,100,0,0
182956,-200,4,2,2,100,0,0
194422,-100,4,1,1,100,0,1
205520,-200,4,2,2,70,0,0
206127,-200,4,2,1,70,0,0
211069,-100,4,2,1,70,0,1
216618,-100,4,2,1,70,0,0
239508,-100,4,2,1,65,0,0
240202,-100,4,2,1,55,0,0
240896,-100,4,2,1,45,0,0
241589,-100,4,2,1,35,0,0
242283,-100,4,2,1,25,0,0
242977,-100,4,2,1,15,0,0
243670,-100,4,2,1,5,0,0

[Colours]
Combo1 : 128,64,64
Combo2 : 0,149,149
Combo3 : 255,128,64
Combo4 : 128,255,255

[HitObjects]
256,192,8526,1,8
256,192,8699,1,8
256,192,8872,12,8,13728
112,40,14075,5,2
176,80,14248,2,0,B|272:80,1,95,2|8
328,136,14595,2,0,B|384:168|384:272|328:296,1,190,2|0
256,328,15115,1,8
184,296,15289,2,0,B|128:264|128:168|184:136,1,190,2|0
256,168,15809,1,8
256,88,15982,1,2
256,248,16156,1,8
256,248,16503,5,8
256,328,16676,1,2
328,344,16849,2,0,B|440:360|496:256,1,190,4|8
464,200,17370,1,0
472,128,17543,1,2
408,88,17716,1,2
400,160,17890,1,8
392,232,18063,2,0,B|280:248|256:120,1,190,0|2
256,288,18583,1,8
256,288,18930,1,8
128,208,19277,2,0,B|128:160,2,47.5,8|0|8
56,176,19624,5,4
72,104,19797,1,0
144,88,19971,1,8
208,136,20144,2,0,B|304:168|400:112,1,190,2|2
448,64,20664,1,8
448,144,20838,2,0,B|392:224|416:328,1,190,2|2
336,320,21358,2,0,B|328:272,2,47.5,8|0|0
256,320,21705,1,8
256,192,21878,1,8
256,64,22052,1,8
80,288,22398,6,0,B|96:192|200:144,1,190,4|8
176,72,22919,2,0,B|88:80|16:152|0:272,1,285,2|8
24,344,23612,1,0
96,368,23786,1,2
136,376,23872,1,0
176,368,23959,1,2
248,360,24133,1,8
320,336,24306,1,8
360,328,24393,1,2
384,296,24479,1,8
440,248,24653,1,8
464,176,24826,1,8
472,136,24913,1,2
456,104,25000,1,2
416,40,25173,6,0,B|328:72,1,95,2|0
288,136,25520,2,0,B|288:232,1,95,8|0
224,272,25867,2,0,B|224:176,1,95
224,104,26213,1,8
160,224,26387,6,0,B|144:304|176:352|272:344,1,190
288,272,26907,1,8
352,232,27081,2,0,B|336:152|240:152|224:232,1,190
288,272,27601,1,8
352,312,27774,1,0
416,272,27948,6,0,B|496:224,1,95
496,144,28294,2,0,B|496:48,1,95,8|0
416,48,28641,1,0
344,80,28815,1,0
272,48,28988,1,8
200,80,29161,2,0,B|200:200|320:200,1,190
315,199,29682,1,8
200,304,29855,2,0,B|200:184|80:184,1,190,0|8
24,232,30375,2,8,B|24:136,1,95
24,64,30722,5,4
96,40,30896,1,0
168,16,31069,1,8
152,88,31242,1,0
224,64,31416,1,0
296,40,31589,1,0
280,112,31763,1,8
352,88,31936,2,0,B|480:64|488:176,1,190
488,248,32456,1,8
416,264,32630,2,0,B|288:288|280:176,1,190
352,152,33150,2,0,B|392:176|416:160|400:144|376:168|432:192,2,95,8|0|4
256,192,33670,12,4,36271
256,40,41127,5,4
256,40,41474,1,4
168,160,41820,5,0
144,232,41994,1,0
216,216,42167,1,0
336,128,42514,1,8
376,192,42687,1,0
416,256,42861,1,0
352,296,43034,2,0,B|312:336|256:320,1,95
288,248,43381,1,2
216,216,43555,2,0,B|216:120,1,95,2|0
144,144,43901,1,8
144,296,44248,5,0
216,328,44422,1,0
152,368,44595,2,0,B|56:344,1,95
56,272,44942,1,0
56,120,45289,1,8
128,96,45462,1,0
200,104,45635,1,2
200,104,45722,1,0
200,104,45809,1,2
272,112,45982,6,0,B|360:168|464:128,1,190
408,72,46503,1,0
408,72,46676,2,0,B|360:144|392:256,1,190,8|2
256,328,47370,6,0,B|256:232,1,95
256,160,47716,1,2
216,96,47890,1,0
144,80,48063,1,8
72,96,48237,1,0
32,160,48410,1,2
72,224,48583,2,0,B|176:216|144:80,1,190
200,24,49104,2,0,B|296:24,1,95,2|0
368,24,49450,1,8
448,24,49624,1,0
408,88,49797,2,0,B|408:184,1,95,2|0
344,224,50144,6,0,B|256:288|168:224,1,190,0|8
96,208,50664,2,0,B|112:304|240:320,1,190
256,248,51185,1,8
279,318,51358,2,0,B|400:304|416:208,1,190
376,144,51878,1,8
360,72,52052,1,2
304,24,52225,1,0
280,56,52312,1,2
256,80,52398,1,0
232,56,52485,1,0
208,24,52572,1,8
152,72,52745,1,2
136,144,52919,5,2
160,296,53266,1,0
184,224,53439,1,0
328,224,53786,1,0
352,296,53959,1,0
296,344,54133,1,0
216,344,54306,1,0
256,272,54479,1,0
256,192,54653,1,0
256,112,54826,1,0
64,112,55346,6,0,B|56:144,7,23.75
56,152,55693,6,0,B|64:248,1,95
136,272,56040,1,8
200,224,56213,2,0,B|296:256,1,95,2|0
352,208,56560,1,0
352,288,56734,1,8
416,248,56907,2,0,B|464:208|480:104|416:88,1,190,2|2
344,88,57427,2,0,B|248:88,1,95,8|0
312,136,57774,2,0,B|224:176,1,95,2|0
304,184,58121,2,0,B|256:264,1,95,8|0
320,232,58468,6,0,B|320:352|432:360,1,190,0|8
488,312,58988,2,0,B|488:192|376:184,1,190,2|0
408,112,59508,1,8
344,64,59682,2,0,B|256:0|168:64,1,190,2|0
200,136,60202,1,8
168,208,60375,1,2
208,272,60549,2,0,B|304:272,1,95
336,208,60896,2,0,B|240:208,1,95,8|2
168,208,61242,6,0,B|64:160|104:48,1,190,2|8
200,136,61763,1,2
216,64,61936,1,0
296,64,62109,1,2
312,136,62283,1,8
344,208,62456,2,0,B|448:160|408:48,1,190,0|0
488,32,62976,1,8
488,32,63150,2,0,B|520:88|504:240|400:272,1,285,0|8
136,272,64017,5,0
160,200,64190,1,0
88,216,64364,1,8
104,144,64537,2,0,B|192:104|216:0,1,190,0|2
296,0,65057,2,0,B|320:104|408:144,1,190,8|2
448,80,65578,1,0
488,144,65751,1,8
440,208,65924,1,2
360,208,66098,1,0
208,208,66445,1,8
112,96,66792,6,0,B|176:24|280:8,1,190,2|8
400,288,67485,2,0,B|336:360|232:376,1,190,2|8
256,304,68005,2,0,B|256:112,1,190,0|2
216,48,68526,2,0,B|256:0|296:48,1,95,8|2
336,112,68872,1,0
328,184,69046,1,2
256,216,69219,1,8
184,184,69393,1,2
176,112,69566,5,0
200,256,69913,1,0
256,312,70086,1,2
256,160,70433,1,2
376,256,70780,2,0,B|456:184|408:80,1,190,2|0
336,96,71300,2,0,B|240:96,1,95,8|0
168,96,71647,1,0
152,168,71820,1,2
224,152,71994,1,8
208,224,72167,1,2
192,296,72341,6,0,B|256:312|272:240|272:240|288:160,1,190,0|8
360,176,72861,1,0
432,168,73034,1,0
448,96,73208,1,2
384,56,73381,1,8
320,88,73555,2,0,B|256:72|240:144|240:144|224:224,1,190,2|0
152,256,74075,2,0,B|56:272,1,95,8|2
112,216,74422,2,0,B|32:168,1,95,0|2
104,160,74768,2,0,B|80:64,1,95,8|2
144,112,75115,6,0,B|336:112,1,190,0|8
392,160,75635,1,2
320,296,75982,2,0,B|320:240|320:240|320:224|368:224|368:224|392:224|392:200|392:200|392:160,1,190,2|2
192,88,76503,2,0,B|192:144|192:144|192:160|144:160|144:160|120:160|120:184|120:184|120:224,1,190,2|8
184,264,77023,1,0
256,288,77196,1,0
256,136,77543,1,8
392,72,77890,5,2
392,72,78063,2,0,B|200:72,1,190,0|8
256,136,78583,2,0,B|448:136,1,190,10|8
496,200,79104,2,0,B|304:200,1,190,8|2
232,200,79624,1,0
256,272,79797,1,2
176,272,79971,1,8
152,200,80144,1,0
192,136,80318,2,0,B|192:40,1,95,2|0
128,80,80664,2,0,B|80:80,16,47.5,8|0|8|0|0|0|8|0|8|0|0|0|8|0|8|8|8
104,152,82225,5,0
112,224,82398,1,8
168,280,82572,2,0,B|256:344|344:280,1,190,0|2
288,232,83092,1,10
256,80,83439,5,0
256,152,83612,1,0
216,360,84479,5,0
296,360,84653,1,0
152,72,85346,5,0
192,136,85520,1,0
256,176,85693,1,0
320,136,85867,1,0
360,72,86040,1,0
296,40,86213,1,0
216,40,86387,1,0
216,352,87254,5,0
296,352,87427,1,0
368,80,88121,5,0
432,120,88294,1,0
456,192,88468,1,0
432,264,88641,1,0
368,304,88815,1,0
296,304,88988,1,4
144,56,100086,6,0,B|240:56,1,95,0|2
312,56,100433,1,8
360,120,100607,2,0,B|168:120,1,190,2|0
144,192,101127,1,8
72,224,101300,2,0,B|16:232|-8:288|16:344|72:352,1,190,2|2
136,304,101820,2,0,B|232:304,1,95,8|0
272,240,102167,2,0,B|168:240,1,95,8|2
216,176,102514,2,0,B|312:176,1,95,8|2
344,104,102861,5,4
408,320,103381,1,4
104,320,104075,1,4
256,296,104422,1,0
256,224,104595,2,0,B|256:128,1,95,8|0
208,72,104942,2,0,B|176:16|240:0,1,95,8|0
304,72,105289,2,0,B|336:16|272:0,1,95,8|0
256,136,105635,5,0
200,192,105809,1,0
128,224,105982,1,0
216,352,106329,1,8
296,352,106503,1,0
256,288,106676,1,0
328,288,106849,2,0,B|312:200|200:200|184:288,1,190,2|2
136,320,107370,1,0
64,312,107543,1,2
24,248,107716,1,8
80,104,108063,5,0
144,64,108237,1,0
192,120,108410,1,0
256,88,108583,1,2
320,120,108757,1,0
256,256,109104,1,8
320,120,109450,1,0
368,64,109624,1,2
432,104,109797,1,0
384,168,109971,2,0,B|416:208|480:216,3,95,2|0|2|8
336,288,110838,1,0
184,312,111185,5,0
216,240,111358,1,2
192,168,111531,1,8
120,152,111705,1,2
48,160,111878,1,0
72,88,112052,1,2
144,88,112225,2,0,B|192:112|240:80,1,95,8|0
368,296,112745,2,8,B|320:272|272:304,1,95,2|8
208,264,113092,2,0,B|288:176|432:256|464:152,1,285,0|8
320,96,113959,6,0,B|320:40|256:24|192:40|192:96,1,190,2|8
256,136,114479,2,0,B|192:232|88:192,1,190,0|2
144,136,115000,1,8
176,208,115173,1,0
144,280,115346,1,2
72,304,115520,1,0
8,256,115693,6,0,B|48:168,1,95,8|0
72,272,116040,2,0,B|160:224,1,95,2|0
128,312,116387,2,0,B|224:328,1,95,8|0
256,256,116734,5,4
128,176,117081,1,0
128,176,117254,1,2
384,176,117601,1,0
384,176,117774,1,2
192,80,118121,5,0
240,24,118294,1,0
312,40,118468,1,0
264,96,118641,1,0
256,320,119161,6,0,B|256:296,7,23.75
256,280,119508,6,0,B|176:224,1,95
256,104,119855,2,0,B|336:160,1,95,8|0
168,192,120202,2,0,B|224:112,1,95,0|0
344,192,120549,2,0,B|288:272,1,95,8|0
256,336,120896,5,0
184,336,121069,1,2
112,312,121242,1,8
56,256,121416,1,2
40,184,121589,2,0,B|88:88|192:64,1,190,0|8
256,72,122109,1,0
256,144,122283,6,0,B|224:224|288:264|256:336,1,190,0|8
192,288,122803,1,0
320,200,123150,1,0
368,256,123323,1,8
320,320,123497,2,0,B|384:368|504:336|488:200|408:184,1,285,0|8
360,136,124190,1,0
312,80,124364,1,0
296,48,124450,1,0
256,40,124537,1,0
216,48,124624,1,0
200,80,124711,1,8
152,136,124884,6,0,B|176:248|336:240|360:136,1,285,0|8
416,184,125578,1,0
376,248,125751,1,0
304,280,125924,1,0
256,344,126098,1,8
208,280,126271,1,0
136,248,126445,1,0
96,184,126618,1,0
160,152,126792,2,0,B|352:152,2,190,8|0|8
256,32,127832,5,0
200,80,128005,1,2
128,88,128179,1,8
56,120,128352,2,0,B|0:136|-8:192|0:248|56:264,1,190,2|0
120,304,128872,1,8
184,344,129046,2,0,B|240:328|248:272|240:216|184:200,1,190,2|2
120,240,129566,1,8
120,160,129740,1,2
184,112,129913,2,0,B|376:112,1,190,0|8
376,264,130607,6,0,B|360:144|496:160,1,190,0|8
496,232,131127,2,0,B|512:352|376:336,1,190,0|0
304,320,131647,1,8
280,288,131734,1,0
256,256,131820,1,0
216,192,131994,2,0,B|256:144|296:192,1,95
360,144,132341,2,0,B|344:96|296:80,1,95,8|0
216,80,132687,2,0,B|168:96|152:144,1,95
152,224,133034,1,8
152,304,133208,1,0
216,344,133381,5,0
256,200,133728,1,2
256,128,133901,1,2
400,168,134248,1,2
384,16,134595,2,0,B|256:136|128:16,1,285,0|8
120,96,135289,1,0
184,136,135462,1,0
256,144,135635,1,0
328,136,135809,1,8
392,96,135982,1,0
400,168,136156,6,0,B|400:360,1,190,0|8
328,368,136676,1,0
288,304,136849,1,0
328,240,137023,1,0
256,216,137196,1,8
184,240,137370,1,0
224,304,137543,2,0,B|152:384|48:344,1,190,0|8
96,280,138063,1,0
96,240,138150,1,0
96,200,138237,1,0
96,128,138410,2,0,B|120:80|176:72,2,95,0|8|0
168,160,138930,6,0,B|256:96|344:160,1,190,0|8
288,208,139450,1,0
256,192,139537,1,0
224,208,139624,1,0
256,280,139797,2,0,B|256:336|312:352,1,95,0|8
336,280,140144,6,0,B|376:192|488:176,1,190
504,248,140664,1,8
464,312,140838,1,0
392,328,141011,1,0
392,176,141358,1,0
256,104,141705,5,0
200,152,141878,1,2
128,184,142052,1,0
56,192,142225,1,2
24,264,142398,1,8
48,336,142572,1,0
120,344,142745,1,8
168,280,142919,1,10
344,280,143266,5,0
424,280,143439,1,8
384,136,143786,1,8
256,56,144133,2,0,B|256:8,2,47.5,8|0|8
256,136,144479,5,4
192,272,144826,1,0
120,304,145000,1,2
48,272,145173,1,8
48,200,145346,1,2
120,168,145520,1,2
192,200,145693,1,8
256,232,145867,2,0,B|448:232,1,190,2|4
480,160,146387,2,0,B|288:160,1,190,2|4
320,88,146907,5,8
352,64,146994,1,8
392,56,147081,1,8
432,64,147167,1,8
464,88,147254,1,8
184,56,152109,5,8
256,72,152283,1,8
328,56,152456,1,10
384,200,152803,2,0,B|304:232|360:280|360:312|344:344|288:360|256:368|256:368|224:360|168:344|152:312|152:280|208:232|128:200,1,475
256,160,154884,1,8
256,80,155231,1,2
256,80,155404,2,0,B|352:168|496:144,1,237.5,2|8
448,80,156618,5,0
448,80,156792,1,8
304,120,157138,1,0
304,120,157312,1,8
424,216,157659,1,0
424,216,157832,1,8
360,264,158005,1,0
360,264,158179,1,0
288,280,158352,1,4
256,48,169450,5,0
280,120,169624,1,0
216,160,169797,1,2
256,336,170144,1,8
232,264,170318,1,0
296,224,170491,1,2
320,296,170664,2,0,B|416:296,1,95
440,224,171011,1,2
368,208,171185,2,0,B|368:112|368:112|440:112|440:64,1,190,0|8
296,128,171878,5,0
224,104,172052,1,0
160,152,172225,2,0,B|112:128|64:144,2,95
248,272,172919,1,8
304,328,173092,1,2
384,328,173266,1,2
440,272,173439,1,0
392,208,173612,6,0,B|296:208,1,95
256,144,173959,2,0,B|360:144,1,95,0|2
304,80,174306,1,8
208,200,174653,1,0
256,344,175000,5,0
200,296,175173,1,0
144,248,175346,1,8
256,144,175693,1,0
256,64,175867,1,0
320,104,176040,1,8
392,104,176213,2,0,B|480:112|528:184|480:256,1,190,0|0
456,296,176734,1,8
304,320,177081,2,0,B|320:368,2,47.5
224,320,177427,2,0,B|208:272,2,47.5,8|0|0
128,264,177774,6,0,B|128:72,1,190,0|8
192,40,178294,1,0
256,80,178468,1,0
320,40,178641,1,0
384,80,178815,2,0,B|384:272,1,190,8|0
256,192,179508,1,8
216,256,179682,2,0,B|256:304|296:256,1,95
220,125,180029,2,0,B|159:136|180:194,1,95,0|8
331,194,180375,2,0,B|352:136|291:125,1,95,0|6
152,96,180896,5,0
216,56,181069,1,2
360,96,181416,1,0
296,56,181589,1,2
256,120,181763,1,0
256,192,181936,5,0
192,240,182109,1,0
256,280,182283,1,0
320,240,182456,1,0
256,32,183323,6,0,B|160:32,1,95
88,32,183844,1,0
32,88,184017,1,2
32,240,184364,1,0
32,240,184537,2,0,B|128:240,1,95,2|0
128,160,185057,1,2
432,184,185751,5,0
376,128,185924,1,0
304,96,186098,2,0,B|208:96,1,95,2|0
136,128,186618,1,0
80,184,186792,1,2
112,248,186965,1,0
80,312,187138,1,0
152,344,187312,2,0,B|192:304,1,47.5,0|2
256,96,188005,5,0
240,168,188179,1,2
304,208,188352,1,0
320,136,188526,1,0
376,192,188699,1,2
256,288,189393,5,0
272,216,189566,1,2
208,176,189740,1,0
192,248,189913,1,0
136,192,190086,1,2
304,40,190953,6,2,B|208:40,1,95
192,192,191647,2,0,B|192:144|144:104,1,95,0|2
320,192,192167,2,0,B|320:240|368:280,1,95,0|2
256,192,192861,12,4,194422
136,72,194768,5,8
376,312,195115,1,0
376,72,195462,1,8
312,112,195635,1,0
240,136,195809,2,0,B|208:208|136:176|152:256|88:256,1,190,0|8
272,248,196329,2,0,B|304:176|376:208|360:128|424:128,1,190,0|0
440,200,196849,2,0,B|496:184|504:136,1,95,8|0
384,240,197196,5,0
256,160,197543,1,0
256,232,197716,1,0
104,240,198063,1,0
104,88,198410,2,0,B|112:0|256:-24|400:0|408:88,1,380
368,152,199277,1,0
312,208,199450,1,0
232,208,199624,1,8
192,272,199797,6,0,B|128:184|192:96,2,190
128,312,200664,1,0
192,352,200838,1,0
256,312,201011,1,8
320,352,201185,1,0
384,312,201359,1,0
328,264,201531,1,0
256,232,201705,1,8
256,160,201878,1,0
256,80,202052,6,0,B|248:32|176:16,1,95
256,80,202398,2,0,B|264:32|336:16,1,95,8|0
400,32,202745,2,0,B|496:32|528:112|448:264|352:152,1,285
256,264,203612,1,0
256,264,203959,2,0,B|216:176|296:176|256:80,1,190
200,136,204479,1,8
176,208,204653,1,0
184,280,204826,1,0
240,336,205000,1,0
312,352,205173,1,8
320,200,205520,5,0
320,200,205693,2,0,B|176:200,1,142.5,0|8
128,136,206560,1,8
128,136,206734,2,0,B|272:136,1,142.5,8|8
320,72,207601,1,2
360,72,207774,1,2
400,72,207948,1,8
440,72,208121,1,2
480,72,208294,2,0,B|480:40,12,23.75,8|0|8|0|8|0|8|0|8|0|0|0|2
448,144,209682,6,0,B|352:128,1,95,0|8
336,160,210202,2,0,B|256:216,1,95,8|8
256,256,210722,2,0,B|256:288,3,23.75,2|0|2|0
256,320,211069,5,8
160,320,211242,1,8
112,240,211416,1,0
136,144,211589,1,2
256,64,212109,5,8
352,64,212282,1,8
400,144,212456,1,0
376,240,212629,1,2
288,272,212803,1,0
200,232,212977,1,8
192,136,213150,1,8
128,64,213323,1,8
40,104,213497,1,8
104,176,213670,1,8
40,240,213844,5,8
104,304,214017,1,8
192,328,214190,1,0
288,336,214364,1,2
320,56,214884,1,8
224,72,215057,1,8
288,144,215231,1,0
384,136,215404,1,2
256,272,215751,5,8
200,192,215924,1,8
104,216,216098,1,8
48,136,216271,1,8
104,56,216445,1,8
200,40,216618,1,4
152,192,227716,6,0,B|208:112|88:32|40:96,1,190,4|8
88,168,228237,2,0,B|32:248|152:328|200:264,1,190,0|0
256,240,228757,1,10
256,144,228930,1,2
256,48,229104,6,0,B|160:48,1,95,2|0
256,48,229450,2,0,B|352:48,1,95,8|0
256,48,229797,2,0,B|192:120,1,95,8|2
256,48,230144,2,0,B|320:120,1,95,8|2
256,192,230491,5,4
200,264,230664,1,0
104,280,230838,1,8
96,184,231011,1,0
176,136,231185,1,0
256,80,231358,1,0
336,136,231531,1,8
416,184,231705,1,0
408,280,231878,1,0
312,264,232052,1,0
256,192,232225,6,0,B|256:96,1,95,8|0
256,192,232572,2,0,B|336:136,1,95,8|0
256,192,232919,2,0,B|176:136,1,95,8|0
256,88,233266,5,4
176,40,233439,1,0
88,72,233612,1,8
56,160,233786,1,0
256,296,234133,5,0
336,344,234306,1,8
424,312,234479,1,0
456,224,234653,1,0
376,168,234826,2,0,B|280:200,1,95,0|8
296,104,235173,2,0,B|288:200,1,95,0|8
200,168,235520,2,0,B|288:200,1,95,0|8
256,288,235867,1,0
168,256,236040,6,0,B|80:176|144:48,1,190,4|8
208,32,236560,1,0
256,32,236647,1,0
304,32,236734,1,0
352,112,236907,1,0
304,112,236994,1,0
256,112,237081,1,8
208,192,237254,1,0
256,192,237341,1,0
304,192,237427,1,4
256,272,237601,5,8
144,264,237774,1,8
112,152,237948,1,8
144,40,238121,1,8
256,16,238294,1,8
368,40,238468,1,8
400,152,238641,1,8
256,192,238815,12,0,244364
