osu file format v9

[General]
AudioFilename: Memories Last.mp3
AudioLeadIn: 0
PreviewTime: 52832
Countdown: 0
SampleSet: Soft
StackLeniency: 0.5
Mode: 0
LetterboxInBreaks: 1

[Editor]
Bookmarks: 40082,99555,141602
DistanceSpacing: 1.1
BeatDivisor: 4
GridSize: 8

[Metadata]
Title:Memories Last
Artist:Maon Kurosaki
Creator:Aldwych
Version:Insane collab
Source:To aru Majutsu no Index II
Tags:Kamijou Touma Mikoto Misaka Accelerator mint_ong89

[Difficulty]
HPDrainRate:5
CircleSize:4
OverallDifficulty:7
ApproachRate:8
SliderMultiplier:1.8
SliderTickRate:1

[Events]
//Background and Video events
0,0,"BG memories last.jpg"
//Break Periods
2,40112,53035
2,87280,102977
2,103927,116850
2,167742,180665
2,181615,191764
2,192714,202862
2,203812,213960
//Storyboard Layer 0 (Background)
//Storyboard Layer 1 (Fail)
//Storyboard Layer 2 (Pass)
//Storyboard Layer 3 (Foreground)
//Storyboard Sound Samples
//Background Colour Transformations
3,100,163,162,255

[TimingPoints]
1069,346.820809248555,4,2,1,100,1,0
9392,-100,4,2,1,30,0,0
12167,-100,4,2,1,100,0,0
23092,-100,4,2,0,100,0,0
39652,-100,4,1,1,100,0,0
53785,-100,4,1,1,100,0,1
75982,-100,4,2,1,70,0,0
81531,-100,4,1,1,100,0,0
87080,-100,4,2,1,100,0,0
98352,-100,4,2,2,100,0,0
98699,-100,4,2,1,100,0,0
99045,-100,4,2,2,100,0,0
99392,-100,4,2,1,100,0,0
99739,-100,4,2,2,100,0,0
99912,-100,4,2,1,100,0,0
103727,-100,4,2,1,51,0,0
117600,-100,4,1,1,80,0,1
139797,-100,4,2,1,60,0,0
141358,-100,4,2,2,60,0,0
145346,-100,4,2,1,60,0,0
150895,-200,4,2,1,60,0,0
155057,-133.333333333333,4,2,1,60,0,0
155751,-100,4,2,1,60,0,0
192514,-100,4,2,1,60,0,1
203612,-100,4,2,1,60,0,0
236907,-100,4,2,1,30,0,0

[Colours]
Combo1 : 166,166,166
Combo2 : 0,149,149
Combo3 : 248,193,5
Combo4 : 3,29,133

[HitObjects]
208,208,1069,1,0
144,264,1242,1,0
80,328,1415,1,0
56,240,1589,2,0,B|88:176|144:160|192:184|224:224,1,180
344,320,2282,2,0,B|356:339|404:363|460:347|492:283,1,180
408,216,2803,1,0
296,248,2976,1,0
320,136,3149,1,0
400,256,3323,1,0
256,240,3496,1,0
352,136,3670,1,0
432,96,3843,6,0,B|392:40|328:56,1,90
288,112,4190,2,0,B|248:152|200:112,1,90
48,40,4710,1,0
144,288,5057,1,0
408,216,5404,1,0
400,304,5577,2,0,B|352:304|320:240,1,90
248,296,5924,2,0,B|224:240|272:184,1,90
168,184,6271,2,0,B|176:128|248:120,1,90
312,96,6618,5,0
184,56,6791,1,0
120,120,6964,2,0,B|72:88|96:24,1,90
40,304,7485,2,0,B|128:352|232:304,2,180
104,240,8352,1,0
176,184,8525,1,0
248,128,8699,1,0
320,72,8872,1,0
400,32,9045,2,0,B|432:80|384:128,1,90
336,184,9392,5,0
424,184,9566,2,0,B|424:232|384:264|352:272,1,90
312,312,9912,1,0
120,120,10259,1,0
376,32,10606,1,0
344,208,10953,1,0
304,232,11040,1,0
264,256,11126,1,0
184,304,11300,2,0,B|88:256|96:144,1,180
104,72,11820,1,0
136,104,11907,1,0
168,136,11993,1,0
200,168,12080,1,0
232,200,12167,1,2
336,280,12340,5,0
392,168,12514,2,0,B|416:112|368:56,1,90,8|0
256,56,12860,1,0
120,80,13034,2,0,B|96:128|128:184,1,90,0|8
256,56,13381,1,0
256,160,13554,1,0
128,248,13727,6,0,B|152:295|205:304,1,90,0|4
384,136,14074,2,0,B|359:88|306:79,1,90,0|4
128,136,14421,2,0,B|152:88|205:79,1,90,0|4
384,248,14768,2,0,B|359:295|306:304,1,90,0|0
232,208,15115,5,0
256,64,15288,2,0,B|304:80|304:136,1,90,8|0
448,136,15635,1,0
384,248,15808,1,0
256,288,15982,1,8
96,248,16155,2,0,B|48:160|104:72,1,180,0|0
100,77,16675,1,4
288,224,17022,1,4
320,64,17369,6,0,B|368:64|392:112,2,90
384,288,17889,2,0,B|352:328|296:304,1,90,0|8
112,112,18236,2,0,B|168:80|208:112,1,90
208,288,18583,1,0
264,128,18756,1,8
320,288,18930,1,0
264,128,19103,2,0,B|264:24,1,90
128,248,19450,6,0,B|152:295|205:304,1,90,4|0
384,136,19797,2,0,B|359:88|306:79,1,90,4|0
128,136,20144,2,0,B|152:88|205:79,1,90,4|0
384,248,20491,2,0,B|359:295|306:304,1,90
200,248,20837,1,8
256,88,21011,1,0
312,248,21184,2,0,B|304:304|240:312,1,90
144,312,21531,2,0,B|96:296|88:248,1,90,8|4
72,56,22051,5,4
104,152,22225,1,0
200,176,22398,1,0
43,263,22571,1,4
124,320,22745,1,0
224,320,22918,1,0
284,248,23092,6,0,B|336:244|368:208,1,90
440,160,23438,1,0
364,112,23612,2,0,B|396:64|456:72,2,90
240,168,24132,1,0
116,112,24305,2,0,B|84:64|24:72,2,90
160,192,24826,1,0
180,232,24999,1,0
200,272,25173,1,0
476,40,25866,6,0,B|476:144|372:200,1,180
328,124,26386,2,0,B|284:100|240:124,2,90
292,208,26907,1,0
248,288,27080,1,0
200,364,27253,2,0,B|100:356|40:280,1,180
44,196,27774,2,0,B|96:196|128:248,1,90
192,184,28121,1,0
272,76,28294,1,0
344,192,28467,1,0
392,268,28641,6,0,B|344:292|288:264,1,90
224,232,28988,2,0,B|184:211|136:235,1,90
188,308,29334,2,0,B|248:340|304:304|328:244|304:196,1,180
224,232,29855,1,0
260,152,30028,2,0,B|200:128|144:160|120:216|144:264,1,180
136,280,30548,1,0
136,324,30722,1,0
360,176,31242,5,0
272,76,31415,1,0
140,40,31589,1,4
484,256,32109,2,0,B|472:328|408:364|332:320,1,180
392,252,32629,1,0
256,192,32803,12,0,34363
172,304,34710,5,0
348,340,35057,2,0,B|412:264,1,90
384,184,35404,2,0,B|326:252,1,90
256,196,35751,1,0
256,100,36097,5,0
204,272,36271,1,0
348,164,36444,1,0
168,164,36618,1,0
312,272,36791,1,0
144,336,37138,6,0,B|64:296|32:192|104:100,1,270
168,164,37832,1,0
240,216,38005,1,0
312,272,38178,1,0
384,324,38352,2,0,B|452:237|420:133|340:93,1,270
72,72,39219,5,0
112,88,39305,1,0
144,120,39392,1,0
168,160,39479,1,0
172,204,39566,1,0
180,248,39652,1,0
204,288,39739,1,0
236,320,39826,1,0
276,336,39912,1,0
256,192,53785,6,0,B|272:140|308:108|360:108|400:124,1,180,4|8
456,192,54305,1,0
400,264,54479,2,0,B|344:192,1,90
284,124,54826,5,8
196,124,54999,2,0,B|128:184|128:184|40:192,1,180
8,108,55519,2,0,B|96:100|96:100|164:40,1,180,8|0
256,40,56040,1,0
284,124,56213,6,0,B|236:200,1,90,8|0
280,280,56560,2,0,B|375:128,1,180,0|8
464,140,57080,1,0
484,228,57253,2,0,B|476:276|432:296,2,90,0|0|8
400,192,57774,2,0,B|352:208|304:200|268:168|256:120,1,180
256,32,58294,5,8
352,124,58467,1,0
256,32,58641,1,0
160,124,58814,1,0
256,32,58988,1,8
352,124,59161,1,0
256,32,59334,6,0,B|256:212,1,180,4|8
256,304,59855,1,0
176,344,60028,2,0,B|124:324|100:280|112:232|148:200,1,180,0|8
336,344,60548,2,0,B|388:324|412:280|400:232|364:200,1,180
276,180,61069,5,8
204,236,61242,1,0
116,248,61415,2,0,B|80:224|64:176,1,90
180,104,61762,2,0,B|164:56|128:32,1,90,8|0
8,96,62109,6,0,B|-8:184|-8:184|24:268,1,180,4|8
104,316,62629,1,0
192,288,62803,1,0
256,172,62976,1,0
320,288,63149,1,8
256,172,63323,6,0,B|276:124|320:104|372:104|408:136,1,180,4|0
256,172,63843,2,0,B|236:124|192:104|140:104|104:136,1,180,12|8
48,256,64363,1,0
172,204,64537,1,8
172,204,64623,1,0
172,204,64710,1,0
232,272,64884,6,0,B|276:296|324:300|368:268|384:224,1,180,4|8
368,136,65404,1,0
304,76,65577,2,0,B|212:76,1,90
172,204,65924,2,0,B|264:204,2,90,8|0|0
104,264,66444,5,0
124,352,66618,2,0,B|172:360|208:332,1,90,8|0
388,352,66964,2,0,B|340:360|304:332,1,90
256,252,67311,1,8
256,116,67485,1,0
256,252,67658,6,0,B|204:249|165:218|144:169|159:127,1,180,0|8
256,252,68178,2,0,B|307:249|346:218|367:169|352:127,1,180
256,36,68699,1,8
256,172,68872,6,0,B|221:205|172:218|121:198|100:157,1,180,4|0
16,192,69392,5,8
56,272,69566,1,0
136,312,69739,2,0,B|220:284,1,90,8|0
256,200,70086,1,0
276,176,70173,1,0
304,160,70259,1,0
336,156,70346,1,0
368,164,70433,6,0,B|368:344,1,180,4|8
456,364,70953,1,0
504,288,71126,1,0
448,216,71300,1,0
368,252,71473,1,8
368,344,71647,2,0,B|280:368|280:368|192:348,1,180
128,288,72167,5,8
200,236,72340,1,0
132,176,72514,1,0
208,132,72687,1,0
140,72,72860,1,8
220,28,73034,1,0
304,56,73207,6,0,B|304:236,1,180,0|8
256,312,73727,1,0
168,332,73901,1,0
96,280,74074,1,0
168,332,74248,5,8
256,312,74421,2,0,B|292:280|344:272|392:296|408:340,1,180
468,272,74941,2,0,B|428:192,1,90,8|0
312,120,75288,2,0,B|352:200,2,90,8|0|8
256,224,75808,5,0
256,224,75895,1,0
256,224,75982,1,4
356,288,76155,2,0,B|376:244|352:200,1,90
280,144,76502,1,0
200,96,76675,2,0,B|112:32|24:96,1,180
112,136,77196,2,0,B|200:200|288:136,1,180
360,96,77716,2,0,B|418:175|354:263,1,180
176,288,78410,2,0,B|243:347,2,90
272,136,79103,5,0
200,80,79277,1,0
184,168,79450,1,0
360,320,79797,1,0
448,240,79970,1,0
408,128,80144,1,0
248,208,80490,1,0
160,312,80664,2,0,B|200:352|256:344,2,90
48,232,81184,1,0
136,200,81358,1,0
152,112,81531,5,0
32,48,81704,1,0
448,224,82571,5,0
320,272,82745,1,0
40,48,83438,5,0
176,56,83612,1,0
56,120,83785,1,0
192,128,83958,1,0
72,192,84132,1,0
208,200,84305,1,0
120,120,84479,1,0
320,64,85346,5,0
408,168,85519,1,0
88,328,86213,6,0,B|24:256,2,90
128,248,86733,1,0
152,208,86820,1,0
192,184,86907,1,0
240,176,86993,1,0
280,192,87080,1,0
272,240,103727,5,0
152,248,117600,6,0,B|136:208|136:156,1,90
180,80,117947,1,8
252,132,118121,1,0
340,112,118294,2,0,B|392:112|440:108,1,90
384,32,118641,1,8
408,192,118814,2,0,B|432:240|416:288,1,90
332,248,119161,1,0
332,248,119334,2,0,B|288:236|268:196|268:196|216:224|140:216,1,180,8|0
84,224,119855,1,0
248,280,120028,5,8
256,192,120201,1,0
268,104,120375,2,0,B|312:92|360:84,1,90,4|0
355,84,120722,1,8
216,32,120895,2,0,B|128:20|20:36,1,180
8,168,121415,1,8
52,296,121589,2,0,B|112:288|168:272,1,90
192,204,121936,1,0
152,124,122109,1,8
304,212,122282,5,0
300,224,122369,1,0
296,236,122456,1,0
228,296,122629,1,0
92,200,122803,1,8
236,128,122976,1,0
380,204,123149,6,0,B|372:256|368:304,2,90,4|0|8
320,84,123670,2,0,B|288:48|248:28|248:28|192:36|144:68,1,180
196,188,124190,1,8
196,188,124363,2,0,B|240:156|232:88,1,90
144,120,124710,1,0
112,204,124884,2,0,B|136:300,1,90,8|0
292,324,125230,6,0,B|240:308|216:260,1,90
312,100,125577,2,0,B|364:116|388:164,1,90,8|0
296,180,125924,6,0,B|208:220|96:168,1,180,0|8
108,28,126444,6,0,B|160:12|216:28,1,90
400,104,126791,2,0,B|348:88|292:104,1,90,0|8
96,204,127138,2,0,B|200:196|292:208,1,180
408,228,127658,5,8
324,200,127832,1,0
244,244,128005,1,0
324,280,128178,5,0
204,124,128352,1,8
32,172,128525,1,0
32,172,128612,1,0
32,172,128699,6,0,B|76:184|120:192,1,90,4|0
208,192,129045,1,8
284,144,129219,1,0
356,88,129392,2,0,B|368:156|380:204,1,90
444,120,129739,1,8
284,144,129912,2,0,B|264:88|260:32,1,90
444,120,130259,1,0
444,120,130433,2,0,B|496:196|484:312,1,180,8|0
404,332,130953,1,0
328,288,131126,6,0,B|228:304,1,90,8|0
152,280,131473,1,0
96,156,131647,1,0
212,88,131820,1,8
272,208,131993,5,0
256,204,132340,1,0
240,200,132687,2,0,B|144:192|32:208,1,180,4|0
60,204,133207,1,8
112,80,133381,1,0
124,72,133467,1,0
136,64,133554,1,0
224,40,133727,1,0
308,76,133901,1,8
392,44,134074,1,0
308,76,134248,6,0,B|296:120|276:164,1,90,4|0
280,252,134595,1,8
204,204,134768,2,0,B|156:192|132:152|132:152|96:184|32:192,1,180
116,252,135288,1,8
216,124,135462,2,0,B|224:20,1,90
64,24,135808,1,0
64,24,135982,2,0,B|12:104|40:208,1,180,8|0
124,224,136502,1,0
72,296,136675,1,8
72,296,136849,1,0
160,304,137022,6,0,B|220:288|276:284,1,90
340,288,137369,1,8
428,296,137542,2,0,B|460:256|452:200,1,90
472,76,137889,2,0,B|428:48|384:56,1,90,0|8
212,104,138236,2,0,B|168:192|200:288,1,180
404,196,138756,5,8
328,240,138930,1,0
324,152,139103,5,0
444,220,139277,1,0
284,296,139450,1,8
316,120,139623,1,0
488,256,139797,1,4
352,192,139970,6,0,B|304:176|248:200,1,90
184,232,140317,1,0
184,320,140490,2,0,B|104:320|80:248|104:192,1,180
184,232,141011,2,0,B|104:320|8:224,1,180
104,128,141531,1,0
256,232,141878,2,0,B|320:152|264:64,2,180
424,296,142918,6,0,B|376:272|336:296,2,90
456,120,143612,1,0
400,48,143785,1,0
312,32,143959,1,0
296,208,144305,1,0
184,288,144479,2,0,B|248:352,2,90
80,200,144999,1,0
128,128,145173,1,0
216,104,145346,1,0
192,192,145519,5,0
216,216,145866,1,0
240,240,146213,1,0
240,240,146386,1,0
320,288,146560,2,0,B|360:240|312:184,1,90
416,192,146907,2,0,B|400:136|352:120,1,90
192,56,147427,1,0
168,80,147774,1,0
144,104,148121,1,0
64,144,148294,6,0,B|40:104|72:48,2,90
168,288,148988,1,0
328,208,149334,1,0
464,96,149681,2,0,B|424:48|368:56,1,90
208,40,150201,5,0
240,120,150375,1,0
168,176,150548,1,0
216,256,150722,1,0
216,256,150895,6,0,B|248:288|344:224|248:144|184:160|136:168|96:224|96:328|160:416|312:424|424:424|488:136|408:80|248:-16|64:64|-24:128|56:352|136:408|264:424|360:296,1,1080
392,256,155230,6,0,B|400:216|384:176,1,67.5000025749208
264,56,155751,5,0
174,65,155924,1,0
156,153,156097,1,0
235,198,156271,1,0
300,135,156444,6,0,B|344:108|392:112|432:144|440:192,1,180,4|0
416,280,156964,1,0
340,332,157138,2,0,B|292:340|256:312,2,90
336,240,157658,2,0,B|304:204|256:192|208:204|176:240,1,180
140,324,158178,5,0
176,239,158352,1,0
92,276,158525,1,0
176,239,158699,1,0
92,208,158872,1,0
176,239,159045,1,0
136,156,159219,6,0,B|129:105|161:63|213:51|256:74,1,180
328,132,159739,1,0
328,220,159912,2,0,B|256:276,2,90
416,208,160433,2,0,B|444:252|444:296|416:336|364:352,1,180
256,312,160953,5,0
364,264,161126,1,0
256,224,161300,1,0
364,176,161473,1,0
256,136,161647,6,0,B|264:88|300:56|352:44|396:64,2,180,0|4|0
256,224,162514,1,0
188,284,162687,1,0
104,256,162860,2,0,B|24:208,1,90
28,120,163207,2,0,B|182:212,1,180
256,316,163727,5,0
329,212,163901,1,0
256,316,164074,1,0
182,212,164248,1,0
256,316,164421,1,0
329,212,164595,1,0
256,316,164768,6,0,B|256:136,1,180,4|0
320,72,165288,1,0
404,104,165462,1,0
408,192,165635,1,0
332,236,165808,2,0,B|276:236|256:192|236:148|180:148,1,180
104,192,166329,5,0
120,280,166502,2,0,B|200:324,1,90
264,260,166849,2,0,B|184:216,1,90
252,156,167196,2,0,B|332:200,1,90
388,268,167542,5,4
304,232,181415,5,0
200,192,192514,5,0
240,200,203612,5,0
208,120,214710,6,0,B|256:216|376:224,1,180
400,144,215230,1,0
296,288,215577,2,0,B|246:195|294:115,1,180
112,88,216271,1,0
64,160,216444,1,0
96,248,216618,1,0
176,296,216791,2,0,B|136:344|64:336,2,90
216,272,217225,1,0
256,248,217311,1,0
296,272,217398,1,0
336,296,217485,6,0,B|376:360|512:320,1,180
464,240,218005,2,0,B|400:256|368:224,1,90
424,152,218352,1,0
480,32,218525,1,0
344,48,218699,2,0,B|224:64|216:168,1,180
136,128,219219,2,0,B|128:184|168:224,1,90
80,256,219566,2,0,B|104:304|160:304,1,90
240,288,219912,1,0
272,256,219999,1,0
304,224,220086,1,0
336,192,220173,1,0
368,160,220259,5,0
208,80,220606,2,0,B|160:112|104:80,2,90
288,40,221126,1,0
352,104,221300,2,0,B|272:152,1,90
200,312,221820,2,0,B|128:240,1,90
224,240,222167,2,0,B|160:176,2,90
296,296,222687,1,0
336,312,222774,1,0
384,304,222860,1,0
416,272,222947,1,0
416,224,223034,5,0
448,48,223381,2,0,B|408:32|408:72|360:48,2,90
352,144,223901,1,0
248,232,224074,1,0
152,328,224248,2,0,B|56:312|24:184,1,180
120,192,224768,2,0,B|136:240|200:256,2,90
208,168,225288,1,0
240,80,225462,1,0
272,112,225548,1,0
304,144,225635,1,0
336,176,225722,1,0
368,208,225808,6,0,B|456:136|392:40,1,180
488,72,226329,2,0,B|432:160|312:120,1,180
208,64,226849,1,0
192,200,227022,2,0,B|160:288|40:280,1,180
96,208,227542,1,0
160,144,227716,1,0
88,88,227889,1,0
152,24,228063,1,0
240,56,228236,1,0
240,56,228323,1,0
240,56,228410,1,0
240,56,228496,1,0
240,56,228583,6,0,B|368:64|408:152,1,180
424,216,229103,1,0
288,336,229450,1,0
208,224,229623,1,0
80,184,229797,1,0
248,128,230144,2,0,B|256:80|208:56,1,90
296,40,230490,2,0,B|344:64|384:40,1,90
472,56,230837,2,0,B|424:80|432:144,1,90
424,176,231097,1,0
416,224,231184,1,0
408,264,231271,1,0
400,312,231358,6,0,B|336:360|224:352,1,180
144,312,231878,2,0,B|208:264|320:272,1,180
248,160,232398,1,0
192,40,232571,2,0,B|84:32|20:80,1,180
56,168,233092,1,0
168,240,233265,1,0
128,112,233438,1,0
80,240,233612,1,0
192,168,233785,1,0
240,144,233872,1,0
280,128,233959,1,0
328,136,234045,1,0
368,160,234132,5,0
336,336,234479,2,0,B|272:304|264:248,1,90
192,320,234826,2,0,B|160:280|192:216,1,90
96,224,235173,2,0,B|112:168|160:152,1,90
312,72,235693,5,0
384,184,235866,1,0
248,176,236040,1,0
344,40,236213,1,0
384,200,236386,1,0
240,128,236560,1,0
400,40,236733,1,0
256,192,236907,12,0,241936
