osu file format v9

[General]
AudioFilename: Memories Last.mp3
AudioLeadIn: 0
PreviewTime: 52832
Countdown: 0
SampleSet: Soft
StackLeniency: 0.5
Mode: 0
LetterboxInBreaks: 1

[Editor]
Bookmarks: 40082,99555,141602
DistanceSpacing: 1
BeatDivisor: 2
GridSize: 8

[Metadata]
Title:Memories Last
Artist:Maon Kurosaki
Creator:Aldwych
Version:Easy
Source:To aru Majutsu no Index II
Tags:Kamijou Touma Mikoto Misaka Accelerator mint_ong89

[Difficulty]
HPDrainRate:3
CircleSize:4
OverallDifficulty:4
ApproachRate:4
SliderMultiplier:0.7
SliderTickRate:1

[Events]
//Background and Video events
0,0,"BG memories last.jpg"
//Break Periods
2,34563,37899
2,98378,102407
//Storyboard Layer 0 (Background)
//Storyboard Layer 1 (Fail)
//Storyboard Layer 2 (Pass)
//Storyboard Layer 3 (Foreground)
//Storyboard Sound Samples
//Background Colour Transformations
3,100,163,162,255

[TimingPoints]
1069,346.820809248555,4,2,1,100,1,0
9392,-100,4,2,1,30,0,0
12167,-100,4,2,1,100,0,0
23092,-100,4,2,0,100,0,0
39652,-100,4,1,1,100,0,0
53785,-100,4,1,1,100,0,1
75982,-100,4,2,1,70,0,0
81531,-100,4,1,1,100,0,0
87080,-100,4,2,1,100,0,0
98352,-100,4,2,2,100,0,0
98699,-100,4,2,1,100,0,0
99045,-100,4,2,2,100,0,0
99392,-100,4,2,1,100,0,0
99739,-100,4,2,2,100,0,0
99912,-100,4,2,1,100,0,0
103727,-100,4,2,1,51,0,0
117600,-100,4,1,1,100,0,1
139797,-100,4,2,1,60,0,0
141358,-100,4,2,2,60,0,0
142398,-133.333333333333,4,2,1,60,0,0
143092,-133.333333333333,4,2,2,40,0,0
144826,-133.333333333333,4,2,1,60,0,0
145346,-100,4,2,1,60,0,0
192514,-100,4,2,1,60,0,1
203612,-100,4,2,1,60,0,0

[Colours]
Combo1 : 166,166,166
Combo2 : 0,149,149
Combo3 : 248,193,5
Combo4 : 3,29,133

[HitObjects]
256,240,12167,2,0,B|168:288|72:208|112:112,1,245
208,144,13901,1,0
272,120,14248,1,0
336,144,14595,1,0
400,176,14941,6,0,B|480:248|400:352|320:344,1,245
328,240,16675,1,0
264,264,17022,1,0
200,240,17369,1,0
144,200,17716,6,0,B|88:128|136:16|232:24,1,245
224,128,19450,1,0
264,184,19797,1,0
304,240,20144,1,0
344,296,20490,6,0,B|256:344|160:264|200:168,1,245
264,208,22051,2,0,B|299:123|203:43|115:91,1,245
88,152,23612,5,0
160,272,24305,1,0
296,312,24999,1,0
296,312,25346,2,0,B|360:352,2,70
240,272,26386,5,0
128,192,27080,1,0
216,80,27774,1,0
216,80,28121,2,0,B|160:32,2,70
224,152,29161,6,0,B|288:192|256:288,1,140
160,232,30375,2,0,B|144:184|88:184,1,70
256,192,31242,12,0,34363
136,280,39219,6,0,B|128:192|232:168,1,140
256,232,40259,2,0,B|304:208|304:136|248:104,1,140
400,112,41647,1,0
424,176,41993,1,0
448,240,42340,6,0,B|448:344|312:320,1,175
264,280,43554,1,0
208,232,43901,1,0
248,136,44768,6,0,B|352:240,1,140
320,304,45808,2,0,B|264:248,1,70
240,320,46502,2,0,B|136:216,1,140
136,80,47889,5,0
168,144,48236,2,0,B|104:168|64:104,2,105
256,192,49450,12,0,51011
152,208,53785,6,0,B|240:232|264:136,1,140
208,96,54826,2,0,B|152:40,2,70,0|0|0
320,176,56213,6,0,B|288:264|208:296|120:264,1,245
64,232,57774,1,0
192,176,58467,6,0,B|216:272|152:320,1,140,0|0
272,208,59855,2,0,B|248:112|312:64,1,140,0|0
424,200,61415,5,0
424,200,61762,1,0
424,200,62109,1,0
360,176,62456,2,0,B|376:120|456:112|480:168,2,140
328,240,64190,6,0,B|272:248|264:304|264:304|216:304,2,140
336,312,65924,2,0,B|400:304|424:232|376:184,1,140
256,192,67311,6,0,B|160:144|208:16,1,175
199,43,68525,1,0
199,43,68872,1,0
96,144,69566,6,0,B|56:296,1,140
184,216,70953,2,0,B|224:64,1,140
336,216,72514,5,0
400,200,72860,1,0
432,136,73207,1,0
400,72,73554,2,0,B|312:8|224:72,2,175
312,184,75982,5,0
176,144,76675,2,0,B|160:80|88:64,2,105
208,208,78063,1,0
336,256,78756,5,0
368,120,79450,1,0
368,120,79797,6,0,B|344:80|296:80,1,70
304,152,80490,2,0,B|248:144|224:88|256:32,1,140
176,48,81531,6,0,B|144:80,1,35
96,240,82571,2,0,B|128:272,1,35
256,296,83438,2,0,B|368:256|400:144,1,210
232,88,85346,6,0,B|264:120,1,35
208,248,86213,2,0,B|112:216|96:104,1,175
88,56,87427,6,0,B|136:48|168:104,1,70
192,136,88121,2,0,B|264:136|310:198|310:198|352:136|432:136,1,280
424,272,90201,5,0
280,272,90895,2,0,B|216:192|96:208,2,175
336,232,92976,2,0,B|384:208|360:144,1,70
296,160,93670,2,0,B|304:120|336:96|376:104,2,105
224,152,95057,2,0,B|192:184|144:176,1,70
168,104,95751,2,0,B|88:104|40:48,1,140
256,192,96618,12,0,98178
168,160,103727,5,0
