osu file format v14

[General]
AudioFilename: Maon Kurosaki - Afterglow.mp3
AudioLeadIn: 0
PreviewTime: -1
Countdown: 0
SampleSet: Normal
StackLeniency: 0.7
Mode: 0
LetterboxInBreaks: 0
WidescreenStoryboard: 1

[Editor]
Bookmarks: 28402,54743,59316
DistanceSpacing: 1.5
BeatDivisor: 4
GridSize: 4
TimelineZoom: 1.3

[Metadata]
Title:Afterglow
TitleUnicode:アフターグロウ
Artist:Maon Kurosaki
ArtistUnicode:黒崎真音
Creator:Leupoi
Version:Hard
Source:Gakkou Gurashi
Tags:
BeatmapID:797469
BeatmapSetID:360308

[Difficulty]
HPDrainRate:6
CircleSize:3.8
OverallDifficulty:6.5
ApproachRate:8
SliderMultiplier:3
SliderTickRate:1

[Events]
//Background and Video events
0,0,"pum.jpg",0,0
//Break Periods
//Storyboard Layer 0 (Background)
//Storyboard Layer 1 (Fail)
//Storyboard Layer 2 (Pass)
//Storyboard Layer 3 (Foreground)
//Storyboard Sound Samples

[TimingPoints]
3890,731.707317073171,4,1,0,30,1,0
32609,-100,4,1,0,30,0,0
36085,-133.333333333333,4,1,0,30,0,0
37548,-100,4,1,0,30,0,0
44865,-90.9090909090909,4,1,0,30,0,1
66816,-100,4,1,0,30,0,1
68280,-66.6666666666667,4,1,0,30,0,1
71938,-133.333333333333,4,1,0,30,0,1
72670,-66.6666666666667,4,1,0,30,0,0
74133,-66.6666666666667,4,1,0,30,0,1
85841,-66.6666666666667,4,1,0,30,0,0

[HitObjects]
244,292,3890,6,0,P|340:248|352:180,1,150
132,168,4621,1,0,0:0:0:0:
336,72,4987,1,0,0:0:0:0:
360,296,5353,2,0,P|236:288|196:216,1,150
264,56,6085,5,0,0:0:0:0:
260,236,6450,1,0,0:0:0:0:
80,232,6816,2,0,L|80:82,1,150
240,160,7548,5,0,0:0:0:0:
384,48,7914,1,0,0:0:0:0:
408,228,8280,2,0,P|324:288|224:276,1,150
292,116,9011,2,0,P|212:160|144:128,1,150
80,72,9743,2,0,L|80:244,1,150
232,320,10475,5,0,0:0:0:0:
228,140,10841,1,0,0:0:0:0:
376,244,11207,2,0,P|400:136|348:80,1,150
220,180,11938,2,0,P|151:110|164:25,1,150
252,44,12670,2,0,B|312:88|304:176|316:176|448:204|456:216|468:316,1,300
256,192,13768,12,0,15597,0:0:0:0:
160,232,15963,5,0,0:0:0:0:
160,232,16146,1,0,0:0:0:0:
196,152,16329,2,0,P|276:88|324:68,1,150
404,104,16877,1,0,0:0:0:0:
408,108,17060,2,0,L|408:268,1,150
232,276,17792,6,0,P|208:216|228:168,4,75
412,280,18890,1,0,0:0:0:0:
412,280,19072,1,0,0:0:0:0:
412,280,19255,2,0,P|408:188|364:120,1,150
312,80,19804,5,0,0:0:0:0:
312,80,19987,2,0,P|248:128|216:124,1,75
172,92,20353,1,0,0:0:0:0:
112,260,20719,6,0,L|192:260,1,75
244,332,21085,2,0,L|352:332,1,75
364,252,21450,2,0,P|416:160|400:96,2,150
188,208,22548,1,0,0:0:0:0:
268,48,22914,2,0,P|332:136|324:184,1,150
236,176,23463,5,0,0:0:0:0:
144,176,23646,2,0,P|168:292|224:320,1,150
352,240,24377,2,0,L|352:76,1,150
260,84,24926,1,0,0:0:0:0:
260,84,25109,2,0,P|228:180|212:188,1,75
160,164,25475,5,0,0:0:0:0:
160,164,25658,1,0,0:0:0:0:
76,200,25841,2,0,P|112:288|184:320,1,150
224,256,26390,2,0,L|308:256,1,75
360,192,26755,2,0,L|360:80,1,75
260,60,27121,1,0,0:0:0:0:
260,60,27304,2,0,P|168:92|136:136,1,150
248,156,27853,6,0,P|196:72|136:60,1,150
100,160,28402,1,0,0:0:0:0:
100,160,28585,2,0,P|96:268|124:296,1,150
196,224,29133,1,0,0:0:0:0:
276,180,29316,1,0,0:0:0:0:
276,180,29499,2,0,P|384:216|416:268,1,150
224,268,30231,6,0,L|224:104,1,150
316,48,30780,1,0,0:0:0:0:
260,144,30963,2,0,P|192:96|164:32,1,150
276,48,31511,1,0,0:0:0:0:
276,48,31694,2,0,L|276:220,1,150
56,256,32426,6,0,L|56:128,1,75
132,96,32792,2,0,L|132:184,1,75
180,272,33158,2,0,P|260:236|264:160,1,150
200,92,33707,1,0,0:0:0:0:
200,88,33890,2,0,B|272:52|336:56|376:72,1,150
292,168,34438,6,0,P|200:168|176:88,1,150
260,52,34987,1,0,0:0:0:0:
196,144,35170,1,0,0:0:0:0:
140,244,35353,2,0,P|232:280|280:268,1,150
324,164,35902,1,0,0:0:0:0:
408,60,36085,2,0,B|408:152|312:224|196:40|36:280,1,450.000017166138
388,284,38097,6,0,L|448:292,2,37.5
288,232,38463,1,0,0:0:0:0:
304,120,38646,2,0,P|272:64|172:44,1,150
96,240,39377,1,0,0:0:0:0:
320,276,39743,1,0,0:0:0:0:
196,88,40109,5,0,0:0:0:0:
200,312,40475,1,0,0:0:0:0:
332,104,40841,1,0,0:0:0:0:
136,216,41207,1,0,0:0:0:0:
360,244,41572,1,0,0:0:0:0:
336,136,41755,5,0,0:0:0:0:
336,136,41938,6,0,P|272:76|188:60,1,150
200,284,42487,1,0,0:0:0:0:
200,284,42670,2,0,P|320:312|364:292,1,150
216,116,43219,1,0,0:0:0:0:
216,116,43402,2,0,P|152:88|72:120,1,150
144,208,43950,2,0,P|136:284|120:292,1,75
44,224,44316,5,0,0:0:0:0:
88,120,44499,1,0,0:0:0:0:
188,68,44682,1,0,0:0:0:0:
188,68,44865,2,0,P|208:176|188:256,1,165.000005035401
84,176,45414,1,0,0:0:0:0:
188,68,45597,2,0,P|284:64|300:72,2,82.5000025177003
156,188,46146,6,0,P|248:168|252:152,1,82.5000025177003
272,44,46511,1,0,0:0:0:0:
272,168,46694,1,0,0:0:0:0:
272,44,46877,1,0,0:0:0:0:
272,168,47060,2,0,P|216:256|200:256,1,82.5000025177003
144,172,47426,1,0,0:0:0:0:
72,272,47609,2,0,P|140:328|184:320,1,82.5000025177003
