osu file format v4

[General]
AudioFilename: Genshiken - Creditless Opening.mp3
AudioLeadIn: 0
AudioHash: 91accd09cd7b1de9d9c283224157884e
PreviewTime: -1
Countdown: 0
SampleSet: Normal
EditorBookmarks: 12776,77460

[Metadata]
Title:My-Pace Daiou
Artist:Manzo
Creator:Terrapin
Version:Hard

[Difficulty]
HPDrainRate:5
CircleSize:5
OverallDifficulty:6
SliderMultiplier: 0.8
SliderTickRate: 2

[Events]
//Background and Video events
1,0,"Genshiken - Creditless Opening.avi"
//Break Periods
//Storyboard Layer 0 (Background)
//Storyboard Layer 1 (Failing)
//Storyboard Layer 2 (Passing)
//Storyboard Layer 3 (Foreground)
//Storyboard Sound Samples
//Background Colour Transformations
3,100,163,162,255

[TimingPoints]
8135,333.333333333333,4,1,0,100

[HitObjects]
136,96,18801,1,0
216,176,19468,1,0
296,96,20135,1,0
376,176,20801,1,0
376,304,21468,2,0,B|376:304|144:357|96:200,1,320
176,96,23468,5,0
256,192,24135,1,0
336,96,24801,1,0
448,160,25468,1,2
448,240,25801,1,2
448,320,26135,1,2
368,320,26468,2,2,B|368:320|184:320|184:176,1,240
72,112,28135,6,0,B|72:112|83:60|136:32,3,80
200,48,29468,5,0
200,136,29801,1,0
200,224,30135,1,0
200,312,30468,1,0
288,312,30801,1,0
288,312,31135,1,0
408,240,31801,5,0
408,152,32135,1,0
320,192,32468,1,0
320,96,32801,1,0
240,144,33135,1,0
240,144,33468,1,0
104,144,34135,6,0,B|104:144|104:24,2,80
104,232,35135,1,0
168,296,35468,1,0
256,296,35801,1,0
256,208,36135,1,0
256,128,36468,1,0
256,40,36801,1,0
256,40,37135,1,0
344,40,37468,2,2,B|344:40|344:160|416:184,1,160
352,304,38801,5,0
288,248,39135,1,0
224,304,39468,1,0
160,248,39801,1,0
224,176,40134,5,0
192,96,40468,1,0
280,96,40801,1,0
312,176,41134,1,0
400,176,41468,1,0
368,96,41801,1,0
368,96,41968,1,0
368,96,42134,1,0
392,272,42801,6,0,B|392:272|208:272,1,160
152,272,43801,1,0
72,272,44134,1,0
72,192,44468,1,0
72,112,44801,1,0
216,32,45468,5,2
216,32,45634,1,0
296,64,45968,1,2
296,192,46801,1,0
296,192,46968,1,0
216,224,47301,1,2
320,336,48134,1,0
448,256,48801,1,0
448,96,49468,1,0
448,96,50134,1,0
320,96,50801,5,0
232,96,51134,1,0
144,96,51468,1,0
56,96,51801,1,0
56,96,52134,1,0
80,176,52468,6,2,B|80:176|200:176,2,80
56,256,53468,1,0
144,256,53801,1,0
232,256,54134,1,0
200,176,54468,1,0
288,176,54801,1,0
376,176,55134,1,0
408,256,55468,1,0
320,256,55801,1,0
224,304,56134,5,0
176,224,56468,1,0
128,304,56801,1,0
80,224,57134,1,0
128,144,57468,1,2
128,144,57801,1,2
128,144,58134,1,2
304,128,58801,6,0,B|304:128|304:240,2,80
392,128,59801,1,0
392,216,60134,1,0
392,304,60468,1,0
304,304,60801,1,0
216,304,61134,1,0
152,232,61468,1,2
152,232,61634,1,2
152,232,61801,1,2
152,144,62134,1,2
152,144,62301,1,2
152,144,62468,1,2
240,144,62801,2,0,B|240:144|328:144|400:56,1,160
416,224,64134,6,0,B|416:224|416:336,2,80
328,224,65134,2,0,B|328:224|328:128,2,80
240,224,66134,1,0
240,224,66468,1,0
152,224,66801,1,2
152,224,67134,1,2
72,224,67468,1,2
72,136,67801,2,2,B|72:136|72:16,1,80
160,56,68468,1,2
160,56,68634,1,2
160,56,68801,1,2
384,72,69468,5,0
384,160,69801,1,0
312,128,70134,1,0
312,216,70468,1,0
240,184,70801,1,0
240,272,71134,1,0
168,240,71468,1,0
80,240,71801,1,0
80,152,72134,1,2
80,152,72301,1,2
80,152,72468,1,2
152,96,72801,1,2
152,96,72968,1,2
152,96,73134,1,2
232,136,73468,1,0
312,176,73801,1,0
312,176,74134,1,0
400,200,74468,6,0,B|400:200|256:395|104:192,2,360
440,96,78134,1,0
336,48,78801,1,0
256,136,79468,1,0
144,64,80135,1,0
88,128,80468,1,0
144,192,80801,1,0
88,256,81135,1,0
144,320,81468,2,0,B|144:320|226:358|320:304,1,160
352,192,82801,5,0
416,136,83135,1,0
352,80,83468,1,0
288,136,83801,1,0
224,192,84135,1,0
160,136,84468,1,0
104,192,84801,1,0
104,192,85135,1,0
256,192,85468,12,4,87968
