osu file format v8

[General]
AudioFilename: Manpuku Jinja - Fantasy Kaleidoscope.mp3
AudioLeadIn: 0
PreviewTime: -1
Countdown: 0
SampleSet: Normal
StackLeniency: 0.7
Mode: 0
LetterboxInBreaks: 1

[Editor]
DistanceSpacing: 0.800000011920929
BeatDivisor: 8
GridSize: 8

[Metadata]
Title:The Memories of Phantasm
Artist:Manpuku Jinja
Creator:Mario41001
Version:Hard
Source:Touhou
Tags:Fantasy Kaleidoscope Manpuku Jinja Touhou ZUN

[Difficulty]
HPDrainRate:8
CircleSize:6
OverallDifficulty:10
ApproachRate:8
SliderMultiplier:1.4
SliderTickRate:1

[Events]
//Background and Video events
0,0,"Manpuku Jinja - Fantasy Kaleidoscope.jpg"
Video,0,"Manpuku Jinja - Fantasy Kaleidoscope.avi"
//Break Periods
//Storyboard Layer 0 (Background)
//Storyboard Layer 1 (Fail)
//Storyboard Layer 2 (Pass)
//Storyboard Layer 3 (Foreground)
//Storyboard Sound Samples
//Background Colour Transformations
3,100,163,162,255

[TimingPoints]
18080,434.782608695652,4,1,0,100,1,0

[Colours]
Combo1 : 193,97,252
Combo2 : 255,15,15
Combo3 : 0,255,64
Combo4 : 77,126,244

[HitObjects]
88,96,1558,1,2
200,96,1993,1,2
192,160,2427,1,2
304,160,2862,1,6
56,152,3732,6,0,B|56:296|272:280,1,280
304,232,5036,1,0
400,232,5471,1,4
472,136,5906,6,8,B|264:280|288:0|88:200,1,420
40,192,7645,1,4
112,88,8297,5,2
168,144,8514,1,2
224,88,8732,1,2
280,144,8949,1,2
112,272,9819,2,12,B|184:112|232:320|336:160,1,280
48,176,11558,5,0
120,128,12427,2,0,B|400:128|184:312|200:320|392:400|448:264|448:128,1,560
64,72,18080,5,4
120,120,18514,5,0
192,72,18949,1,0
248,120,19384,1,0
304,72,19819,1,0
352,120,20253,1,0
408,72,20688,1,0
456,120,21123,1,0
24,184,21558,6,2,B|312:184,1,280
352,224,22862,1,8
400,184,23297,1,12
96,88,25036,5,8
128,120,25471,1,8
160,152,25906,1,8
184,184,26340,1,8
216,216,26775,1,8
368,248,27645,2,12,B|176:32,1,280
256,192,30253,12,4,31993
64,128,32862,5,2
136,176,33297,1,2
200,128,33732,1,2
256,184,34601,1,2
312,240,35036,1,2
368,184,35471,1,6
64,72,37210,5,8
144,72,38079,1,8
72,144,38949,2,2,B|360:144,1,280
400,232,40688,2,6,B|104:232,1,280
24,104,42427,5,8
88,152,43297,1,8
88,152,44166,2,12,B|240:152,1,140
88,248,45906,5,2
160,280,46340,1,2
224,248,46775,1,8
224,248,47210,2,12,B|320:128,1,140
96,104,48514,5,0
152,80,48949,1,0
200,112,49384,1,0
200,112,50253,2,6,B|320:208,1,140
256,192,51177,12,4,52862
72,112,53732,5,8
176,112,54601,1,12
376,184,55036,6,8,B|88:184,1,280
32,184,56340,1,2
112,120,57210,1,2
120,208,58079,2,12,B|216:96|304:232|368:104,1,280
392,232,59819,2,6,B|232:192|320:328|128:296,1,280
96,104,61558,5,0
152,96,61993,1,0
208,104,62427,1,0
264,96,62862,1,0
312,112,63297,1,0
448,192,64601,6,2,B|304:192,1,140
304,192,65906,2,2,B|208:296,1,140
208,296,66775,2,6,B|120:184,1,140
72,144,68514,5,8
136,168,68949,1,8
192,112,69384,1,8
200,168,69819,2,12,B|344:168,1,140
448,112,71993,5,2
400,152,72427,1,2
360,96,72862,1,2
336,152,73297,2,6,B|184:152,1,140
56,72,75471,5,2
56,72,75906,2,10,B|160:120|96:176|192:256|272:192,1,280
448,56,78514,5,8
448,168,78949,2,8,B|496:320|304:320|336:208|120:328,1,420
64,272,80688,1,12
96,128,82427,6,2,B|248:128,1,140
264,168,83732,2,2,B|112:168,1,140
128,256,85471,5,2
200,256,85906,1,6
312,256,86558,5,4
312,256,86721,1,4
256,192,87699,12,4,93732
