osu file format v8

[General]
AudioFilename: Manpuku Jinja - Fantasy Kaleidoscope.mp3
AudioLeadIn: 0
PreviewTime: -1
Countdown: 0
SampleSet: Normal
StackLeniency: 0.7
Mode: 0
LetterboxInBreaks: 1

[Editor]
DistanceSpacing: 0.800000011920929
BeatDivisor: 8
GridSize: 8

[Metadata]
Title:The Memories of Phantasm
Artist:Manpuku Jinja
Creator:Mario41001
Version:Easy
Source:Touhou
Tags:Fantasy Kaleidoscope Manpuku Jinja Touhou ZUN

[Difficulty]
HPDrainRate:7
CircleSize:4
OverallDifficulty:9
ApproachRate:4
SliderMultiplier:1.4
SliderTickRate:1

[Events]
//Background and Video events
0,0,"Manpuku Jinja - Fantasy Kaleidoscope.jpg"
Video,0,"Manpuku Jinja - Fantasy Kaleidoscope.avi"
//Break Periods
//Storyboard Layer 0 (Background)
//Storyboard Layer 1 (Fail)
//Storyboard Layer 2 (Pass)
//Storyboard Layer 3 (Foreground)
//Storyboard Sound Samples
//Background Colour Transformations
3,100,163,162,255

[TimingPoints]
18080,434.782608695652,4,1,0,100,1,0

[Colours]
Combo1 : 193,97,252
Combo2 : 255,15,15
Combo3 : 0,255,64
Combo4 : 77,126,244

[HitObjects]
72,112,18080,1,0
136,192,20688,5,0
256,192,21558,1,0
368,296,22862,6,0,C|224:296,1,140
256,136,25036,5,0
192,208,25906,5,0
320,208,26775,5,0
96,88,27210,2,0,C|376:88,1,280
256,192,28514,12,4,31558
56,296,31993,5,0
160,224,33732,1,0
256,216,34384,1,0
296,184,34601,1,0
336,152,34927,1,0
456,152,35471,1,4
24,312,38079,6,0,C|456:312,1,420
448,224,40688,1,4
416,56,42427,5,8
344,96,42862,1,8
392,160,43297,1,8
296,168,44166,2,2,B|8:168,1,280
48,48,45906,5,4
168,48,47645,5,8
256,88,49384,1,2
280,128,49819,1,2
248,168,50253,1,2
280,208,50688,1,2
264,296,51123,1,4
168,80,52862,6,0,B|248:216|352:40|376:224,1,280
448,280,54601,1,4
320,336,56340,6,0,B|320:72|80:328|80:64,1,420
160,72,58079,1,0
240,72,58514,1,0
320,72,58949,1,4
192,168,59819,5,8
272,168,60253,1,8
352,168,60688,1,8
112,64,65036,5,4
256,128,65906,5,4
376,64,66775,5,4
56,280,68514,6,8,B|128:168|192:168|264:312|320:312|400:168,1,420
392,176,70253,1,4
80,96,71993,5,8
184,96,72427,2,8,B|264:96|304:96|344:136|368:176|368:256,1,280
368,248,73732,1,12
16,320,75471,6,2,B|88:208|200:352|200:160,1,280
248,112,76775,1,0
296,160,77210,2,2,B|280:360|416:192|448:272|472:328,1,280
40,128,78949,5,8
40,128,79819,2,2,B|184:128,1,140
264,128,80688,1,4
152,208,81938,6,2,B|304:208,1,140
296,208,82862,2,2,B|400:320,1,140
392,312,83732,2,12,B|392:160,1,140
272,152,84601,5,8
192,88,85036,1,8
112,152,85471,1,8
16,80,85906,2,4,B|16:352|456:288,1,560
256,192,88079,12,4,92862
