osu file format v9

[General]
AudioFilename: manian -ravers In The UK.mp3
AudioLeadIn: 0
PreviewTime: -1
Countdown: 1
SampleSet: Normal
StackLeniency: 0.7
Mode: 0
LetterboxInBreaks: 1

[Editor]
DistanceSpacing: 0.8
BeatDivisor: 8
GridSize: 8

[Metadata]
Title:Ravers In The UK
Artist:Manian
Creator:DailenCZ
Version:Insane
Source:Ravers In The UK
Tags:Ravers In The UK

[Difficulty]
HPDrainRate:7
CircleSize:5
OverallDifficulty:5
ApproachRate:8
SliderMultiplier:1.60000000596046
SliderTickRate:1

[Events]
//Background and Video events
0,0,"183214_153245554732359_100001407451173_316358_6703162_n.jpg"
//Break Periods
2,56844,68779
2,83533,193503
//Storyboard Layer 0 (Background)
//Storyboard Layer 1 (Fail)
//Storyboard Layer 2 (Pass)
//Storyboard Layer 3 (Foreground)
//Storyboard Sound Samples
//Background Colour Transformations
3,100,255,128,128

[TimingPoints]
2711,389.61038961039,4,1,0,100,1,0

[HitObjects]
256,192,6385,1,0
184,192,7164,1,0
328,192,7943,1,0
256,128,8138,1,0
256,256,8235,2,0,B|336:312|432:296|328:360|344:368,1,160.000000596046
32,32,8917,5,0
480,24,9112,1,0
256,32,9307,1,0
32,360,9502,1,0
496,368,10281,1,0
64,64,11060,6,0,B|168:144|152:272|248:272|256:136|208:56|288:304|232:376|272:16|296:16|328:232|312:152,1,320.000001192093
192,224,12131,5,0
256,264,12326,1,0
320,224,12521,1,0
256,176,12716,2,0,B|176:120|272:88|144:136|120:144|168:64,1,160.000000596046
472,48,13360,2,0,B|320:256,1,240.000000894069
392,24,14204,2,0,B|208:272,1,293.333334426084
248,24,14983,2,0,B|104:216,1,240.000000894069
144,224,15833,5,0
216,224,15930,1,0
288,224,16028,1,0
240,160,16125,1,0
168,160,16222,1,0
96,160,16320,5,0
208,96,16417,1,0
136,96,16515,1,0
64,96,16612,1,0
96,32,16709,5,0
168,32,16807,1,0
240,32,16904,1,0
488,32,17391,2,0,B|424:104|424:96,1,80.0000002980232
40,352,17781,5,0
488,32,18073,1,0
480,352,18268,1,0
256,192,18463,1,0
192,32,18982,2,0,B|72:200,2,160.000000596046
256,192,20151,1,0
144,312,20411,5,0
144,312,20541,1,0
216,312,20605,1,0
288,312,20670,1,0
360,312,20735,1,0
176,248,20800,1,0
256,248,20865,1,0
328,248,20930,1,0
216,184,21022,1,0
296,184,21060,1,0
256,120,21125,1,0
88,48,21320,2,0,B|224:192|224:184,1,160.000000596046
488,24,22099,1,0
24,376,22878,1,0
328,56,23722,1,0
272,96,23787,1,0
216,144,23852,1,0
160,192,23917,1,0
248,216,23982,1,0
312,168,24047,1,0
368,120,24112,1,0
424,72,24177,1,0
328,240,24242,1,0
392,192,24307,1,0
456,144,24372,1,0
504,88,24437,1,0
328,56,24502,1,0
64,72,24761,5,0
64,144,24826,2,0,B|64:320,1,160.000000596046
136,296,25281,2,0,B|136:128,1,160.000000596046
136,72,25995,6,0,B|384:72,1,240.00000089407
376,144,26839,2,0,B|376:384|376:376,1,160.000000596046
312,352,27618,2,0,B|80:352,1,160.000000596046
160,240,28463,5,0
240,240,28592,1,0
320,240,28722,1,0
200,176,28852,1,0
288,176,28982,1,0
248,112,29112,1,0
136,104,29307,1,0
216,104,29437,1,0
296,104,29566,1,0
168,168,29696,1,0
256,168,29826,1,0
208,232,29956,1,0
248,64,30021,5,0
184,112,30086,1,0
120,160,30151,1,0
128,240,30216,1,0
184,200,30281,1,0
256,168,30346,1,0
248,240,30411,1,0
184,288,30476,1,0
128,336,30541,1,0
224,352,30605,1,0
288,304,30670,1,0
344,256,30735,1,0
208,232,31201,1,0
256,192,31644,12,0,32748
328,24,33360,5,0
368,24,33425,5,0
400,24,33490,5,0
488,24,33592,5,0
200,360,34139,1,0
160,360,34204,1,0
128,360,34269,1,0
32,360,34399,1,0
256,192,34761,12,0,36320
16,24,36709,5,0
480,368,37554,1,0
256,192,37878,12,0,39502
488,24,39891,5,0
24,368,40670,1,0
224,224,41060,1,0
288,168,41839,1,0
280,224,42618,1,0
224,176,42813,2,0,B|112:88|304:40|384:192|312:320|120:248|88:136,1,400.000001490116
256,192,44242,12,0,45865
496,24,46190,5,0
24,368,46969,1,0
256,192,47424,12,0,48592
256,192,48982,5,0
24,32,49372,1,0
488,360,50151,1,0
208,232,50605,5,0
296,232,50995,1,0
208,160,51385,1,0
296,160,51774,1,0
248,200,52164,1,0
336,264,52359,1,0
360,280,52424,1,0
384,296,52489,1,0
480,360,52554,1,0
160,112,53138,5,0
136,96,53203,1,0
104,72,53268,1,0
40,24,53333,1,0
248,200,53722,6,0,B|304:240|336:184|320:128|280:112|240:112|192:112|168:144|160:184|160:224|184:264|216:304|256:296|296:288|312:280|336:272|352:248|360:216|360:184|344:176|288:176|264:184|264:184|256:200,1,560.000002086163
272,184,55281,1,0
40,64,55346,5,0
80,64,55411,1,0
112,80,55476,1,0
128,112,55541,1,0
144,144,55605,1,0
168,176,55670,1,0
192,200,55735,1,0
216,216,55800,1,0
256,216,55865,1,0
280,192,55930,1,0
304,168,55995,1,0
328,144,56060,1,0
352,112,56125,1,0
384,96,56190,1,0
424,96,56255,1,0
448,128,56320,1,0
456,160,56385,1,0
456,192,56450,1,0
456,224,56515,1,0
456,248,56579,1,0
456,344,56644,1,0
232,88,69529,6,0,B|176:184|184:264|232:344,2,266.666667660077
280,88,71087,6,0,B|328:200|280:344,2,260.000000968575
488,32,72683,1,0
16,368,73333,1,0
208,168,74242,1,0
176,136,74372,1,0
136,104,74437,1,0
96,72,74502,1,0
32,16,74566,1,0
400,88,74983,5,0
368,128,75032,1,0
336,176,75081,1,0
304,216,75129,1,0
264,256,75178,1,0
224,296,75227,1,0
184,336,75275,1,0
144,376,75324,1,0
376,296,75373,1,0
224,152,75865,6,0,B|184:216|232:272,1,80.0000002980232
288,152,76515,2,0,B|312:200|304:256|312:264|200:256,1,160.000000596046
256,32,77359,1,0
256,96,77424,1,0
256,160,77489,1,0
256,224,77554,1,0
480,32,77618,1,0
256,344,77813,1,0
192,344,77878,1,0
128,344,77943,1,0
64,344,78008,1,0
56,32,78073,1,0
480,32,78203,5,0
480,96,78268,1,0
480,160,78333,1,0
480,224,78398,1,0
480,288,78463,1,0
480,352,78528,1,0
416,352,78592,1,0
64,344,78657,1,0
256,192,79047,12,0,81774
24,24,82164,5,0
64,72,82229,1,0
104,120,82294,1,0
152,168,82359,1,0
192,216,82424,1,0
240,256,82489,1,0
256,24,82554,1,0
488,24,82943,5,0
448,72,83008,1,0
408,120,83073,1,0
368,168,83138,1,0
328,216,83203,1,0
280,256,83268,1,0
256,376,83333,1,0
120,64,194253,5,0
136,80,194301,1,0
160,104,194350,1,0
176,120,194399,1,0
200,144,194448,1,0
216,160,194496,1,0
240,184,194545,1,0
256,200,194594,1,0
280,224,194642,1,0
296,240,194691,1,0
320,264,194740,1,0
336,280,194788,1,0
360,304,194837,1,0
376,320,194886,1,0
400,344,194935,1,0
120,64,194983,1,0
392,96,195081,5,0
376,112,195129,1,0
352,136,195178,1,0
328,160,195227,1,0
312,176,195275,1,0
288,200,195324,1,0
272,216,195373,1,0
256,232,195422,1,0
232,256,195470,1,0
208,272,195519,1,0
184,296,195568,1,0
168,312,195616,1,0
392,96,195665,1,0
24,96,195811,5,0
48,96,195860,1,0
80,96,195909,1,0
80,96,195957,1,0
112,96,196006,1,0
136,96,196055,1,0
160,96,196103,1,0
192,96,196152,1,0
224,96,196201,1,0
256,96,196249,1,0
280,96,196298,5,0
312,96,196347,1,0
312,96,196396,1,0
336,96,196444,1,0
368,96,196493,1,0
392,96,196542,1,0
424,96,196590,1,0
448,96,196639,1,0
480,96,196688,1,0
256,192,196736,12,0,196931
