osu file format v7

[General]
AudioFilename: Manga Boys - Digimon Tamers.mp3
AudioLeadIn: 0
PreviewTime: 55644
Countdown: 0
SampleSet: Soft
StackLeniency: 0.7
Mode: 0
LetterboxInBreaks: 1

[Editor]
Bookmarks: 14879,25631,39965,55644,77594,88345
DistanceSpacing: 0.800000011920929
BeatDivisor: 4
GridSize: 16

[Metadata]
Title:Digimon Tamers
Artist:Manga Boys
Creator:xxheroxx
Version:Renamon
Source:Digimon Tamers
Tags:Anime opening op project italy italian ita

[Difficulty]
HPDrainRate:4
CircleSize:4
OverallDifficulty:4
SliderMultiplier:1.4
SliderTickRate:1

[Events]
//Background and Video events
0,0,"Renamon.jpg"
Video,0,"Digimon Tamers - Opening ITA [www.keepvid.com].flv"
//Break Periods
//Storyboard Layer 0 (Background)
//Storyboard Layer 1 (Fail)
//Storyboard Layer 2 (Pass)
//Storyboard Layer 3 (Foreground)
//Storyboard Sound Samples
//Background Colour Transformations
3,100,154,53,255

[TimingPoints]
14890,447.961773928625,4,2,1,60,1,0
56092,-100,4,2,1,60,0,1
63147,-100,4,2,1,60,0,0
63259,-100,4,2,1,60,0,1
70315,-100,4,2,1,60,0,0
70427,-100,4,2,1,60,0,1
77482,-100,4,2,1,60,0,0
77594,-100,4,2,1,60,0,1
77706,-100,4,2,1,60,0,0
88345,-100,4,2,1,60,0,1
88457,-100,4,2,1,60,0,0

[Colours]
Combo1 : 45,140,247
Combo2 : 0,255,0
Combo3 : 255,0,0

[HitObjects]
186,80,14890,2,0,B|362:80,1,140,2|0
256,160,15785,1,0
256,208,16009,1,0
256,256,16233,1,0
352,208,16681,6,0,B|384:304|288:336,1,140,2|0
201,326,17577,2,0,B|132:293|161:204,1,140
80,128,18473,5,2
176,64,18921,1,0
208,112,19145,1,0
256,144,19369,1,0
304,112,19593,1,0
336,64,19817,1,0
432,128,20265,1,2
368,208,20713,6,0,B|320:281|257:310|182:286|136:191,1,280
256,192,22057,12,4,24745
256,192,25193,5,0
186,280,25641,6,0,B|330:280,1,140,2|0
336,176,26537,2,0,B|308:126|344:103|344:103|348:64|296:32,1,140
256,144,27432,1,2
189,51,27880,2,0,B|167:68|168:103|168:103|204:126|176:177,1,140
256,256,28776,1,0
144,242,29224,6,0,B|145:341|231:363,1,140,2|0
302,355,30120,2,0,B|366:335|370:238,1,140
304,144,31016,6,0,B|400:176,2,70,2|0|0
256,112,31688,1,0
208,144,31912,2,0,B|112:176,2,70
256,240,32808,5,2
160,288,33256,1,0
256,240,33704,1,0
352,288,34152,1,0
256,240,34600,2,0,B|215:144|328:142|222:14,2,210,2|0|0
352,192,36392,5,2
313,297,36840,1,0
201,297,37288,1,0
160,192,37736,1,0
116,88,38184,2,0,B|260:88,1,140,2|0
256,88,39079,2,0,B|431:88,1,140
448,192,39975,5,2
396,291,40423,2,0,B|92:291,1,280
64,192,41767,1,2
116,93,42215,2,0,B|420:93,1,280
327,181,43559,6,0,B|151:181,1,140,2|0
160,288,44455,1,0
256,352,44903,1,0
352,288,45351,1,2
256,224,45799,1,0
256,176,46023,1,0
256,128,46247,1,0
256,80,46471,1,0
256,32,46695,5,0
360,112,47143,2,0,B|136:112,2,210,2|0|0
400,224,48935,2,0,B|368:290|352:352|287:382|224:382|160:352|144:288|99:199,1,420,2|0
256,192,50726,12,0,55206
256,192,55654,5,0
256,192,56102,1,4
188,281,56550,6,0,B|265:320|348:266,1,140
369,178,57446,2,0,B|372:95|303:49,1,140,0|2
199,56,58342,2,0,B|138:105|143:184,1,140
256,192,59238,1,0
256,304,59686,6,0,C|337:319|352:256|352:256|411:232|400:304,2,210,2|0|0
256,304,61478,2,0,C|175:319|160:256|160:256|101:232|112:304,2,210,2|0|0
256,192,63269,5,4
176,112,63717,1,0
256,32,64165,1,0
336,112,64613,1,0
256,192,65061,5,2
336,112,65509,1,0
256,32,65957,1,0
176,112,66405,1,0
256,192,66853,6,0,B|384:272,1,140,2|0
256,192,67749,2,0,B|256:336,1,140
256,192,68645,2,0,B|128:272,2,140,2|0|0
256,80,69989,5,0
256,80,70437,1,4
256,80,70885,2,0,B|416:80,2,140
256,80,72229,2,0,B|112:80,2,140,2|0|0
256,80,73572,1,0
256,192,74020,6,0,B|128:272,1,140,2|0
256,192,74916,2,0,B|256:336,1,140
256,192,75812,2,0,B|384:272,2,140,2|0|0
256,192,77156,1,0
336,112,77604,6,0,B|400:48,2,70,4|0|0
256,32,78500,2,0,B|256:112,2,70
176,112,79396,2,0,B|112:48,2,70,2|0|0
256,192,80292,1,0
256,240,80516,1,0
256,288,80740,1,0
336,208,81188,5,2
256,128,81636,1,0
176,208,82084,1,0
226,241,82308,1,0
286,241,82532,1,0
336,144,82980,5,2
256,64,83428,1,0
176,144,83876,1,0
256,64,84324,1,0
256,192,84772,12,4,88355
