osu file format v7

[General]
AudioFilename: Manga Boys - Digimon Tamers.mp3
AudioLeadIn: 0
PreviewTime: 55644
Countdown: 0
SampleSet: Soft
StackLeniency: 0.7
Mode: 0
LetterboxInBreaks: 1

[Editor]
Bookmarks: 14879,25631,55644,77594,88345
DistanceSpacing: 0.800000011920929
BeatDivisor: 4
GridSize: 16

[Metadata]
Title:Digimon Tamers
Artist:Manga Boys
Creator:xxheroxx
Version:Guilmon
Source:Digimon Tamers
Tags:Anime opening op project italy italian ita

[Difficulty]
HPDrainRate:5
CircleSize:5
OverallDifficulty:5
SliderMultiplier:1.7
SliderTickRate:1

[Events]
//Background and Video events
0,0,"Guilmon.jpg"
Video,0,"Digimon Tamers - Opening ITA [www.keepvid.com].flv"
//Break Periods
//Storyboard Layer 0 (Background)
//Storyboard Layer 1 (Fail)
//Storyboard Layer 2 (Pass)
//Storyboard Layer 3 (Foreground)
//Storyboard Sound Samples
//Background Colour Transformations
3,100,3,147,252

[TimingPoints]
14890,447.961773928625,4,2,1,60,1,0
56092,-100,4,2,1,60,0,1
63147,-100,4,2,1,60,0,0
63259,-100,4,2,1,60,0,1
70315,-100,4,2,1,60,0,0
70427,-100,4,2,1,60,0,1
77482,-100,4,2,1,60,0,0
77594,-100,4,2,1,60,0,1
77706,-100,4,2,1,60,0,0
88345,-100,4,2,1,60,0,1
88457,-100,4,2,1,60,0,0

[Colours]
Combo1 : 45,140,247
Combo2 : 0,255,0
Combo3 : 255,0,0

[HitObjects]
192,352,14890,2,0,B|192:224,1,85,2|0
256,352,15337,2,0,B|256:256,1,85
320,352,15785,2,0,B|320:256,2,85
400,240,16681,6,0,B|304:96,1,170,2|0
256,48,17353,1,0
206,98,17577,2,0,B|112:240,1,170
256,240,18473,5,2
320,272,18697,1,0
256,304,18921,1,0
192,272,19145,1,0
192,208,19369,1,0
256,176,19593,1,0
320,208,19817,1,0
384,80,20265,5,2
256,32,20713,1,0
128,80,21161,1,0
256,32,21609,1,0
256,192,22057,12,4,24745
256,192,25193,5,0
171,85,25641,6,0,B|347:85,1,170,2|0
368,144,26313,1,0
320,192,26537,1,0
304,256,26760,2,0,B|352:352,2,85
256,304,27432,1,2
256,304,27656,1,0
208,256,27880,2,0,B|160:352,2,85
192,192,28552,1,0
144,144,28776,1,0
256,64,29224,6,0,B|256:192,2,85,2|0|0
256,149,29896,1,0
320,192,30120,2,0,B|416:256,1,85
390,319,30568,2,0,B|320:272,1,85
256,236,31016,1,2
192,272,31240,2,0,B|121:319,1,85
121,239,31688,2,0,B|192:192,1,85
256,160,32136,5,0
256,96,32360,1,0
256,32,32584,1,0
256,32,32808,6,0,B|368:32|368:144,1,170,2|0
256,32,33704,2,0,B|144:32|144:144,1,170
208,144,34376,1,0
256,192,34600,1,2
304,144,34824,1,0
256,192,35048,2,0,B|256:384,2,170
368,112,36392,6,0,B|356:198,1,85,2|0
368,112,36840,2,0,B|463:74,1,85
368,112,37288,2,0,B|288:32,1,85
256,96,37736,5,0
204,51,37960,6,0,B|144:112,1,85,0|2
65,80,38407,2,0,B|144:112,1,85
155,196,38855,2,0,B|144:112,1,85
256,192,39527,5,0
384,192,39975,5,2
368,256,40199,1,0
320,304,40423,1,0
256,320,40647,1,0
192,304,40871,1,0
144,256,41095,1,0
128,192,41319,1,0
384,192,41767,5,2
368,128,41991,1,0
320,80,42215,1,0
256,64,42439,1,0
192,80,42663,1,0
144,128,42887,1,0
128,192,43111,1,0
256,192,43559,6,0,B|288:272|384:240,2,127.5,2|0|0
256,192,44455,2,0,B|176:224|208:320,2,127.5
256,192,45351,2,0,B|224:112|128:144,2,127.5,2|0|0
256,192,46247,2,0,B|336:160|304:64,2,127.5
256,256,47143,5,2
304,304,47367,2,0,B|400:304,2,85
256,352,48039,1,0
208,304,48263,2,0,B|96:304,1,85
208,192,48935,5,2
256,240,49159,1,0
304,192,49383,1,0
256,144,49607,1,0
256,144,49831,2,0,B|256:32,2,85
256,192,50726,12,0,55206
256,192,55654,5,0
256,192,55878,1,0
256,192,56102,1,4
328,77,56550,1,0
184,77,56998,1,0
176,208,57446,5,0
208,272,57670,1,0
256,320,57894,1,2
304,272,58118,1,0
336,208,58342,1,0
256,96,58790,1,0
256,96,59238,1,0
176,208,59686,6,0,B|96:256,1,85,2|0
160,288,60134,2,0,B|64:352,2,85
192,352,60806,1,0
256,320,61030,1,0
256,320,61254,1,0
320,352,61478,1,2
422,335,61702,2,0,B|352:288,2,85
408,251,62373,2,0,B|336:208,1,85
336,207,62821,5,0
256,96,63269,1,4
176,208,63717,1,0
256,96,64165,1,0
176,208,64613,6,0,B|208:304,1,85
256,240,65061,1,2
336,208,65285,2,0,B|304:304,1,85
256,240,65733,2,0,B|256:144,2,85
256,304,66405,1,0
336,192,66853,5,2
384,144,67077,1,0
384,80,67301,1,0
256,80,67749,1,0
256,80,68197,1,0
128,80,68645,1,2
128,144,68869,1,0
176,192,69093,1,0
256,304,69541,6,0,B|256:208,4,85,0|0|0|0|4
336,192,70885,1,0
256,80,71333,1,0
176,192,71781,1,0
256,80,72229,5,2
323,90,72453,1,0
291,150,72677,1,0
222,150,72901,1,0
189,90,73125,1,0
256,208,73572,1,0
320,320,74020,6,0,B|368:240,2,85,2|0|0
256,288,74692,1,0
192,320,74916,2,0,B|144:240,2,85
256,288,75588,1,0
256,288,75812,2,0,B|256:80,3,170,2|0|0|0
368,192,77604,5,4
361,124,77828,1,0
323,67,78052,1,0
256,48,78276,1,0
189,67,78500,1,0
151,124,78724,1,0
144,192,78948,1,0
256,272,79396,6,0,B|144:272,2,85,2|0|0
256,272,80068,2,0,B|368:272,2,85
256,272,80740,2,0,B|256:368,1,85
256,272,81188,5,2
144,192,81636,1,0
256,112,82084,1,0
368,192,82532,1,0
256,112,82980,6,0,B|256:304,1,170,2|0
320,256,83652,1,0
320,320,83876,1,0
256,352,84100,1,0
192,320,84324,1,0
192,256,84548,1,0
256,192,84772,12,4,88355
