osu file format v7

[General]
AudioFilename: Manga Boys - Digimon Tamers.mp3
AudioLeadIn: 0
PreviewTime: 55644
Countdown: 0
SampleSet: Soft
StackLeniency: 0.7
Mode: 0
LetterboxInBreaks: 1

[Editor]
Bookmarks: 14879,25631,39965,55644,77594,88345
DistanceSpacing: 0.800000011920929
BeatDivisor: 4
GridSize: 16

[Metadata]
Title:Digimon Tamers
Artist:Manga Boys
Creator:xxheroxx
Version:Cyberdramon
Source:Digimon Tamers
Tags:Anime opening op project italy italian ita

[Difficulty]
HPDrainRate:7
CircleSize:5
OverallDifficulty:7
SliderMultiplier:2
SliderTickRate:1

[Events]
//Background and Video events
0,0,"Cyberdramon.jpg"
Video,0,"Digimon Tamers - Opening ITA [www.keepvid.com].flv"
//Break Periods
//Storyboard Layer 0 (Background)
//Storyboard Layer 1 (Fail)
//Storyboard Layer 2 (Pass)
//Storyboard Layer 3 (Foreground)
//Storyboard Sound Samples
//Background Colour Transformations
3,100,176,0,176

[TimingPoints]
14890,447.961773928625,4,2,1,60,1,0
56092,-100,4,2,1,60,0,1
63147,-100,4,2,1,60,0,0
63259,-100,4,2,1,60,0,1
70315,-100,4,2,1,60,0,0
70427,-100,4,2,1,60,0,1
77482,-100,4,2,1,60,0,0
77594,-100,4,2,1,60,0,1
77706,-100,4,2,1,60,0,0
88345,-100,4,2,1,60,0,1
88457,-100,4,2,1,60,0,0

[Colours]
Combo1 : 45,140,247
Combo2 : 0,255,0
Combo3 : 255,0,0

[HitObjects]
192,224,14890,1,2
256,272,15113,1,0
320,224,15337,1,0
320,144,15561,1,0
288,120,15673,1,0
256,96,15785,1,0
224,120,15897,1,0
192,144,16009,1,0
256,191,16233,1,0
309,342,16681,5,2
277,358,16793,1,0
237,358,16905,1,0
205,342,17017,1,0
216,264,17241,1,0
296,264,17465,2,0,B|300:197|239:204|239:204|271:165|244:160|263:109,1,150
216,88,18025,1,0
296,88,18249,1,0
336,160,18473,6,0,B|376:272,1,100,2|0
256,344,18921,2,0,B|256:216,1,100
142,254,19369,2,0,B|176:160,2,100
224,112,20265,5,2
256,136,20377,1,0
288,112,20489,1,0
256,88,20601,1,0
328,48,20825,1,0
256,16,21049,2,0,B|191:18|149:60|151:134,1,150
216,160,21609,1,0
296,160,21833,1,0
256,192,22057,12,0,24297
256,192,24745,5,4
256,192,24894,1,0
256,192,25043,1,0
256,192,25193,1,0
256,32,25641,5,2
192,64,25865,1,0
160,80,25977,1,0
144,112,26089,1,0
176,192,26313,1,0
192,224,26425,1,0
176,256,26537,1,0
256,288,26760,1,0
336,256,26984,1,0
320,224,27096,1,0
336,192,27208,1,0
368,112,27432,1,2
352,80,27544,1,0
320,64,27656,1,0
256,32,27880,5,0
208,96,28104,1,0
288,128,28328,1,0
160,176,28552,1,0
320,224,28776,1,0
160,272,29000,1,0
256,304,29224,5,2
256,304,29448,1,0
256,304,29560,1,0
256,304,29672,1,0
256,304,29896,1,0
336,272,30120,6,0,B|400:224|336:144,1,100
304,128,30568,1,0
287,164,30680,1,0
256,192,30792,1,0
225,164,30904,1,0
208,128,31016,1,2
151,184,31240,2,0,B|129:237|180:276,2,100
208,128,31912,5,0
256,64,32136,1,0
256,64,32248,1,0
256,64,32360,1,0
304,128,32584,1,0
256,192,32808,6,0,B|384:240,1,100,2|0
256,192,33256,2,0,B|128:240,1,100
224,272,33704,2,0,B|128:304,1,100
288,272,34152,2,0,B|384:304,1,100
320,352,34600,1,2
256,384,34824,1,0
192,352,35048,1,0
256,320,35272,6,0,B|256:176,1,100
256,144,35720,1,0
256,112,35832,1,0
256,80,35944,1,0
256,0,36168,1,0
256,0,36392,5,2
16,192,36840,1,0
256,384,37288,1,0
496,192,37736,1,0
256,0,38184,6,0,B|128:48|192:176,1,200,2|0
256,192,38855,1,0
328,226,39079,2,0,B|375:338|253:386,1,200
256,192,39975,5,2
176,224,40199,1,0
160,192,40311,1,0
176,160,40423,1,0
224,96,40647,1,0
256,80,40759,1,0
288,96,40871,1,0
336,160,41095,1,0
352,192,41207,1,0
336,224,41319,1,0
288,288,41543,1,0
256,304,41655,1,0
224,288,41767,1,2
176,224,41991,5,0
256,192,42215,1,0
336,224,42439,1,0
256,192,42663,1,0
256,160,42775,1,0
256,128,42887,1,0
256,96,42999,1,0
256,64,43111,1,0
256,64,43335,1,0
336,96,43559,6,0,B|336:304,1,200,2|0
256,336,44231,1,0
176,296,44455,2,0,B|176:96,1,200
256,64,45127,1,0
256,144,45351,6,0,B|288:208|320:208|384:192,2,150,2|0|0
256,144,46247,2,0,B|224:208|192:208|128:192,2,150
320,192,47143,5,2
256,240,47367,1,0
256,240,47591,1,0
192,192,47815,1,0
217,116,48039,1,0
217,116,48151,1,0
297,116,48375,1,0
297,116,48487,1,0
256,48,48711,1,0
217,116,48935,5,2
192,144,49047,1,0
176,176,49159,1,0
176,208,49271,1,0
192,240,49383,1,0
256,192,49607,1,0
320,240,49831,1,0
336,208,49943,1,0
336,176,50054,1,0
320,144,50166,1,0
295,116,50278,1,0
256,192,50726,12,0,53862
256,16,54310,5,0
256,48,54422,1,0
256,80,54534,1,0
256,112,54646,1,0
256,192,54870,1,0
256,272,55094,1,0
256,272,55206,1,0
337,151,55654,5,0
257,119,55878,1,0
177,151,56102,1,4
177,231,56326,2,0,B|129:295,2,50
257,263,56774,2,0,B|257:327,2,50
337,231,57222,2,0,B|385:295,2,50
256,192,57670,5,0
320,144,57894,1,2
336,112,58006,1,0
320,80,58118,1,0
256,32,58342,1,0
192,80,58566,1,0
176,112,58678,1,0
192,144,58790,1,0
256,192,59014,1,0
256,192,59238,1,0
176,224,59462,5,0
144,256,59574,1,0
112,288,59686,1,2
192,304,59910,1,0
256,352,60134,1,0
320,304,60358,1,0
400,288,60582,1,0
368,256,60694,1,0
336,224,60806,1,0
256,256,61030,5,0
256,224,61142,1,0
256,192,61254,1,0
256,160,61366,1,0
256,128,61478,1,2
208,64,61702,1,0
208,64,61813,1,0
208,64,61925,1,0
256,0,62149,1,0
256,0,62261,1,0
304,64,62485,1,0
304,64,62597,1,0
256,128,62821,6,0,B|368:208,1,100
256,208,63269,2,0,B|352:272,1,100,4|0
256,128,63717,2,0,B|144:208,1,100
256,208,64165,2,0,B|160:272,1,100
224,320,64613,5,0
256,304,64725,1,0
288,320,64837,1,0
320,256,65061,1,2
256,208,65285,1,0
192,256,65509,1,0
256,208,65733,1,0
192,160,65957,1,0
256,112,66181,1,0
320,160,66405,1,0
256,112,66629,5,0
256,112,66853,2,0,B|384:112,2,100,2|0|0
256,32,67525,1,0
256,112,67749,2,0,B|112:112,2,100
256,192,68421,1,0
176,224,68645,2,0,B|209:293|305:294|337:218,3,200,2|0|0|0
256,192,70213,5,0
256,192,70437,1,4
208,128,70661,1,0
192,96,70773,1,0
192,64,70885,1,0
256,16,71109,1,0
256,16,71221,1,0
256,16,71333,1,0
320,64,71557,1,0
320,96,71669,1,0
304,128,71781,1,0
256,192,72005,5,0
256,272,72229,2,0,B|256:368,2,50,2|0|0
187,230,72677,1,0
256,192,72901,1,0
325,230,73125,1,0
256,192,73349,1,0
256,192,73572,1,0
326,153,73796,5,0
326,153,74020,2,0,B|384:48,1,100,2|0
304,48,74468,1,0
256,112,74692,1,0
256,112,74916,2,0,B|256:224,1,100
186,153,75364,1,0
186,153,75588,2,0,B|128:48,1,100,0|2
137,65,76260,5,0
256,384,76708,1,0
374,65,77156,1,0
256,192,77604,5,4
320,256,77828,1,0
291,283,77940,1,0
256,304,78052,1,0
221,283,78164,1,0
192,256,78276,1,0
256,192,78500,1,0
320,128,78724,1,0
291,101,78836,1,0
256,80,78948,1,0
221,101,79060,1,0
192,128,79172,1,0
256,192,79396,5,2
336,192,79620,2,0,B|416:192,2,50
256,272,80068,2,0,B|256:352,2,50
176,192,80516,2,0,B|96:192,2,50
256,112,80964,2,0,B|256:32,2,50,0|0|2
336,112,81412,5,0
320,192,81636,1,0
256,240,81860,1,0
192,192,82084,1,0
176,112,82308,1,0
256,144,82532,1,0
304,304,82980,6,0,B|371:308|379:226,2,100,2|0|0
256,368,83652,1,0
208,304,83876,2,0,B|141:308|133:226,2,100
256,368,84548,1,0
256,192,84772,12,4,88355
