osu file format v11

[General]
AudioFilename: Digimon Frontier.mp3
AudioLeadIn: 0
PreviewTime: 70172
Countdown: 0
SampleSet: Normal
StackLeniency: 0.7
Mode: 0
LetterboxInBreaks: 1

[Editor]
Bookmarks: 13320,81082
DistanceSpacing: 1.1
BeatDivisor: 4
GridSize: 8

[Metadata]
Title:Digimon Frontier (TV Size)
TitleUnicode:Digimon Frontier (TV Size)
Artist:Manga Boys
ArtistUnicode:Manga Boys
Creator:Kuroneko-sHerald
Version:Kanbara Takuya
Source:Digimon
Tags:Italian Italiana Ita
BeatmapID:56085
BeatmapSetID:15132

[Difficulty]
HPDrainRate:7
CircleSize:5
OverallDifficulty:9
ApproachRate:8
SliderMultiplier:1.5
SliderTickRate:0.5

[Events]
//Background and Video events
0,0,"Digimon_1.jpg"
Video,-1093,"Digimon Frontier.avi"
//Break Periods
2,20058,21999
//Storyboard Layer 0 (Background)
//Storyboard Layer 1 (Fail)
//Storyboard Layer 2 (Pass)
//Storyboard Layer 3 (Foreground)
//Storyboard Sound Samples
//Background Colour Transformations
3,100,163,162,255

[TimingPoints]
14075,361.44578313253,4,2,0,70,1,0
31334,-100,4,1,0,50,0,0
31514,-100,4,2,0,70,0,0
51484,-100,4,2,0,5,0,0
53291,-100,4,2,0,70,0,0
70460,-100,4,1,0,50,0,1
71725,-100,4,2,0,70,0,1
73352,-100,4,1,0,50,0,1
74617,-100,4,2,0,70,0,1
76243,-100,4,1,0,50,0,1
76966,-100,4,2,0,50,0,1
77508,-100,4,2,0,70,0,1
78864,-100,4,1,0,50,0,1
79044,-100,4,2,0,70,0,1
82026,-100,4,1,0,50,0,1
83291,-100,4,2,0,70,0,1
84918,-100,4,1,0,50,0,1
86183,-100,4,2,0,70,0,1
87809,-100,4,1,0,50,0,1
88532,-100,4,2,0,50,0,1
89074,-100,4,2,0,70,0,1
93954,-100,4,1,0,50,0,1
95581,-100,4,2,0,70,0,1
101364,-100,4,2,0,5,0,0

[Colours]
Combo1 : 255,255,255
Combo2 : 213,0,0
Combo3 : 255,157,255
Combo4 : 0,0,179
Combo5 : 0,191,0

[HitObjects]
256,192,14074,1,0,0:0:0
296,32,14436,2,0,B|344:80,4,37.5,4|0|0|0|0,0:0|0:0|0:0|0:0|0:0,0:0:0
256,352,15701,5,2,0:0:0
216,32,16785,6,0,B|168:80,4,37.5,4|0|0|0|0,0:0|0:0|0:0|0:0|0:0,0:0:0
176,296,18141,6,0,B|328:296,1,150,2|0,0:0|0:0,0:0:0
72,48,19496,5,2,0:0:0
440,48,19858,1,4,0:0:0
256,296,22749,5,4,0:0:0
256,296,22840,1,0,0:0:0
256,296,22930,1,0,0:0:0
256,88,23382,1,2,0:0:0
256,296,23834,2,0,B|256:216,1,75,4|0,0:0|0:0,0:0:0
392,88,24556,5,0,0:0:0
256,184,24918,1,0,0:0:0
120,88,25279,1,0,0:0:0
40,232,25641,5,2,0:0:0
40,152,25821,2,0,B|16:112|48:80,2,75
120,152,26364,1,2,0:0:0
120,232,26544,2,0,B|120:320,2,75
200,232,27087,1,2,0:0:0
200,152,27267,2,0,B|224:112|192:80,2,75
280,152,27809,1,2,0:0:0
280,232,27990,2,0,B|256:272|288:304,2,75
360,232,28532,1,2,0:0:0
360,152,28713,2,0,B|360:48,2,75
440,152,29255,1,2,0:0:0
440,232,29436,2,0,B|464:272|432:304,1,75
360,304,29797,5,2,0:0:0
256,176,30159,1,2,0:0:0
256,344,30520,1,2,0:0:0
144,216,30882,1,2,0:0:0
392,192,31424,5,4,0:0:0
64,192,32147,5,0,0:0:0
120,136,32328,1,2,0:0:0
144,216,32508,1,0,0:0:0
200,160,32689,1,2,0:0:0
80,272,33050,1,0,0:0:0
40,112,33412,1,2,0:0:0
200,160,33773,1,0,0:0:0
240,320,34135,1,2,0:0:0
368,216,34496,1,0,0:0:0
256,32,35400,6,0,B|256:120,1,75,0|2,0:0|0:0,0:0:0
256,352,36123,2,0,B|256:264,1,75,2|0,0:0|0:0,0:0:0
256,192,36665,1,2,0:0:0
256,192,37207,1,2,0:0:0
496,128,37749,5,0,0:0:0
448,56,37930,1,0,0:0:0
376,24,38111,1,0,0:0:0
344,184,38472,1,2,0:0:0
168,184,38834,1,0,0:0:0
136,24,39195,1,2,0:0:0
16,128,39556,1,0,0:0:0
184,120,39918,2,0,B|256:160|328:120,2,150,2|0|2,0:0|0:0|0:0,0:0:0
216,40,40821,1,0,0:0:0
296,40,41002,1,2,0:0:0
256,200,41364,6,0,B|256:368,2,150
320,248,42267,1,2,0:0:0
328,168,42448,1,0,0:0:0
256,128,42629,1,2,0:0:0
184,168,42809,1,0,0:0:0
192,248,42990,1,4,0:0:0
256,96,43352,5,2,0:0:0
256,176,43532,2,0,B|256:272,2,75
360,48,44255,2,0,B|440:48,2,75
416,208,44978,2,0,B|360:232|416:304|344:328,1,150,2|0,0:0|0:0,0:0:0
167,327,45701,2,0,B|96:304|152:232|96:208,1,150,2|0,0:0|0:0,0:0:0
95,207,46243,1,0,0:0:0
152,48,46605,6,0,B|48:48,1,75,4|0,0:0|0:0,0:0:0
224,120,47147,1,2,0:0:0
56,272,47508,1,0,0:0:0
256,168,47870,1,2,0:0:0
456,272,48231,1,0,0:0:0
288,120,48593,1,4,0:0:0
256,344,49315,5,0,0:0:0
256,264,49496,2,0,B|256:176,1,75,4|0,0:0|0:0,0:0:0
408,128,50038,2,0,B|336:128|408:56|312:32,1,150,2|0,0:0|0:0,0:0:0
104,128,50761,2,0,B|176:128|104:56|200:32,1,150,2|4,0:0|0:0,0:0:0
256,192,51484,12,0,53111,0:0:0
288,136,53653,5,0,0:0:0
328,64,53834,2,0,B|368:-8|464:8|480:120,1,225
256,216,54918,1,2,0:0:0
256,296,55099,1,2,0:0:0
224,136,55460,5,0,0:0:0
184,64,55641,2,0,B|144:-8|48:8|32:120,1,225
176,192,56544,1,2,0:0:0
336,192,56906,1,0,0:0:0
256,328,57267,1,2,0:0:0
176,192,57629,1,0,0:0:0
216,120,57809,1,0,0:0:0
256,48,57990,5,2,0:0:0
416,72,58352,1,2,0:0:0
96,72,58713,1,2,0:0:0
424,248,59617,5,2,0:0:0
424,248,59797,2,0,B|384:312|296:312,1,150,0|0,0:0|0:0,0:0:0
215,312,60340,2,0,B|128:312|88:248,1,150,2|0,0:0|0:0,0:0:0
87,247,60882,1,2,0:0:0
192,24,61243,5,2,0:0:0
256,72,61424,1,0,0:0:0
320,24,61605,1,2,0:0:0
256,176,61966,1,0,0:0:0
184,320,62328,2,0,B|256:360|328:320,1,150,2|0,0:0|0:0,0:0:0
328,320,62870,1,2,0:0:0
328,240,63050,6,0,B|344:200|384:192,2,75
256,208,63593,2,0,B|256:128,2,75,2|0|0,0:0|0:0|0:0,0:0:0
184,240,64135,2,0,B|168:200|128:192,2,75,0|2|0,0:0|0:0|0:0,0:0:0
256,280,64677,1,0,0:0:0
256,280,65038,1,2,0:0:0
256,192,65400,12,4,68653,0:0:0
256,192,69014,12,4,70099,0:0:0
152,192,70460,5,4,2:0:0
112,120,70640,1,0,0:0:0
136,88,70730,1,0,0:0:0
176,88,70821,1,0,0:0:0
256,232,71183,1,2,2:0:0
256,232,71364,1,2,2:0:0
88,240,71725,6,0,B|112:296|176:256|216:312,1,150,0|2,0:0|0:0,0:0:0
256,152,72448,1,0,0:0:0
298,309,72809,2,0,B|336:256|400:296|424:240,1,150,2|0,0:0|0:0,0:0:0
360,192,73352,5,4,2:0:0
440,192,73532,1,0,0:0:0
400,120,73713,1,0,0:0:0
376,88,73803,1,0,0:0:0
336,88,73894,1,0,0:0:0
256,120,74075,1,2,2:0:0
256,40,74255,1,2,2:0:0
184,192,74617,6,0,B|240:216|272:216|328:192,1,150,0|2,0:0|0:0,0:0:0
184,272,75340,1,0,0:0:0
256,312,75520,1,0,0:0:0
328,272,75701,1,2,0:0:0
392,224,75882,2,0,B|336:168,1,75
256,192,76243,5,4,2:0:0
256,112,76424,2,0,B|256:64,2,37.5
120,224,76966,2,2,B|176:168,1,75,2|2,0:0|0:0,0:0:0
24,248,77508,5,2,0:0:0
168,328,77870,1,0,0:0:0
344,328,78231,1,2,0:0:0
488,248,78593,1,0,0:0:0
256,192,78954,12,0,80038,0:0:0
88,312,80400,6,0,B|168:184,1,150
344,184,81123,2,0,B|424:312,1,150
344,320,81665,2,0,B|296:256,1,75
213,260,82026,6,0,B|168:320,1,75,4|0,2:0|0:0,0:0:0
168,320,82297,1,0,0:0:0
168,320,82388,1,0,0:0:0
216,160,82749,1,2,2:0:0
296,160,82930,1,2,2:0:0
152,88,83291,5,0,0:0:0
256,216,83653,1,2,0:0:0
360,88,84014,1,0,0:0:0
328,248,84376,1,2,0:0:0
256,280,84556,1,0,0:0:0
184,248,84737,1,0,0:0:0
216,328,84918,5,4,2:0:0
256,344,85008,1,0,0:0:0
296,328,85099,1,0,0:0:0
376,328,85279,1,0,0:0:0
136,328,85641,1,2,2:0:0
136,328,85821,1,2,2:0:0
264,224,86183,6,0,B|312:184|368:208|352:288,1,150,0|2,0:0|0:0,0:0:0
248,152,86906,2,0,B|200:192|144:168|160:88,1,150,0|2,0:0|0:0,0:0:0
96,144,87448,2,0,B|64:184|96:224,1,75
144,272,87809,6,0,B|184:304|224:272,1,75,4|0,2:0|0:0,0:0:0
298,279,88171,2,0,B|328:304|368:272,1,75
423,213,88532,2,2,B|448:184|416:144,1,75
93,74,89074,6,0,B|184:112|224:40,1,150,0|2,0:0|0:0,0:0:0
256,96,89616,1,0,0:0:0
288,40,89797,2,0,B|328:112|424:72,1,150,2|0,0:0|0:0,0:0:0
256,192,90520,12,0,91604,0:0:0
256,48,91966,5,4,0:0:0
256,88,92056,2,0,B|256:136,7,37.5
336,144,92869,6,0,B|344:176|328:248|256:248|256:248|184:248|168:176|176:144,1,300,4|2,0:0|0:0,0:0:0
128,256,93954,1,0,0:0:0
168,328,94135,1,0,2:0:0
256,352,94315,1,0,0:0:0
336,328,94496,1,0,0:0:0
384,256,94677,1,0,2:0:0
336,192,94857,1,0,0:0:0
168,192,95219,1,0,0:0:0
256,192,95400,1,0,0:0:0
416,120,95761,5,4,0:0:0
456,192,95942,1,0,0:0:0
416,264,96122,1,2,0:0:0
344,304,96303,2,0,B|312:384|208:384|168:304,1,225,2|0,0:0|0:0,0:0:0
224,152,97207,6,0,B|160:200,2,75,4|0|4,0:0|0:0|0:0,0:0:0
256,72,97749,2,0,B|256:32,6,37.5,0|0|2|0|4|0|2,0:0|0:0|0:0|0:0|0:0|0:0|0:0,0:0:0
288,152,98472,6,0,B|352:200,3,75,0|4|0|0,0:0|0:0|0:0|0:0,0:0:0
360,280,99195,2,0,B|296:240|256:280|256:280|216:320|152:280,1,225,2|0,0:0|0:0,0:0:0
296,192,100098,5,4,0:0:0
216,192,100279,1,0,0:0:0
256,120,100460,1,0,0:0:0
184,80,100640,1,2,0:0:0
216,56,100731,1,0,0:0:0
256,48,100821,1,2,0:0:0
296,56,100911,1,0,0:0:0
328,80,101002,1,2,0:0:0
256,192,101544,12,0,102267,0:0:0
