osu file format v7

[General]
AudioFilename: Digimon 02.mp3
AudioLeadIn: 2000
PreviewTime: 36897
Countdown: 1
SampleSet: Normal
StackLeniency: 0.7
Mode: 0
LetterboxInBreaks: 1

[Editor]
DistanceSpacing: 0.800000011920929
BeatDivisor: 4
GridSize: 8

[Metadata]
Title:Digimon 02 (TV Size)
Artist:Manga Boys
Creator:tmokb93
Version:Pandahmon
Source:Digimon Adventure 2
Tags:italian op project xxheroxx Kuroneko-sHerald

[Difficulty]
HPDrainRate:7
CircleSize:4
OverallDifficulty:7
SliderMultiplier:1.4
SliderTickRate:1

[Events]
//Background and Video events
0,0,"tmokmon.jpg"
Video,0,"Digimon02.avi"
//Break Periods
//Storyboard Layer 0 (Background)
//Storyboard Layer 1 (Fail)
//Storyboard Layer 2 (Pass)
//Storyboard Layer 3 (Foreground)
//Storyboard Sound Samples
//Background Colour Transformations
3,100,0,128,255

[TimingPoints]
1200,382.897255902999,4,1,0,60,1,0
11527,-200,4,1,0,60,0,0
13411,-100,4,2,0,81,0,0
13633,-100,4,1,0,50,0,0
20048,-100,4,1,0,0,0,0
20239,-100,4,1,0,50,0,0
31496,-200,4,1,0,50,0,0
32836,-100,4,1,0,50,0,0
34887,-100,4,1,0,40,0,0
35653,-100,4,1,0,30,0,0
36036,-100,4,1,0,50,0,0
49439,-100,4,2,0,80,0,0
50205,-100,4,1,0,50,0,0
53268,-100,4,1,0,50,0,1
76406,-100,4,1,0,50,0,0

[Colours]
Combo1 : 239,181,84
Combo2 : 243,207,211
Combo3 : 105,246,212

[HitObjects]
256,192,625,1,0
256,192,817,1,0
160,128,1200,5,0
64,192,1582,1,8
160,256,1965,1,0
160,256,2157,1,0
352,256,2540,5,2
448,192,2923,1,2
352,128,3305,1,2
256,96,3688,2,0,B|224:64|224:32,2,70
256,96,4263,5,0
256,192,4646,1,8
256,288,5028,2,0,B|288:320|288:352,1,70,0|0
192,288,5603,5,2
96,224,5986,1,2
64,128,6369,1,2
160,160,6752,2,0,B|160:224|224:192,3,70
200,202,7709,1,8
256,192,7900,12,4,10389
256,192,10772,5,8
256,192,10963,1,0
256,192,11346,5,0
200,200,11538,2,0,B|152:232|152:296|208:352|288:352|344:296|352:256|296:192,1,350
256,32,13835,5,8
160,96,14218,1,0
128,192,14601,1,0
112,248,14792,1,0
160,288,14984,1,0
320,288,15558,6,0,B|352:256|352:224,2,70
320,288,16324,1,2
256,192,16707,2,0,B|224:160|224:128,4,70,2|0|2|0|0
352,128,17856,2,0,B|384:160|384:192,2,70,2|0|2
256,64,18621,1,2
256,64,19004,2,0,B|224:96|224:128,1,70
160,224,19579,6,0,B|256:320|350:215,2,210,4|2|8
160,224,20919,1,0
256,192,21302,1,0
160,128,21685,5,0
160,128,21876,2,0,B|256:32|350:137,3,210
342,128,23790,1,0
342,128,23982,5,2
256,192,24365,5,2
160,128,24748,5,2
256,192,25131,6,0,B|256:288,2,70,0|8|0
256,192,25705,12,0,27045
192,64,27811,6,0,B|128:64|64:128,1,140
128,224,28577,2,0,B|192:224|256:160,1,140,2|2
352,160,29342,6,0,B|416:160|480:224,1,140,2|0
416,320,30108,2,0,B|352:320|288:256,3,140,2|2|2|2
192,192,31640,5,0
192,192,31831,2,0,B|192:128|224:96|280:96|312:128|312:195,1,210,4|8
311,178,33171,1,0
96,192,33937,5,0
96,192,34129,2,0,B|96:256|128:288|184:288|216:256|216:189,1,210
256,96,35086,5,0
256,96,35469,1,0
320,192,35852,5,0
320,192,36235,1,2
256,288,36617,5,2
192,192,37000,5,2
224,96,37383,5,0
256,64,37575,1,8
288,96,37766,1,0
345,129,37958,6,0,B|254:233|162:127,1,210,2|0
0,224,39106,6,0,B|84:323|180:227,1,210,2|0
256,64,40255,5,0
256,160,40638,1,8
320,224,41021,2,0,B|416:320|506:215,2,210,2|2|8
256,64,42744,5,0
96,128,43318,2,0,B|32:192|96:256,1,140,2|8
192,288,44084,2,0,B|256:224|192:160,1,140,2|0
256,128,44658,1,2
256,128,45233,5,2
352,192,45807,2,0,B|288:256|352:320,1,140,2|0
400,312,46381,1,0
448,288,46573,1,0
448,232,46764,1,8
408,192,46956,1,0
256,192,47147,12,0,49253
128,64,49636,6,0,B|64:64|64:128,3,70,2|2|2|0
64,192,50593,1,8
64,192,50785,1,0
128,288,51168,1,0
192,320,51359,1,8
256,288,51550,1,0
320,320,51742,2,0,B|320:256,2,35
384,288,52125,1,8
448,256,52316,1,0
384,224,52508,1,0
320,192,52699,6,0,B|296:192|272:168|240:168,2,70,2|8|2
320,192,53274,1,4
320,96,53656,1,4
320,96,54039,2,0,B|296:96|272:120|240:120,1,70,2|2
128,96,54614,6,0,B|64:160|128:224,1,140,4|0
224,288,55379,1,0
288,320,55571,1,0
352,288,55762,1,0
416,256,55954,1,8
384,192,56145,1,0
384,192,56337,6,0,B|448:128|384:64,1,140,4|0
288,64,57102,1,2
224,64,57294,1,2
128,96,57677,6,0,B|64:160|128:224,3,140,4|0|0|0
123,219,59017,1,8
123,219,59208,1,0
192,288,59400,6,0,B|256:352|320:288,1,140,4|0
256,192,60166,1,2
256,192,60357,1,2
256,80,60740,5,0
368,72,61123,1,0
376,184,61506,1,0
256,192,61889,1,0
256,192,62080,1,8
256,192,62272,1,0
192,224,62463,6,0,B|128:224|128:288,1,70,2|0
133,254,62846,1,2
133,254,63037,1,2
32,256,63420,1,2
32,256,63612,1,10
32,160,63995,5,0
96,128,64186,1,0
160,160,64378,1,8
224,128,64569,1,0
288,160,64760,1,0
352,128,64952,1,0
416,160,65143,1,8
480,128,65335,1,0
256,192,65526,12,2,66292
256,192,66483,5,2
160,128,66866,6,0,B|96:192|160:256,1,140,4|0
256,192,67632,1,0
352,256,68015,2,0,B|416:192|352:128,1,140
256,128,68589,5,0
256,256,68972,1,8
192,160,69355,1,2
192,224,69547,1,2
96,160,69930,6,0,B|160:96|224:96,3,140,4|0|0|0
224,160,71270,1,8
288,160,71461,1,0
288,96,71653,2,0,B|352:96|416:160,1,140,4|8
288,224,72418,2,0,B|256:256|224:224,1,70
226,226,72801,5,8
226,226,72993,1,2
144,304,73376,1,2
256,352,73759,1,2
352,288,74141,1,0
256,288,74333,5,8
256,288,74524,1,0
224,224,74716,2,0,B|224:160|160:160|160:96,1,140,6|0
256,40,75290,1,6
256,40,75673,1,0
352,96,75864,2,0,B|352:160|288:160|288:224,1,140,6|0
256,192,76343,12,2,78353
256,32,78736,5,2
160,96,79119,1,2
224,192,79502,1,0
256,256,79693,1,8
288,192,79885,1,0
288,192,80076,5,2
352,288,80459,1,2
160,288,80842,1,2
160,288,81034,1,2
256,192,81416,12,4,83140
256,192,83522,5,8
224,288,83905,2,0,B|256:320|288:288,1,70,2|2
256,192,84480,1,0
256,192,84863,1,0
288,96,85245,2,0,B|256:64|224:96,4,70,0|0|0|8|0
256,192,86203,12,4,89074
