osu file format v7

[General]
AudioFilename: Digimon 02.mp3
AudioLeadIn: 2000
PreviewTime: 36897
Countdown: 1
SampleSet: Soft
StackLeniency: 0.7
Mode: 0
LetterboxInBreaks: 1

[Editor]
DistanceSpacing: 0.800000011920929
BeatDivisor: 4
GridSize: 8

[Metadata]
Title:Digimon 02 (TV Size)
Artist:Manga Boys
Creator:tmokb93
Version:Kuromon
Source:Digimon Adventure 2
Tags:italian op project xxheroxx Kuroneko-sHerald

[Difficulty]
HPDrainRate:3
CircleSize:3
OverallDifficulty:3
SliderMultiplier:1
SliderTickRate:1

[Events]
//Background and Video events
0,0,"Kuromon.jpg"
Video,0,"Digimon02.avi"
//Break Periods
2,10589,12012
2,23416,24265
2,34902,36518
//Storyboard Layer 0 (Background)
//Storyboard Layer 1 (Fail)
//Storyboard Layer 2 (Pass)
//Storyboard Layer 3 (Foreground)
//Storyboard Sound Samples
//Background Colour Transformations
3,100,0,128,255

[TimingPoints]
1200,382.897255902999,4,2,0,60,1,0
7985,-100,4,2,0,0,0,0
9421,-100,4,2,0,20,0,0
9804,-100,4,2,0,40,0,0
10187,-100,4,2,0,60,0,0
52311,-100,4,2,0,60,0,1
76915,-100,4,2,0,0,0,1
79787,-100,4,2,0,60,0,1

[Colours]
Combo1 : 0,0,132
Combo2 : 182,136,103
Combo3 : 133,149,112

[HitObjects]
216,40,1200,5,4
296,40,1582,1,4
168,192,2540,6,0,B|256:280|352:184,2,200
128,192,4263,1,4
152,112,4646,1,4
352,112,5603,5,0
432,112,5986,1,0
392,184,6369,1,0
344,248,6752,2,0,B|384:296,3,50,0|0|0|4
448,248,7709,1,4
256,192,8092,12,4,10389
344,88,13452,6,0,B|288:40|216:40|152:96,1,200,4|2
176,168,14601,1,2
176,168,14792,1,2
336,168,15558,6,0,B|264:168,2,50,4|0|4
416,168,16324,1,0
416,248,16707,2,0,B|352:248,4,50,4|0|4|0|4
416,328,17856,1,8
336,328,18238,1,8
256,328,18621,1,8
176,328,19004,1,4
96,232,19579,6,0,B|152:176|256:144|368:176|432:248,1,350
304,344,21685,2,0,B|264:328|240:328|184:352,4,100
344,296,25705,6,0,B|288:344|216:344|152:288,1,200,4|0
80,296,26854,2,0,B|80:232,1,50
40,88,27811,6,0,B|80:40|88:40|96:40|104:40|128:88|136:96|144:104|168:136|176:136|184:136|192:136|208:104|216:96|224:88|264:32,1,300
254,45,29342,2,0,B|285:88|293:96|301:104|317:136|325:136|333:136|341:136|365:104|373:96|381:88|405:40|413:40|421:40|429:40|469:88,1,300
472,168,30874,1,0
472,248,31257,1,0
392,248,31640,6,0,B|328:328|240:328|176:240,1,250
288,208,33171,1,0
288,48,33937,2,0,B|288:112,4,50,0|0|0|0|4
256,112,37958,6,0,B|168:88|112:176,1,150,4|0
72,264,39106,2,0,B|160:288|216:200,1,150,4|0
320,192,40255,2,0,B|384:200|408:144,1,100,4|0
416,72,41021,2,0,B|328:48|272:136,1,150,4|0
392,176,42170,1,4
312,264,42744,5,0
192,264,43318,1,4
136,208,43701,1,0
88,144,44084,1,4
192,80,44658,1,0
312,80,45233,5,4
256,184,45807,1,0
256,304,46381,5,4
256,304,46573,1,4
256,304,46764,1,0
256,304,46956,1,4
256,304,47147,1,4
256,192,47339,12,4,49445
256,192,49636,12,4,52125
256,104,52699,6,0,B|256:176,3,50,0|0|0|4
256,232,53656,1,4
120,80,54614,6,0,B|120:184,1,100
120,264,55379,1,0
200,264,55762,1,0
240,264,55954,1,0
320,264,56337,6,0,B|320:152,1,100,4|4
152,56,57677,6,0,B|272:56,2,100
152,176,59017,1,0
152,256,59400,6,0,B|264:256,1,100,4|4
448,312,60740,5,0
448,232,61123,1,0
448,152,61506,1,0
448,72,61889,1,0
448,72,62080,1,0
448,72,62272,1,0
448,72,62463,6,0,B|344:32|232:32|136:80,1,300,0|2
256,240,64569,5,0
256,160,64952,2,0,B|256:96,3,50,0|0|0|4
256,32,65909,1,4
56,64,66866,5,0
104,128,67249,1,0
152,192,67632,1,0
184,80,68207,1,0
264,80,68589,5,4
224,152,68972,2,0,B|224:272,1,100,4|0
344,248,69930,6,0,B|312:360|232:392|112:360|104:224,1,350
176,208,71653,6,0,B|296:208,1,100,4|4
256,48,72801,5,0
256,48,72993,1,0
256,128,73376,1,0
256,128,73759,2,0,B|256:288,1,150,0|4
192,328,74716,2,0,B|264:400|336:312,1,150
256,232,75864,1,0
296,160,76247,5,0
216,160,76630,1,0
256,192,77013,12,0,79693
256,192,79885,12,0,82182
216,56,83140,5,4
216,136,83522,1,4
216,336,84480,5,0
216,256,84863,1,0
216,176,85245,1,0
216,96,85628,2,0,B|216:40,1,50
296,48,86203,5,0
296,128,86586,1,0
296,128,86777,1,0
296,208,87160,1,0
296,208,87351,1,0
256,192,87543,12,4,89074
