osu file format v7

[General]
AudioFilename: Digimon 02.mp3
AudioLeadIn: 2000
PreviewTime: 36897
Countdown: 1
SampleSet: Normal
StackLeniency: 0.6
Mode: 0
LetterboxInBreaks: 1

[Editor]
DistanceSpacing: 0.800000011920929
BeatDivisor: 4
GridSize: 16

[Metadata]
Title:Digimon 02 (TV Size)
Artist:Manga Boys
Creator:tmokb93
Version:Heromon
Source:Digimon Adventure 2
Tags:italian op project xxheroxx Kuroneko-sHerald

[Difficulty]
HPDrainRate:4
CircleSize:4
OverallDifficulty:5
SliderMultiplier:1.3
SliderTickRate:1

[Events]
//Background and Video events
0,0,"heromon.jpg"
Video,0,"Digimon02.avi"
//Break Periods
//Storyboard Layer 0 (Background)
//Storyboard Layer 1 (Fail)
//Storyboard Layer 2 (Pass)
//Storyboard Layer 3 (Foreground)
//Storyboard Sound Samples
//Background Colour Transformations
3,100,0,128,255

[TimingPoints]
1200,382.897255902999,4,1,1,50,1,0
53280,-100,4,1,1,50,0,1
65439,-100,4,1,1,50,0,0
65534,-100,4,1,1,50,0,1
76927,-100,4,1,1,50,0,0
77023,-100,4,1,1,50,0,1
77119,-100,4,1,1,50,0,0
80086,-100,4,1,1,50,0,1
80182,-100,4,1,1,50,0,0
83150,-100,4,1,1,50,0,1
83246,-100,4,1,1,50,0,0
86214,-100,4,1,1,50,0,1
86309,-100,4,1,1,50,0,0
89086,-100,4,1,1,50,0,1
89181,-100,4,1,1,50,0,0

[Colours]
Combo1 : 255,0,0
Combo2 : 51,186,231
Combo3 : 255,210,0

[HitObjects]
193,57,1200,2,0,B|353:57,1,130,4|8
257,137,1965,1,0
257,249,2348,1,8
176,192,2731,6,0,B|176:336,1,130,0|8
257,373,3497,1,0
336,322,3880,2,0,B|336:192,1,130,8|4
256,128,4646,1,8
352,96,5028,6,0,B|400:32,2,65,0|0|8
256,48,5794,2,0,B|256:-32,2,65,0|0|8
160,96,6560,2,0,B|112:32,2,65,0|0|8
204,190,7326,6,0,B|124:174|76:254|140:318,2,195,4|0|0
308,190,8857,2,0,B|388:174|436:254|372:318,2,195
256,192,10389,12,4,13452
256,192,13835,5,8
160,192,14218,2,0,B|167:136|197:101|266:94,1,130,0|8
320,121,14984,2,0,B|391:203|342:287|274:306|197:273,1,260
128,240,16132,5,8
64,160,16515,2,0,B|208:160,1,130,0|8
256,80,17281,1,0
320,160,17664,2,0,B|480:160,1,130,8|0
384,240,18430,1,8
304,320,18813,1,0
256,352,19004,1,0
208,320,19196,1,8
128,240,19579,6,0,B|77:127|167:46|254:32|360:61|445:131|374:263,1,520,4|0
336,336,21493,5,8
256,272,21876,1,0
176,336,22259,1,8
256,272,22642,6,0,B|184:213|114:241|87:295,2,195,0|0|0
256,272,24173,2,0,B|328:213|398:241|425:295,2,195
256,160,25705,5,4
336,96,26088,1,8
256,32,26471,1,0
256,32,26662,1,0
256,32,26854,1,8
176,96,27237,1,0
256,160,27619,1,8
160,192,28002,6,0,B|80:304,1,130,0|8
192,288,28768,2,0,B|192:368,2,65,0|0|8
256,208,29534,1,0
320,288,29917,2,0,B|320:353,2,65,8|0|0
427,297,30683,2,0,B|352:192,1,130,8|0
304,96,31448,6,0,B|448:96,2,130,8|4|8
256,192,32597,1,0
208,96,32980,2,0,B|64:96,1,130,8|0
144,176,33746,5,8
208,256,34129,1,0
256,288,34320,1,0
304,256,34512,1,8
368,176,34894,1,0
368,176,35277,6,0,B|448:208,2,65,8|0|0
304,256,36043,2,0,B|352:336,2,65,8|0|0
208,256,36809,2,0,B|160:336,2,65,8|0|0
144,176,37575,2,0,B|64:208,2,65,8|0|4
192,80,38341,5,8
256,160,38723,1,0
256,160,38915,1,0
256,160,39106,1,8
256,160,39298,1,0
256,160,39489,1,0
320,80,39872,1,8
256,160,40255,2,0,B|256:304,1,130,0|8
160,240,41021,6,0,B|64:240,2,65,4|0|8
208,336,41787,1,0
304,336,42170,1,8
352,240,42552,2,0,B|448:240,2,65,0|0|8
320,144,43318,1,0
256,64,43701,1,8
192,144,44084,1,4
126,225,44467,6,0,B|414:225,1,260,8|8
320,304,45616,2,0,B|176:304,2,130,0|8|0
256,384,46764,1,8
256,192,47147,12,4,53274
256,192,53656,5,8
196,106,54039,2,0,B|224:80|255:79|293:80|324:114,1,130,0|8
357,202,54805,2,0,B|366:287|293:314,1,130,0|8
208,309,55571,2,0,B|147:284|156:199,1,130,0|8
256,192,56337,6,0,B|256:32,1,130,4|8
176,129,57102,2,0,B|198:195|182:230|135:257,1,130,0|8
256,288,57868,1,0
360,246,58251,2,0,B|331:226|314:195|336:126,1,130,8|0
256,192,59017,1,8
256,80,59400,5,4
160,80,59783,2,0,B|128:144|128:144|48:160,1,130,8|0
160,208,60549,2,0,B|128:272|128:272|176:320,1,130,8|0
256,256,61314,1,8
342,313,61697,2,0,B|384:272|384:272|352:208,1,130,0|8
442,155,62463,2,0,B|384:144|384:144|352:80,1,130,0|8
256,48,63229,5,0
256,96,63420,1,0
256,144,63612,2,0,B|256:208|256:208|170:221|43:241|46:312|253:267|479:207|455:296|333:332|255:322|255:322|256:390,1,650,8|4
160,336,65909,5,8
80,272,66292,1,0
144,192,66675,1,8
192,96,67058,2,0,B|256:64|334:101,1,130,0|8
368,192,67824,1,0
432,272,68207,1,8
352,336,68589,5,4
256,288,68972,1,8
160,336,69355,1,0
256,288,69738,1,8
256,192,70121,2,0,B|128:96,1,130,0|8
256,192,70887,2,0,B|384:96,1,130,0|8
256,96,71653,5,4
160,144,72035,1,8
160,240,72418,1,0
256,288,72801,1,8
352,240,73184,1,0
352,144,73567,1,8
256,192,73950,1,0
256,192,74141,1,0
256,192,74333,1,8
167,246,74716,6,0,B|261:323|371:227,2,195,0|0|0
200,147,76247,1,0
312,147,76630,1,0
256,48,77013,5,4
200,147,77396,2,0,B|144:288,1,130,8|0
256,224,78162,2,0,B|256:304,2,65,8|0|0
359,267,78928,2,0,B|312:147,2,130,8|0|8
256,192,80076,12,4,89074
