osu file format v14

[General]
AudioFilename: Inside of Me - StarFox rock song by MandoPony.mp3
AudioLeadIn: 0
PreviewTime: -1
Countdown: 1
SampleSet: None
StackLeniency: 0.7
Mode: 0
LetterboxInBreaks: 1
WidescreenStoryboard: 0

[Editor]
DistanceSpacing: 0.8
BeatDivisor: 1
GridSize: 32
TimelineZoom: 1

[Metadata]
Title:Inside of Me
TitleUnicode:Inside of Me
Artist:MandoPony
ArtistUnicode:MandoPony
Creator:shinrin321
Version:Insane
Source:star fox
Tags:starfox
BeatmapID:719707
BeatmapSetID:323863

[Difficulty]
HPDrainRate:5
CircleSize:5
OverallDifficulty:5
ApproachRate:5
SliderMultiplier:1.4
SliderTickRate:1

[Events]
//Background and Video events
0,0,"maxresdefault.jpg",0,0
//Break Periods
2,76200,85800
2,150700,159800
2,183199,192300
//Storyboard Layer 0 (Background)
//Storyboard Layer 1 (Fail)
//Storyboard Layer 2 (Pass)
//Storyboard Layer 3 (Foreground)
//Storyboard Sound Samples

[TimingPoints]
0,500,4,1,0,100,1,0
55781,-100,4,1,0,100,0,1
76439,-100,4,1,0,100,0,0
130631,-100,4,1,0,100,0,1
150581,-100,4,1,0,100,0,0
205000,-100,4,1,0,100,0,1
238328,-100,4,1,0,100,0,0

[HitObjects]
128,96,12500,5,0,0:0:0:0:
352,160,14000,1,0,0:0:0:0:
160,224,15500,1,0,0:0:0:0:
160,160,16000,1,0,0:0:0:0:
192,96,16500,1,0,0:0:0:0:
288,96,17000,1,0,0:0:0:0:
192,128,19500,1,0,0:0:0:0:
64,128,21000,1,0,0:0:0:0:
192,160,21500,1,0,0:0:0:0:
224,64,22500,1,0,0:0:0:0:
128,96,23000,1,0,0:0:0:0:
256,128,24000,1,0,0:0:0:0:
160,160,24500,1,0,0:0:0:0:
160,64,25000,1,0,0:0:0:0:
256,64,26000,1,0,0:0:0:0:
160,160,26500,1,0,0:0:0:0:
256,192,27000,1,0,0:0:0:0:
288,96,27500,1,0,0:0:0:0:
160,96,28500,1,0,0:0:0:0:
96,192,29000,1,0,0:0:0:0:
224,192,30000,1,0,0:0:0:0:
256,96,31000,1,0,0:0:0:0:
128,96,32000,1,0,0:0:0:0:
320,64,32500,1,0,0:0:0:0:
256,160,33000,1,0,0:0:0:0:
160,128,34000,1,0,0:0:0:0:
224,64,34500,1,0,0:0:0:0:
288,64,35000,1,0,0:0:0:0:
352,96,35500,1,0,0:0:0:0:
320,192,36500,1,0,0:0:0:0:
352,192,37000,1,0,0:0:0:0:
384,128,37500,1,0,0:0:0:0:
352,64,38500,1,0,0:0:0:0:
320,64,39000,1,0,0:0:0:0:
224,64,40000,1,0,0:0:0:0:
192,96,40500,1,0,0:0:0:0:
192,128,41000,1,0,0:0:0:0:
256,192,41500,1,0,0:0:0:0:
256,160,43500,1,0,0:0:0:0:
128,160,44500,1,0,0:0:0:0:
192,192,45000,1,0,0:0:0:0:
192,64,46000,1,0,0:0:0:0:
96,128,47000,1,0,0:0:0:0:
224,128,47500,1,0,0:0:0:0:
224,64,48500,1,0,0:0:0:0:
128,96,49000,1,0,0:0:0:0:
288,96,50000,1,0,0:0:0:0:
256,32,50500,1,0,0:0:0:0:
160,96,51000,1,0,0:0:0:0:
256,128,51500,1,0,0:0:0:0:
160,192,52500,1,0,0:0:0:0:
288,192,53000,1,0,0:0:0:0:
192,128,53500,1,0,0:0:0:0:
224,192,54000,1,0,0:0:0:0:
128,96,56000,2,0,L|288:96|256:96,18,140
128,128,65500,1,0,0:0:0:0:
256,96,66500,1,0,0:0:0:0:
224,224,67500,1,0,0:0:0:0:
320,192,68500,1,0,0:0:0:0:
256,96,69000,1,0,0:0:0:0:
96,96,69500,2,0,L|256:96,5,140
256,192,72500,12,0,76000,0:0:0:0:
128,96,87000,5,0,0:0:0:0:
352,128,88500,2,0,P|224:160|256:192,9,280
224,128,98000,1,0,0:0:0:0:
384,128,99000,1,0,0:0:0:0:
160,96,100500,5,0,0:0:0:0:
288,128,101000,1,0,0:0:0:0:
160,192,101500,1,0,0:0:0:0:
224,96,102500,1,0,0:0:0:0:
192,192,103000,2,0,P|384:160|352:192,1,560
128,160,105500,1,0,0:0:0:0:
288,160,106000,1,0,0:0:0:0:
224,224,106500,1,0,0:0:0:0:
224,128,107000,1,0,0:0:0:0:
288,96,108500,5,0,0:0:0:0:
192,128,109000,1,0,0:0:0:0:
256,192,109500,1,0,0:0:0:0:
128,224,110000,1,0,0:0:0:0:
256,64,111000,5,0,0:0:0:0:
384,128,111500,1,0,0:0:0:0:
192,192,112000,1,0,0:0:0:0:
320,256,112500,1,0,0:0:0:0:
256,96,114000,1,0,0:0:0:0:
128,128,114500,1,0,0:0:0:0:
224,192,115000,1,0,0:0:0:0:
256,192,115500,12,0,118500,0:0:0:0:
160,64,119000,5,0,0:0:0:0:
352,64,120000,1,0,0:0:0:0:
256,192,121000,1,0,0:0:0:0:
160,96,122000,1,0,0:0:0:0:
352,96,122500,1,0,0:0:0:0:
256,192,123000,1,0,0:0:0:0:
352,192,123500,1,0,0:0:0:0:
192,192,124500,1,0,0:0:0:0:
192,96,125000,1,0,0:0:0:0:
320,96,125500,1,0,0:0:0:0:
224,192,126500,1,0,0:0:0:0:
256,192,127000,12,0,129500,0:0:0:0:
64,96,131000,6,0,L|224:96,14,140
256,32,138000,1,0,0:0:0:0:
96,128,139000,1,0,0:0:0:0:
256,128,139500,1,0,0:0:0:0:
224,32,140500,1,0,0:0:0:0:
160,96,141000,1,0,0:0:0:0:
256,96,142000,1,0,0:0:0:0:
192,160,142500,1,0,0:0:0:0:
256,160,143000,1,0,0:0:0:0:
256,96,143500,1,0,0:0:0:0:
160,96,144500,1,0,0:0:0:0:
256,160,145000,1,0,0:0:0:0:
192,192,145500,1,0,0:0:0:0:
192,96,146000,1,0,0:0:0:0:
256,96,146500,1,0,0:0:0:0:
256,192,147000,12,0,150500,0:0:0:0:
160,96,161000,5,0,0:0:0:0:
384,96,162000,1,0,0:0:0:0:
160,288,164000,1,0,0:0:0:0:
384,288,165500,1,0,0:0:0:0:
256,192,167000,1,0,0:0:0:0:
128,64,168000,1,0,0:0:0:0:
320,96,169000,1,0,0:0:0:0:
160,192,169500,1,0,0:0:0:0:
224,128,170000,2,0,P|352:224|352:192,13,280
160,96,193500,5,4,0:0:0:0:
352,96,195500,1,0,0:0:0:0:
192,256,197500,1,4,0:0:0:0:
352,256,199000,1,4,0:0:0:0:
224,128,201000,1,4,0:0:0:0:
256,192,202000,12,4,204000,0:0:0:0:
96,128,205000,6,0,L|256:128,16,140
160,128,213500,1,0,0:0:0:0:
320,128,214000,1,0,0:0:0:0:
224,224,214500,1,0,0:0:0:0:
128,160,215000,1,0,0:0:0:0:
288,128,216000,1,0,0:0:0:0:
160,192,216500,1,0,0:0:0:0:
288,224,217000,1,0,0:0:0:0:
256,128,217500,1,0,0:0:0:0:
192,192,218000,1,0,0:0:0:0:
384,224,219000,5,0,0:0:0:0:
288,160,219500,1,0,0:0:0:0:
192,192,220000,1,0,0:0:0:0:
256,256,220500,1,0,0:0:0:0:
320,160,221000,1,0,0:0:0:0:
192,96,222000,1,0,0:0:0:0:
352,160,223500,1,0,0:0:0:0:
192,160,224000,1,0,0:0:0:0:
256,96,224500,1,0,0:0:0:0:
256,192,226500,12,0,233000,0:0:0:0:
160,96,233000,5,0,0:0:0:0:
320,96,234000,1,0,0:0:0:0:
192,192,234500,1,0,0:0:0:0:
320,192,235000,1,0,0:0:0:0:
256,256,235500,1,0,0:0:0:0:
256,192,236000,12,0,238000,0:0:0:0:
