osu file format v9

[General]
AudioFilename: 07 Dragon Quest Swords - Go for Broke!.mp3
AudioLeadIn: 0
PreviewTime: -1
Countdown: 1
SampleSet: Soft
StackLeniency: 0.7
Mode: 0
LetterboxInBreaks: 1

[Editor]
DistanceSpacing: 1
BeatDivisor: 4
GridSize: 8

[Metadata]
Title:Go for Broke!
Artist:Manami Matsumae
Creator:goldenmoon79
Version:BOSS
Source:Dragon Quest Swords ~The Masked Queen and the Tower of Mirrors
Tags:

[Difficulty]
HPDrainRate:6
CircleSize:5
OverallDifficulty:6
ApproachRate:6
SliderMultiplier:1
SliderTickRate:2

[Events]
//Background and Video events
0,0,"Dragon-Quest-Swords-The-Masked-Queen-and-the-Tower-of-Mirrors-6-1280x1024.jpg"
//Break Periods
2,33671,35558
2,75239,82617
//Storyboard Layer 0 (Background)
//Storyboard Layer 1 (Fail)
//Storyboard Layer 2 (Pass)
//Storyboard Layer 3 (Foreground)
//Storyboard Sound Samples
//Background Colour Transformations
3,100,163,162,255

[TimingPoints]
530,392.156862745098,4,2,0,100,1,0

[Colours]
Combo1 : 0,255,255
Combo2 : 255,255,255
Combo3 : 255,128,255
Combo4 : 0,0,0

[HitObjects]
32,192,6804,2,0,B|144:192,1,100,4|0
232,192,7588,1,0
232,96,7980,1,2
320,144,8373,2,0,B|432:144,2,100,0|2|0
320,240,9549,1,2
224,240,9941,6,0,B|176:272|120:272|72:240,2,150
224,136,11510,2,0,B|344:136,2,100
128,136,12686,1,0
128,240,13079,6,0,B|344:240,2,200,4|4|4
128,144,15039,1,2
224,144,15431,2,0,B|336:144,1,100,0|2
256,192,16216,12,0,18569
256,48,19353,5,4
184,112,19745,1,0
256,176,20137,1,2
336,112,20530,1,4
336,208,20922,2,0,B|336:296|264:320|192:272|192:232,1,200
112,208,22098,5,4
256,72,22882,1,2
400,208,23667,1,2
256,344,24451,1,2
256,248,24843,1,0
344,296,25235,6,0,B|224:296,2,100,0|2|0
448,296,26412,1,0
448,96,27196,1,2
448,192,27588,1,0
352,192,27980,6,0,B|272:128|216:192|152:256|64:192,2,300,4|2|0
352,296,30726,1,4
256,120,31510,1,2
168,296,32294,1,0
256,120,33079,2,0,B|256:232,1,100,2|4
152,176,36608,6,0,B|72:312|168:376|256:408|344:376|440:312|360:176,1,550,4|2
256,72,39353,1,0
256,168,39745,2,0,B|312:304|200:384|32:312|112:160,1,400,0|2
256,40,42098,1,2
456,32,42882,6,0,B|456:128|344:128,1,150,4|0
256,232,44059,1,2
256,128,44451,2,0,B|176:128|144:160|144:216,1,150,0|2
256,304,45628,1,2
256,192,46020,12,0,47980
112,80,48765,6,0,B|192:0|272:80|328:136|400:80,2,300,0|2|0
128,176,51510,1,2
128,272,51902,1,0
208,328,52294,1,2
304,328,52686,1,0
392,272,53079,1,2
392,176,53471,1,0
304,120,53863,1,2
304,216,54255,6,0,B|256:248|200:216,1,100,4|0
152,136,55039,2,0,B|104:160|104:224,1,100,2|0
40,296,55824,2,0,B|88:328|144:304,1,100,4|0
232,336,56608,2,0,B|248:288|224:240,1,100,0|4
256,144,57392,5,2
256,344,58177,1,0
256,248,58569,2,0,B|192:248|128:224|120:104|184:48|256:64,1,300,0|2
248,160,60137,2,0,B|408:160,2,150,0|2|0
144,160,61706,1,0
344,160,62490,1,2
256,344,63275,6,0,B|256:224,1,100,4|0
256,144,64059,1,2
456,144,64843,2,0,B|456:256,1,100
456,344,65628,1,2
256,192,66412,12,0,68765
256,192,69549,5,4
456,192,70333,1,2
360,368,71118,1,0
160,368,71902,1,2
160,272,72294,6,0,B|96:272|64:184|128:104|256:104|256:272|256:272|312:272,1,400,4|0
400,272,74255,1,2
400,176,74647,2,0,B|288:176,1,100,0|4
200,216,83667,6,0,B|120:280|141:365|272:432|384:376|392:248|304:208,1,450,4|0
256,64,86020,2,0,B|256:176,1,100
320,240,86804,6,0,B|288:304|200:272|192:232,1,150
256,104,87980,1,0
360,104,88373,2,0,B|360:224|240:256,1,200
152,256,89549,1,0
