osu file format v9

[General]
AudioFilename: -kagerou-.mp3
AudioLeadIn: 0
PreviewTime: 51632
Countdown: 1
SampleSet: Normal
StackLeniency: 0.7
Mode: 0
LetterboxInBreaks: 1

[Editor]
DistanceSpacing: 0.8
BeatDivisor: 4
GridSize: 8

[Metadata]
Title:Momoiro Paradox
Artist:Mamoru
Creator:thinkinglf2
Version:Easy
Source:Sengoku Otome
Tags:

[Difficulty]
HPDrainRate:3
CircleSize:4
OverallDifficulty:2
ApproachRate:3
SliderMultiplier:1.4
SliderTickRate:1

[Events]
//Background and Video events
Video,0,"戰國乙女桃色傳.avi"
0,0,"wp01_1280.jpg"
//Break Periods
2,23689,29183
//Storyboard Layer 0 (Background)
//Storyboard Layer 1 (Fail)
//Storyboard Layer 2 (Pass)
//Storyboard Layer 3 (Foreground)
//Storyboard Sound Samples
//Background Colour Transformations
3,100,163,162,255

[TimingPoints]
-5.96,419.58041958042,4,1,0,65,1,0

[HitObjects]
104,104,3350,1,0
96,216,3770,2,0,B|136:320|224:304,1,140
304,312,4608,1,0
416,312,5029,1,0
432,200,5448,2,0,B|464:112|424:48,3,140
368,152,7126,5,0
304,56,7546,1,0
248,152,7966,1,0
192,56,8385,1,0
136,152,8805,2,0,B|88:240|160:304,1,140
240,232,9644,2,0,B|320:248|352:320,1,140
256,192,10483,12,0,11742
256,280,12581,1,0
256,280,13001,1,0
256,192,13840,12,0,15099
256,104,15938,1,0
256,104,16358,1,0
256,224,16987,5,0
256,224,17196,2,0,B|328:272|400:208,1,140
384,104,18035,1,0
272,104,18455,1,0
160,104,18875,2,0,B|112:160|136:264,1,140
130,236,19714,1,0
336,312,20553,6,0,B|432:192,1,140
344,128,21392,2,0,B|240:232,1,140
152,168,22231,2,0,B|216:32,3,140
128,304,30623,5,0
360,312,31462,1,0
192,160,32301,1,0
416,160,33140,5,0
320,96,33560,1,0
216,64,33980,2,0,B|64:64|64:264,1,280
168,296,35238,1,0
280,312,35658,2,0,B|400:320|416:256,1,140
424,160,36497,2,0,B|408:96|304:56,1,140
216,80,37336,5,0
104,272,37966,1,0
104,272,38175,1,0
264,312,38805,1,0
264,312,39015,2,0,B|416:312,1,140
404,312,39854,1,0
400,88,40693,5,0
232,88,41322,1,0
232,88,41532,1,0
112,200,42161,1,0
112,200,42371,2,0,B|184:328|360:320,1,280
408,104,44049,5,0
360,208,44469,1,0
312,104,44889,1,0
264,208,45308,1,0
216,104,45728,1,0
176,208,46147,2,0,B|144:144|144:144|72:192|120:296|216:272,1,280
312,320,47406,6,0,B|432:336|424:240,1,140
440,152,48245,2,0,B|376:64|312:104,1,140
216,80,49084,2,0,B|184:56|120:136|88:80,2,140
256,192,50343,12,0,52022
256,192,52441,5,0
256,192,53280,1,0
72,72,54119,2,0,B|120:144|56:224,1,140
72,312,54959,1,0
296,320,55798,6,0,B|400:320|424:256,1,140
312,240,56637,2,0,B|336:168|424:160,1,140
352,72,57476,2,0,B|232:168,2,140
352,72,58735,1,0
240,72,59154,2,0,B|152:40|88:88,1,140
88,192,59994,2,0,B|112:288|184:288,1,140
240,192,60833,2,0,B|344:288,2,140
240,192,62091,1,0
160,112,62511,5,0
384,96,63350,1,0
352,320,64189,1,0
128,304,65029,5,0
216,232,65448,1,0
304,168,65868,2,0,B|288:96|192:96,2,140
312,280,67126,1,0
200,288,67546,2,0,B|96:256|104:176,2,140
256,192,68805,1,0
344,120,69224,5,0
120,88,70063,1,0
80,312,70903,1,0
304,320,71742,5,0
368,224,72161,1,0
424,128,72581,2,0,B|336:80|264:112,2,140
368,224,73840,1,0
304,312,74259,2,0,B|192:280|192:208,2,140
256,96,75938,5,0
56,192,76777,1,0
256,296,77616,1,0
456,192,78455,1,0
256,192,79294,12,0,82231
