osu file format v14

[General]
AudioFilename: melty snow (Short Ver.).mp3
AudioLeadIn: 0
PreviewTime: 92606
Countdown: 0
SampleSet: Soft
StackLeniency: 0.4
Mode: 0
LetterboxInBreaks: 0
EpilepsyWarning: 1
WidescreenStoryboard: 0

[Editor]
Bookmarks: 17268,31704,50952,70200,94260,113508,132756,152004
DistanceSpacing: 1
BeatDivisor: 4
GridSize: 4
TimelineZoom: 1

[Metadata]
Title:melty snow (Short ver.)
TitleUnicode:melty snow (Short ver.)
Artist:Mami Kawada
ArtistUnicode:川田まみ
Creator:Sure
Version:Normal
Source:あねいも2 ~Second Stage~
Tags:Aneimo 2nd bootUP! eroge visual novel opening ykcarrot
BeatmapID:674769
BeatmapSetID:300896

[Difficulty]
HPDrainRate:4
CircleSize:3.5
OverallDifficulty:4
ApproachRate:5
SliderMultiplier:1.6
SliderTickRate:2

[Events]
//Background and Video events
0,0,"Main BG.jpg",0,0
//Break Periods
2,135362,140880
//Storyboard Layer 0 (Background)
//Storyboard Layer 1 (Fail)
//Storyboard Layer 2 (Pass)
//Storyboard Layer 3 (Foreground)
//Storyboard Sound Samples

[TimingPoints]
7644,601.503759398496,4,2,1,60,1,0
15764,-100,4,2,1,40,0,0
16516,-100,4,2,1,5,0,0
16666,-100,4,2,1,40,0,0
16816,-100,4,2,1,60,0,0
29298,-100,4,2,1,50,0,0
29448,-100,4,2,1,30,0,0
32004,-100,4,2,1,60,0,0
69598,-100,4,2,1,45,0,0
70200,-100,4,2,1,60,0,0
89448,-100,4,2,1,30,0,0
89749,-100,4,2,1,35,0,0
90350,-100,4,2,1,39,0,0
90952,-100,4,2,1,43,0,0
91553,-100,4,2,1,47,0,0
92155,-100,4,2,1,51,0,0
92756,-100,4,2,1,55,0,0
93057,-100,4,2,1,5,0,0
93207,-100,4,2,1,55,0,0
93358,-100,4,2,1,5,0,0
93508,-100,4,2,1,55,0,0
94260,-100,4,2,1,70,0,1
113358,-100,4,2,1,70,0,0
113508,-100,4,2,1,70,0,1
131553,-100,4,2,1,5,0,1
131704,-100,4,2,1,55,0,1
131854,-100,4,2,1,5,0,1
132004,-100,4,2,1,70,0,1
132756,-100,4,2,1,60,0,0
134260,-100,4,2,1,55,0,0
134561,-100,4,2,1,50,0,0
134862,-100,4,2,1,45,0,0
135162,-100,4,2,1,40,0,0
142080,-100,4,2,1,60,0,0
152004,-100,4,2,1,55,0,0
152606,-100,4,2,1,52,0,0
153207,-100,4,2,1,50,0,0
153809,-100,4,2,1,48,0,0
154410,-100,4,2,1,46,0,0
155012,-100,4,2,1,44,0,0
155613,-100,4,2,1,42,0,0
156215,-100,4,2,1,40,0,0
156816,-100,4,2,1,38,0,0
157418,-100,4,2,1,36,0,0
158019,-100,4,2,1,34,0,0
158621,-100,4,2,1,32,0,0
159222,-100,4,2,1,30,0,0

[Colours]
Combo1 : 254,129,182
Combo2 : 170,34,79
Combo3 : 255,215,26
Combo4 : 68,72,225

[HitObjects]
140,204,15914,5,8,3:0:0:0:
200,152,16215,2,0,P|256:132|312:152,1,120,8|8,3:0|3:0,0:0:0:0:
372,204,16967,5,2,3:2:0:0:
372,284,17268,2,0,P|412:276|440:244,2,80,6|2|10,0:0|0:0|0:0,0:0:0:0:
304,244,18170,2,0,B|272:212|228:212|196:244|196:244|164:276|120:276|88:244,1,240,2|8,0:0|0:0,0:0:0:0:
36,188,19373,5,2,0:0:0:0:
92,132,19674,2,0,P|56:108|16:112,2,80,2|2|10,0:0|0:0|0:0,0:0:0:0:
148,188,20576,2,0,B|180:220|224:220|256:188|256:188|288:156|332:156|364:188,1,240,2|8,0:0|0:0,0:0:0:0:
416,244,21779,5,2,0:0:0:0:
416,244,22080,2,0,P|372:308|296:328,1,160,2|8,0:0|0:0,0:0:0:0:
216,328,22982,1,2,0:0:0:0:
216,328,23283,2,0,P|140:308|96:244,1,160,2|8,0:0|0:0,0:0:0:0:
96,164,24185,5,2,0:0:0:0:
96,164,24486,2,0,P|140:100|216:80,1,160,2|8,0:0|0:0,0:0:0:0:
296,80,25388,1,2,0:0:0:0:
296,80,25689,2,0,P|372:100|416:164,1,160,2|10,0:0|0:0,0:0:0:0:
416,244,26591,5,2,0:0:0:0:
416,244,26892,2,0,B|400:288|360:296|360:296|332:320|336:368,1,160,0|8,0:0|0:0,0:0:0:0:
176,368,28095,2,0,B|180:320|152:296|152:296|112:288|96:244,1,160,0|8,0:0|0:0,0:0:0:0:
172,216,28997,5,2,0:0:0:0:
172,216,29298,2,0,B|196:160|256:144|256:144|292:144|360:116|360:24|296:-32|216:-32|152:24|152:116|220:144|256:144|256:144|316:160|340:216,1,640,6|6,0:0|0:0,0:0:0:0:
396,368,32305,5,0,0:0:0:0:
256,288,32907,1,0,0:0:0:0:
116,368,33508,1,0,0:0:0:0:
116,208,34110,6,0,P|140:132|208:96,1,160,2|0,0:0|0:0,0:0:0:0:
284,72,35012,2,0,P|264:36|228:20,2,80
268,152,35914,2,0,P|308:152|340:128,1,80
364,52,36516,6,0,P|420:112|400:180,1,160,2|0,0:0|0:0,0:0:0:0:
344,236,37418,1,0,0:0:0:0:
264,236,37719,2,0,B|184:236|204:304|124:304,1,160
16,192,38922,6,0,B|96:192|72:124|156:124,1,160,2|0,0:0|0:0,0:0:0:0:
233,124,39824,1,0,0:0:0:0:
256,200,40125,2,0,P|312:252|388:236,1,160
500,124,41328,6,0,P|444:72|368:88,1,160,2|0,0:0|0:0,0:0:0:0:
256,200,42531,1,0,0:0:0:0:
144,88,43132,1,0,0:0:0:0:
32,200,43734,6,0,P|32:276|96:320,1,160,2|0,0:0|0:0,0:0:0:0:
168,284,44636,2,0,P|142:252|104:240,2,80
164,364,45538,2,0,P|204:360|232:332,1,80
241,253,46140,6,0,B|277:256|295:282|295:282|384:241,1,160,2|0,0:0|0:0,0:0:0:0:
455,208,47042,1,0,0:0:0:0:
485,282,47343,2,0,L|335:351,1,160
180,348,48546,6,0,B|176:312|199:289|199:289|143:209,1,160,2|0,0:0|0:0,0:0:0:0:
98,144,49448,1,0,0:0:0:0:
164,101,49749,2,0,L|257:236,1,160
364,352,50952,6,0,P|452:312|464:256,1,160,2|0,0:0|0:0,0:0:0:0:
416,192,51854,1,0,0:0:0:0:
336,192,52155,2,0,L|160:192,1,160
96,192,53057,1,0,0:0:0:0:
48,128,53358,6,0,P|60:72|148:32,1,160,2|0,0:0|0:0,0:0:0:0:
216,72,54260,2,0,L|216:164,2,80
296,72,55162,2,0,L|296:160,1,80
296,232,55764,6,0,P|362:270|431:234,1,160,2|0,0:0|0:0,0:0:0:0:
364,192,56666,1,0,0:0:0:0:
296,152,56967,2,0,P|228:188|220:264,1,160
363,351,58170,6,0,P|428:312|432:235,1,160,2|0,0:0|0:0,0:0:0:0:
364,192,59072,1,0,0:0:0:0:
296,152,59373,2,0,P|295:232|359:270,1,160
444,136,60576,6,0,P|402:70|326:68,1,160,2|0,0:0|0:0,0:0:0:0:
256,108,61478,1,0,0:0:0:0:
209,173,61779,2,0,P|132:170|91:105,1,160
124,31,62681,1,0,0:0:0:0:
176,94,62982,6,0,L|92:239,1,160,2|0,0:0|0:0,0:0:0:0:
56,300,63884,2,0,L|-13:260,2,80
124,340,64786,2,0,L|168:268,1,80
208,204,65388,6,0,P|281:232|309:305,1,160,2|0,0:0|0:0,0:0:0:0:
368,360,66290,2,0,B|396:332|390:286|390:286|432:292|464:264,1,160
411,204,67192,2,0,P|337:175|309:102,1,160,0|2,0:0|0:0,0:0:0:0:
348,36,68095,5,0,0:0:0:0:
428,36,68395,1,0,0:0:0:0:
484,92,68696,1,0,0:0:0:0:
484,172,68997,2,0,P|460:208|428:228,1,80,2|2,0:0|0:0,0:0:0:0:
348,228,69598,1,0,1:0:0:0:
292,172,69899,1,0,1:0:0:0:
292,92,70200,6,0,B|264:44|212:44|212:44|148:44,2,160,4|0|0,0:0|0:0|0:0,0:0:0:0:
352,244,72004,2,0,P|420:280|488:244,1,160,8|0,0:0|0:0,0:0:0:0:
488,164,72907,1,0,0:0:0:0:
420,124,73207,1,0,0:0:0:0:
352,164,73508,2,0,B|352:244|352:244|352:284|316:312,1,160
244,348,74410,1,8,0:0:0:0:
164,348,74711,1,0,0:0:0:0:
92,312,75012,6,0,B|56:284|56:244|56:244|56:164,2,160
164,348,76516,1,0,0:0:0:0:
244,348,76816,2,0,L|244:268,1,80,8|0,0:0|0:0,0:0:0:0:
288,200,77418,2,0,B|324:228|324:268|324:268|324:348,2,160,0|8|0,0:0|0:0|0:0,0:0:0:0:
220,160,78922,1,0,0:0:0:0:
152,120,79222,1,8,0:0:0:0:
84,160,79523,1,0,0:0:0:0:
84,240,79824,6,0,P|152:276|220:240,2,160,0|0|2,0:0|0:0|0:0,0:0:0:0:
84,80,81628,2,0,B|104:40|152:40|152:40|228:40,1,160,8|2,0:0|0:0,0:0:0:0:
308,40,82531,1,0,0:0:0:0:
348,108,82831,1,0,0:0:0:0:
308,176,83132,1,0,0:0:0:0:
228,176,83433,2,0,P|192:244|228:312,1,160,0|8,0:0|0:0,0:0:0:0:
308,312,84335,1,0,0:0:0:0:
388,312,84636,6,0,P|424:244|388:176,2,160,0|0|0,0:0|0:0|0:0,0:0:0:0:
228,312,86440,1,10,0:0:0:0:
176,252,86741,1,0,0:0:0:0:
228,192,87042,2,0,P|192:172|152:176,2,80,0|0|2,0:0|0:0|0:0,0:0:0:0:
280,252,87944,2,0,P|320:264|356:252,1,80,0|2,0:0|0:0,0:0:0:0:
408,192,88546,2,0,P|440:172|484:176,2,80,0|10|0,0:0|0:0|0:0,0:0:0:0:
460,252,89448,5,0,0:0:0:0:
408,312,89749,2,0,P|380:340|340:344,1,80,0|2,0:0|0:0,0:0:0:0:
264,368,90350,2,0,P|224:368|193:342,1,80,0|2,0:0|0:0,0:0:0:0:
116,328,90952,2,0,P|88:300|84:260,1,80,0|2,0:0|0:0,0:0:0:0:
44,192,91553,2,0,P|44:152|69:121,1,80,0|2,0:0|0:0,0:0:0:0:
84,44,92155,2,0,P|112:16|152:12,1,80,0|2,0:0|0:0,0:0:0:0:
228,36,92756,6,0,P|256:88|312:100,2,120,0|8|8,0:0|3:0|3:0,0:0:0:0:
308,20,93959,1,0,3:0:0:0:
380,56,94260,6,0,P|432:112|428:192,1,160,4|8,0:0|0:0,0:0:0:0:
396,264,95162,1,0,0:0:0:0:
364,336,95463,2,0,P|404:344|440:328,2,80,0|0|8,0:0|0:0|0:0,0:0:0:0:
316,272,96365,1,0,0:0:0:0:
284,344,96666,6,0,P|208:344|144:292,1,160,0|8,0:0|0:0,0:0:0:0:
100,228,97568,1,0,0:0:0:0:
84,148,97869,2,0,P|46:164|25:196,2,80,0|0|8,0:0|0:0|0:0,0:0:0:0:
160,176,98771,1,0,0:0:0:0:
144,96,99072,6,0,P|212:48|284:56,1,160,0|8,0:0|0:0,0:0:0:0:
352,100,99974,1,0,0:0:0:0:
356,180,100275,2,0,P|396:168|420:140,1,80
420,60,100877,2,0,P|392:28|356:20,1,80,8|0,0:0|0:0,0:0:0:0:
284,56,101478,6,0,P|208:72|132:40,1,160,0|8,0:0|0:0,0:0:0:0:
72,92,102380,2,0,P|88:168|56:244,1,160,2|2,0:0|0:0,0:0:0:0:
8,304,103283,1,10,0:0:0:0:
56,368,103583,1,2,0:0:0:0:
132,344,103884,6,0,B|172:328|212:344|212:344|248:344|280:312,1,160,0|8,0:0|0:0,0:0:0:0:
340,256,104786,1,0,0:0:0:0:
420,260,105087,2,0,P|384:188|312:180,1,160,0|8,0:0|0:0,0:0:0:0:
256,236,105989,5,0,0:0:0:0:
180,260,106290,2,0,P|100:256|48:200,1,160,0|8,0:0|0:0,0:0:0:0:
24,124,107192,1,0,0:0:0:0:
100,100,107493,2,0,P|180:104|232:160,1,160,0|8,0:0|0:0,0:0:0:0:
256,236,108395,5,0,0:0:0:0:
336,236,108696,2,0,B|384:236|404:200|404:200|440:128,1,160,0|8,0:0|0:0,0:0:0:0:
472,56,109598,1,0,0:0:0:0:
392,56,109899,2,0,B|344:56|324:92|324:92|288:164,1,160,0|8,0:0|0:0,0:0:0:0:
256,236,110801,5,0,0:0:0:0:
180,208,111102,1,2,0:0:0:0:
132,272,111403,1,2,0:0:0:0:
180,336,111704,1,10,0:0:0:0:
256,316,112004,2,0,B|300:316|324:280|324:280|348:244|392:244,1,160,2|0,0:0|0:0,0:0:0:0:
468,224,112907,1,8,3:2:0:0:
512,156,113207,1,0,3:0:0:0:
468,88,113508,6,0,P|404:44|324:44,1,160,4|8,0:0|0:0,0:0:0:0:
252,80,114410,1,0,0:0:0:0:
288,152,114711,1,0,0:0:0:0:
360,116,115012,2,0,P|369:157|358:192,2,80,0|8|0,0:0|0:0|0:0,0:0:0:0:
324,44,115914,6,0,P|244:44|180:88,1,160,0|8,0:0|0:0,0:0:0:0:
140,156,116816,1,0,0:0:0:0:
208,196,117117,1,0,0:0:0:0:
248,128,117418,2,0,P|278:156|288:192,2,80,0|8|0,0:0|0:0|0:0,0:0:0:0:
180,88,118320,6,0,P|113:132|85:205,1,160,0|8,0:0|0:0,0:0:0:0:
88,284,119222,1,0,0:0:0:0:
164,264,119523,2,0,P|164:308|145:338,1,80
68,360,120125,2,0,P|31:341|13:307,1,80,8|0,0:0|0:0,0:0:0:0:
5,228,120726,6,0,P|57:176|137:188,1,160,0|8,0:0|0:0,0:0:0:0:
204,232,121628,2,0,P|280:245|335:191,1,160,2|2,0:0|0:0,0:0:0:0:
372,120,122531,1,10,0:0:0:0:
452,120,122831,1,2,0:0:0:0:
488,192,123132,6,0,B|488:236|456:264|456:264|416:264|384:292,1,160,0|8,0:0|0:0,0:0:0:0:
328,348,124034,1,0,0:0:0:0:
252,372,124335,2,0,P|168:364|136:300,1,160,0|8,0:0|0:0,0:0:0:0:
216,300,125237,5,0,0:0:0:0:
292,276,125538,2,0,B|332:262|355:229|355:229|372:193|364:151,1,160,0|8,0:0|0:0,0:0:0:0:
352,72,126440,1,0,0:0:0:0:
276,96,126741,2,0,B|235:109|212:142|212:142|195:178|204:220,1,160,0|8,0:0|0:0,0:0:0:0:
216,300,127643,5,0,0:0:0:0:
136,300,127944,2,0,B|84:300|64:260|64:260|32:192,1,160,0|8,0:0|0:0,0:0:0:0:
4,120,128847,1,0,0:0:0:0:
84,120,129148,2,0,B|136:120|156:160|156:160|188:228,1,160,0|8,0:0|0:0,0:0:0:0:
216,300,130050,5,0,0:0:0:0:
256,368,130350,1,2,0:0:0:0:
336,368,130651,1,2,0:0:0:0:
376,300,130952,1,10,0:0:0:0:
336,232,131253,2,0,P|376:196|440:196,2,120,2|8|8,0:0|3:0|3:2,0:0:0:0:
296,300,132456,1,0,3:0:0:0:
256,232,132756,1,4,0:0:0:0:
256,192,132907,12,2,135162,0:0:0:0:
416,152,142080,5,2,0:0:0:0:
416,152,142380,2,0,P|344:120|296:56,1,160,2|8,0:0|0:0,0:0:0:0:
216,56,143283,1,2,0:0:0:0:
216,56,143583,2,0,P|168:120|96:152,1,160,2|8,0:0|0:0,0:0:0:0:
96,232,144486,5,2,0:0:0:0:
96,232,144786,2,0,P|168:264|216:328,1,160,2|8,0:0|0:0,0:0:0:0:
296,328,145689,1,2,0:0:0:0:
296,328,145989,2,0,P|344:264|416:232,1,160,2|8,0:0|0:0,0:0:0:0:
416,152,146892,5,2,0:0:0:0:
416,152,147193,2,0,B|400:108|360:100|360:100|332:76|336:28,1,160,0|8,0:0|0:0,0:0:0:0:
176,28,148396,2,0,B|180:76|152:100|152:100|112:108|96:152,1,160,0|8,0:0|0:0,0:0:0:0:
172,180,149298,5,2,0:0:0:0:
172,180,149598,2,0,P|200:252|176:328,1,160,6|0,0:0|0:0,0:0:0:0:
336,328,150801,2,0,P|312:252|340:180,1,160
256,192,152004,12,2,159222,0:0:0:0:
