osu file format v14

[General]
AudioFilename: melty snow (Short Ver.).mp3
AudioLeadIn: 0
PreviewTime: 92606
Countdown: 0
SampleSet: Soft
StackLeniency: 0.4
Mode: 0
LetterboxInBreaks: 0
EpilepsyWarning: 1
WidescreenStoryboard: 0

[Editor]
Bookmarks: 17268,31704,50952,70200,94260,113508,132756,152004
DistanceSpacing: 1.5
BeatDivisor: 4
GridSize: 4
TimelineZoom: 1.2

[Metadata]
Title:melty snow (Short ver.)
TitleUnicode:melty snow (Short ver.)
Artist:Mami Kawada
ArtistUnicode:川田まみ
Creator:Sure
Version:Hard
Source:あねいも2 ~Second Stage~
Tags:Aneimo 2nd bootUP! eroge visual novel opening ykcarrot
BeatmapID:674768
BeatmapSetID:300896

[Difficulty]
HPDrainRate:6.5
CircleSize:4
OverallDifficulty:6.5
ApproachRate:7
SliderMultiplier:2
SliderTickRate:2

[Events]
//Background and Video events
0,0,"Main BG.jpg",0,0
//Break Periods
2,135362,141180
//Storyboard Layer 0 (Background)
//Storyboard Layer 1 (Fail)
//Storyboard Layer 2 (Pass)
//Storyboard Layer 3 (Foreground)
//Storyboard Sound Samples

[TimingPoints]
7644,601.503759398496,4,2,1,60,1,0
15764,-100,4,2,1,40,0,0
16816,-100,4,2,1,60,0,0
29298,-100,4,2,1,50,0,0
29448,-100,4,2,1,30,0,0
32004,-100,4,2,1,60,0,0
69598,-100,4,2,1,45,0,0
70200,-100,4,2,1,60,0,0
89448,-100,4,2,1,30,0,0
89749,-97.0873786407767,4,2,1,35,0,0
90350,-94.3396226415094,4,2,1,39,0,0
90952,-91.743119266055,4,2,1,43,0,0
91553,-89.2857142857143,4,2,1,47,0,0
92155,-86.9565217391304,4,2,1,51,0,0
92756,-84.7457627118644,4,2,1,55,0,0
94260,-83.3333333333333,4,2,1,70,0,1
112155,-83.3333333333333,4,2,1,40,0,1
112305,-83.3333333333333,4,2,1,70,0,1
112456,-83.3333333333333,4,2,1,40,0,1
112606,-83.3333333333333,4,2,1,70,0,1
113358,-83.3333333333333,4,2,1,70,0,0
113508,-83.3333333333333,4,2,1,70,0,1
131704,-83.3333333333333,4,2,1,55,0,1
131854,-83.3333333333333,4,2,1,70,0,1
132756,-100,4,2,1,60,0,0
134260,-100,4,2,1,55,0,0
134561,-100,4,2,1,50,0,0
134862,-100,4,2,1,45,0,0
135162,-100,4,2,1,40,0,0
142080,-100,4,2,1,60,0,0
152004,-100,4,2,1,55,0,0
152606,-100,4,2,1,52,0,0
153207,-100,4,2,1,50,0,0
153809,-100,4,2,1,48,0,0
154410,-100,4,2,1,46,0,0
155012,-100,4,2,1,44,0,0
155613,-100,4,2,1,42,0,0
156215,-100,4,2,1,40,0,0
156816,-100,4,2,1,38,0,0
157418,-100,4,2,1,36,0,0
158019,-100,4,2,1,34,0,0
158621,-100,4,2,1,32,0,0
159222,-100,4,2,1,30,0,0

[Colours]
Combo1 : 254,129,182
Combo2 : 170,34,79
Combo3 : 255,215,26
Combo4 : 68,72,225

[HitObjects]
376,180,15914,5,8,3:0:0:0:
256,92,16215,1,8,3:0:0:0:
256,92,16365,1,0,0:0:0:0:
136,180,16666,1,8,3:0:0:0:
192,320,16967,5,2,3:2:0:0:
256,360,17117,1,0,0:0:0:0:
320,320,17268,1,6,0:0:0:0:
376,180,17568,1,2,0:0:0:0:
468,300,17869,1,8,0:0:0:0:
320,320,18170,2,0,P|244:256|228:160,1,200,2|0,0:0|0:0,0:0:0:0:
376,180,19072,1,8,0:0:0:0:
320,320,19373,5,2,3:2:0:0:
256,360,19523,1,0,0:0:0:0:
192,320,19674,1,2,0:0:0:0:
136,180,19974,1,2,0:0:0:0:
44,300,20275,1,8,0:0:0:0:
192,320,20576,2,0,P|268:256|284:160,1,200,2|0,0:0|0:0,0:0:0:0:
136,180,21478,1,8,0:0:0:0:
60,308,21779,5,2,0:0:0:0:
60,308,21929,1,0,0:0:0:0:
60,308,22080,2,0,L|260:268,1,200,2|8,0:0|0:0,0:0:0:0:
452,232,22982,1,2,0:0:0:0:
452,232,23132,1,0,0:0:0:0:
452,232,23283,2,0,L|252:192,1,200,2|8,0:0|0:0,0:0:0:0:
60,156,24185,5,2,0:0:0:0:
60,156,24335,1,0,0:0:0:0:
60,156,24486,2,0,L|260:116,1,200,2|8,0:0|0:0,0:0:0:0:
452,80,25388,1,2,0:0:0:0:
452,80,25538,1,0,0:0:0:0:
452,80,25689,2,0,L|252:40,1,200,2|10,0:0|0:0,0:0:0:0:
120,104,26591,5,2,0:0:0:0:
120,104,26892,2,0,B|88:136|76:192|76:192|88:248|120:280,1,200,0|8,0:0|0:0,0:0:0:0:
392,104,28095,2,0,B|424:136|436:192|436:192|424:248|392:280,1,200,0|8,0:0|0:0,0:0:0:0:
256,192,28997,2,0,L|256:132,2,50,2|0|6,0:0|0:0|0:0,0:0:0:0:
256,192,29448,12,6,31704,0:0:0:0:
412,144,32305,6,0,P|424:192|412:240,1,100
376,304,32756,1,0,0:0:0:0:
300,304,32907,2,0,P|252:292|204:304,1,100
60,344,33508,2,0,L|100:248,1,100
128,184,33959,1,0,0:0:0:0:
80,124,34110,6,0,B|114:104|146:104|174:124|174:124|202:144|234:144|268:124,1,200,2|0,0:0|0:0,0:0:0:0:
360,8,35012,1,0,0:0:0:0:
220,64,35313,1,0,0:0:0:0:
312,184,35613,1,0,0:0:0:0:
452,128,35914,2,0,P|488:164|488:212,1,100
460,280,36365,1,0,0:0:0:0:
392,312,36516,6,0,B|344:340|296:312|296:312|272:264|216:264,1,200,2|0,0:0|0:0,0:0:0:0:
68,264,37418,1,0,0:0:0:0:
68,112,37719,2,0,P|116:128|140:172,1,100
144,244,38170,1,0,0:0:0:0:
216,264,38320,2,0,P|264:260|300:224,1,100
416,128,38922,6,0,B|396:80|348:60|348:60|300:88|252:60,1,200,2|0,0:0|0:0,0:0:0:0:
112,8,39824,1,0,0:0:0:0:
52,148,40125,2,0,P|100:144|136:108,1,100
178,46,40576,1,0,0:0:0:0:
252,60,40726,2,0,P|296:80|320:124,1,100
412,244,41328,6,0,P|372:280|328:284,1,100,2|0,0:0|0:0,0:0:0:0:
176,288,41929,2,0,P|216:252|260:248,1,100
328,284,42380,1,0,0:0:0:0:
344,212,42531,2,0,P|360:164|340:120,1,100
236,16,43132,2,0,L|140:64,1,100
80,96,43583,1,0,0:0:0:0:
12,128,43734,6,0,B|44:176|96:168|96:168|148:160|180:216,1,200,2|0,0:0|0:0,0:0:0:0:
192,364,44636,1,0,0:0:0:0:
108,240,44937,1,0,0:0:0:0:
248,188,45237,1,0,0:0:0:0:
332,312,45538,2,0,P|380:328|424:312,1,100
484,264,45989,1,0,0:0:0:0:
484,188,46140,6,0,B|456:140|400:140|400:140|352:168|308:140,1,200,2|0,0:0|0:0,0:0:0:0:
212,24,47042,1,0,0:0:0:0:
96,120,47343,2,0,P|144:136|188:120,1,100
256,84,47794,1,0,0:0:0:0:
324,48,47944,2,0,P|372:32|416:48,1,100
512,164,48546,6,0,B|464:196|416:164|416:164|364:164|332:208,1,200,2|0,0:0|0:0,0:0:0:0:
256,336,49448,1,0,0:0:0:0:
400,384,49749,2,0,P|400:332|368:300,1,100
296,272,50200,1,0,0:0:0:0:
224,248,50350,2,0,P|192:216|192:164,1,100
256,40,50952,6,0,P|364:40|420:104,1,200,2|0,0:0|0:0,0:0:0:0:
464,248,51854,2,0,L|424:288,1,50
376,336,52155,2,0,P|354:291|364:244,1,100
420,104,52756,1,0,0:0:0:0:
284,40,53057,2,0,L|224:40,1,50
160,40,53358,6,0,B|164:96|216:112|216:112|236:156|216:212,1,200,2|0,0:0|0:0,0:0:0:0:
168,352,54260,1,0,0:0:0:0:
68,240,54561,1,0,0:0:0:0:
216,212,54862,1,0,0:0:0:0:
316,324,55162,1,0,0:0:0:0:
372,184,55463,2,0,L|400:124,1,50
468,152,55764,6,0,P|424:68|332:92,1,200,2|0,0:0|0:0,0:0:0:0:
248,212,56666,1,0,0:0:0:0:
116,140,56967,1,0,0:0:0:0:
204,20,57268,2,0,L|256:24,1,50
328,32,57568,2,0,P|308:76|260:96,1,100
116,140,58170,6,0,P|148:220|248:212,1,200,2|0,0:0|0:0,0:0:0:0:
348,100,59072,1,0,0:0:0:0:
484,164,59373,1,0,0:0:0:0:
384,276,59674,2,0,L|328:264,1,50
264,248,59974,2,0,P|288:208|336:192,1,100
484,164,60576,6,0,P|460:72|368:32,1,200,2|0,0:0|0:0,0:0:0:0:
228,76,61478,2,0,L|212:124,1,50
192,196,61779,2,0,P|216:288|308:328,1,200,0|0,0:0|0:0,0:0:0:0:
448,284,62681,2,0,L|464:236,1,50
484,164,62982,6,0,B|424:156|396:204|396:204|352:220|304:188,1,200,2|0,0:0|0:0,0:0:0:0:
172,116,63884,1,0,0:0:0:0:
304,40,64185,1,0,0:0:0:0:
304,188,64486,1,0,0:0:0:0:
172,260,64786,1,0,0:0:0:0:
304,336,65087,2,0,L|348:364,1,50
420,364,65388,6,0,P|464:300|420:196,1,200,2|0,0:0|0:0,0:0:0:0:
172,280,66290,2,0,B|224:276|256:324|256:324|288:276|340:280,1,200
92,196,67192,2,0,P|48:260|92:364,1,200,0|2,0:0|0:0,0:0:0:0:
256,364,68095,5,0,0:0:0:0:
408,364,68395,1,0,0:0:0:0:
456,220,68696,1,0,0:0:0:0:
332,132,68997,1,2,0:0:0:0:
208,220,69298,2,0,L|156:204,1,50,2|2,0:0|0:0,0:0:0:0:
108,152,69598,1,0,1:0:0:0:
108,152,69899,2,0,L|56:136,1,50,0|0,1:0|0:0,0:0:0:0:
8,84,70200,6,0,L|200:144,1,200,4|0,0:0|0:0,0:0:0:0:
280,272,71102,1,0,0:0:0:0:
280,272,71253,1,0,0:0:0:0:
416,212,71553,1,0,0:0:0:0:
416,212,71704,1,0,0:0:0:0:
336,88,72004,2,0,L|144:28,1,200,8|0,0:0|0:0,0:0:0:0:
16,104,72907,5,0,0:0:0:0:
16,252,73207,1,0,0:0:0:0:
144,328,73508,1,0,0:0:0:0:
211,361,73659,2,0,P|260:368|308:352,1,100,2|2,0:0|0:0,0:0:0:0:
364,304,74110,1,2,0:0:0:0:
244,216,74410,1,10,0:0:0:0:
211,361,74711,1,0,0:0:0:0:
312,248,75012,6,0,B|356:220|356:160|356:160|336:112|364:68,1,200
504,128,75914,2,0,L|452:116,1,50
420,264,76365,2,0,L|472:276,1,50
364,168,76816,2,0,P|320:152|272:168,1,100,8|0,0:0|0:0,0:0:0:0:
204,204,77268,1,0,0:0:0:0:
268,244,77418,6,0,P|172:272|128:196,1,200,0|8,0:0|0:0,0:0:0:0:
144,50,78320,1,0,0:0:0:0:
212,21,78471,2,0,P|262:23|304:49,1,100,2|2,0:0|0:0,0:0:0:0:
343,111,78922,1,2,0:0:0:0:
211,184,79222,1,10,0:0:0:0:
211,184,79523,2,0,L|195:237,1,50,0|0,0:0|0:0,0:0:0:0:
144,284,79824,6,0,L|205:85,1,200
332,16,80726,1,0,0:0:0:0:
332,16,80877,1,0,0:0:0:0:
460,92,81177,1,0,0:0:0:0:
460,92,81328,1,0,0:0:0:0:
332,168,81628,2,0,L|272:366,1,200,8|2,0:0|0:0,0:0:0:0:
144,284,82531,5,0,0:0:0:0:
184,140,82831,1,0,0:0:0:0:
332,168,83132,1,0,0:0:0:0:
332,168,83283,1,0,0:0:0:0:
332,168,83433,2,0,P|428:140|468:52,1,200,0|8,0:0|0:0,0:0:0:0:
324,20,84335,1,0,0:0:0:0:
204,108,84636,6,0,B|160:136|160:188|160:188|188:232|160:288,1,200,0|0,0:0|0:0,0:0:0:0:
24,224,85538,2,0,L|76:240,1,50
104,92,85989,2,0,L|52:76,1,50
164,180,86440,1,10,0:0:0:0:
248,56,86741,1,0,0:0:0:0:
400,64,87042,5,0,0:0:0:0:
460,204,87343,1,0,0:0:0:0:
376,328,87643,1,2,0:0:0:0:
224,316,87944,2,0,L|117:306,1,100,0|2,0:0|0:0,0:0:0:0:
64,168,88546,1,0,0:0:0:0:
148,48,88847,2,0,L|252:56,1,100,10|0,0:0|0:0,0:0:0:0:
312,192,89448,5,0,0:0:0:0:
376,328,89749,2,0,L|400:373,2,51.4999995677948,0|0|2,0:0|0:0|0:0,0:0:0:0:
460,204,90350,2,0,L|519:208,2,53.0000000808716,0|0|2,0:0|0:0|0:0,0:0:0:0:
400,64,90952,2,0,L|436:14,2,54.5000005821228,0|0|2,0:0|0:0|0:0,0:0:0:0:
248,56,91553,2,0,L|224:3,2,56.0000006835938,0|0|2,0:0|0:0|0:0,0:0:0:0:
164,180,92155,2,0,L|89:172,2,57.5000010967255,0|0|2,0:0|0:0|0:0,0:0:0:0:
312,192,92756,5,0,0:0:0:0:
224,316,93057,2,0,L|184:373,2,58.9999979293824,0|8|0,0:0|3:0|0:0,0:0:0:0:
312,192,93659,1,8,3:0:0:0:
376,328,93959,1,0,3:0:0:0:
164,180,94260,6,0,P|204:72|316:40,1,239.999992675781,4|8,0:0|0:0,0:0:0:0:
448,120,95162,1,0,0:0:0:0:
312,192,95463,1,0,0:0:0:0:
444,272,95764,1,0,0:0:0:0:
448,120,96065,2,0,P|392:108|364:52,1,119.999996337891,8|0,0:0|0:0,0:0:0:0:
440,44,96516,1,0,0:0:0:0:
448,120,96666,6,0,P|416:216|292:260,1,239.999992675781,0|8,0:0|0:0,0:0:0:0:
256,108,97568,1,0,0:0:0:0:
176,108,97719,1,0,0:0:0:0:
132,172,97869,1,0,0:0:0:0:
216,304,98170,1,0,0:0:0:0:
300,172,98471,2,0,P|332:124|320:64,1,119.999996337891,8|0,0:0|0:0,0:0:0:0:
256,108,98922,1,0,0:0:0:0:
300,172,99072,6,0,P|412:216|496:144,1,239.999992675781,0|8,0:0|0:0,0:0:0:0:
380,40,99974,1,0,0:0:0:0:
304,48,100125,1,0,0:0:0:0:
256,108,100275,1,0,0:0:0:0:
160,228,100576,1,0,0:0:0:0:
32,136,100877,2,0,P|84:112|140:132,1,119.999996337891,8|0,0:0|0:0,0:0:0:0:
208,168,101328,1,0,0:0:0:0:
276,204,101478,6,0,P|328:224|384:200,1,119.999996337891
512,108,102080,1,8,0:0:0:0:
368,48,102380,2,0,P|256:12|144:48,1,239.999992675781,2|2,0:0|0:0,0:0:0:0:
0,108,103283,1,10,0:0:0:0:
124,204,103583,1,2,0:0:0:0:
180,352,103884,6,0,P|124:372|68:352,1,119.999996337891
0,316,104335,2,0,P|16:292|48:280,1,59.9999981689454,0|8,0:0|0:0,0:0:0:0:
180,352,104786,1,0,0:0:0:0:
256,340,104937,1,0,0:0:0:0:
332,352,105087,2,0,P|388:372|444:352,1,119.999996337891
512,316,105538,2,0,P|496:292|464:280,1,59.9999981689454,0|8,0:0|0:0,0:0:0:0:
324,196,105989,5,0,0:0:0:0:
256,244,106140,1,0,0:0:0:0:
188,196,106290,2,0,P|136:156|84:148,1,119.999996337891
0,152,106741,2,0,P|4:184|28:208,1,59.9999981689454,0|8,0:0|0:0,0:0:0:0:
188,196,107192,1,0,0:0:0:0:
256,244,107343,1,0,0:0:0:0:
324,196,107493,2,0,P|376:156|428:148,1,119.999996337891
512,152,107944,2,0,P|508:184|484:208,1,59.9999981689454,0|8,0:0|0:0,0:0:0:0:
340,96,108395,5,0,0:0:0:0:
256,60,108546,1,0,0:0:0:0:
172,24,108696,2,0,P|120:4|60:24,1,119.999996337891
0,92,109147,2,0,L|0:152,1,59.9999981689454,0|8,0:0|0:0,0:0:0:0:
172,96,109598,1,0,0:0:0:0:
256,60,109749,1,0,0:0:0:0:
340,24,109899,2,0,P|392:4|452:24,1,119.999996337891
512,92,110350,2,0,L|512:152,1,59.9999981689454,0|8,0:0|0:0,0:0:0:0:
484,348,110801,5,0,0:0:0:0:
356,192,111102,1,2,0:0:0:0:
156,192,111403,1,2,0:0:0:0:
28,348,111704,1,10,0:0:0:0:
216,272,112004,2,0,L|216:340,1,59.9999981689454,2|8,0:0|0:0,0:0:0:0:
296,332,112305,2,0,L|296:272,1,59.9999981689454,0|8,0:0|0:0,0:0:0:0:
256,204,112606,1,0,0:0:0:0:
356,28,112907,1,8,3:2:0:0:
156,28,113207,1,0,3:0:0:0:
148,292,113508,6,0,P|256:336|364:292,1,239.999992675781,4|8,0:0|0:0,0:0:0:0:
448,160,114410,1,0,0:0:0:0:
304,216,114711,1,0,0:0:0:0:
456,256,115012,1,0,0:0:0:0:
356,136,115313,2,0,P|304:104|248:112,1,119.999996337891,8|0,0:0|0:0,0:0:0:0:
180,152,115764,1,0,0:0:0:0:
180,228,115914,6,0,P|104:160|184:76,1,239.999992675781,0|8,0:0|0:0,0:0:0:0:
256,212,116816,1,0,0:0:0:0:
232,288,116967,1,0,0:0:0:0:
156,304,117117,1,0,0:0:0:0:
32,208,117418,1,0,0:0:0:0:
180,152,117719,2,0,P|232:124|292:128,1,119.999996337891,8|0,0:0|0:0,0:0:0:0:
364,160,118170,1,0,0:0:0:0:
376,236,118320,6,0,P|440:140|356:84,1,239.999992675781,0|8,0:0|0:0,0:0:0:0:
300,228,119222,1,0,0:0:0:0:
332,300,119373,1,0,0:0:0:0:
408,308,119523,1,0,0:0:0:0:
512,196,119824,1,0,0:0:0:0:
364,160,120125,2,0,P|312:132|256:148,1,119.999996337891,8|0,0:0|0:0,0:0:0:0:
204,208,120576,1,0,0:0:0:0:
152,268,120726,6,0,P|96:284|44:256,1,119.999996337891
0,108,121328,1,8,0:0:0:0:
144,48,121628,2,0,P|256:12|368:48,1,239.999992675781,2|2,0:0|0:0,0:0:0:0:
512,108,122531,1,10,0:0:0:0:
388,204,122831,1,2,0:0:0:0:
468,340,123132,6,0,P|420:368|360:356,1,119.999996337891
296,308,123583,1,0,0:0:0:0:
296,308,123734,1,8,0:0:0:0:
152,252,124034,2,0,L|104:292,1,59.9999981689454
44,340,124335,2,0,P|92:368|152:356,1,119.999996337891
216,308,124786,1,0,0:0:0:0:
216,308,124937,1,8,0:0:0:0:
376,264,125237,6,0,L|420:220,1,59.9999981689454
472,156,125538,2,0,P|420:136|360:160,1,119.999996337891
296,212,125989,1,0,0:0:0:0:
296,212,126140,1,8,0:0:0:0:
136,264,126440,2,0,L|92:220,1,59.9999981689454
40,156,126741,2,0,P|92:136|152:160,1,119.999996337891
216,212,127192,1,0,0:0:0:0:
216,212,127343,1,8,0:0:0:0:
376,136,127643,6,0,L|436:136,1,59.9999981689454
500,72,127944,2,0,B|476:48|440:48|440:48|384:48,1,119.999996337891
296,48,128395,1,0,0:0:0:0:
296,48,128546,1,8,0:0:0:0:
136,136,128847,2,0,L|76:136,1,59.9999981689454
12,72,129148,2,0,B|36:48|72:48|72:48|128:48,1,119.999996337891
216,48,129599,1,0,0:0:0:0:
216,48,129750,1,8,0:0:0:0:
256,248,130050,5,0,0:0:0:0:
448,192,130350,1,2,0:0:0:0:
356,12,130651,1,2,0:0:0:0:
156,12,130952,1,10,0:0:0:0:
64,192,131253,1,2,0:0:0:0:
227,313,131553,2,0,P|256:320|285:313,2,59.9999981689454,0|8|0,0:0|3:0|0:0,0:0:0:0:
200,112,132155,2,0,P|256:92|312:112,2,119.999996337891,8|0|4,3:2|3:0|0:0,0:0:0:0:
256,192,132907,12,2,135162,0:0:0:0:
256,312,142080,5,2,0:0:0:0:
256,312,142230,1,0,0:0:0:0:
256,312,142381,2,0,L|456:272,1,200,2|8,0:0|0:0,0:0:0:0:
256,232,143283,1,2,0:0:0:0:
256,232,143433,1,0,0:0:0:0:
256,232,143584,2,0,L|56:192,1,200,2|8,0:0|0:0,0:0:0:0:
256,152,144486,5,2,0:0:0:0:
256,152,144636,1,0,0:0:0:0:
256,152,144787,2,0,L|456:112,1,200,2|8,0:0|0:0,0:0:0:0:
256,72,145689,1,2,0:0:0:0:
256,72,145839,1,0,0:0:0:0:
256,72,145990,2,0,L|56:32,1,200,2|10,0:0|0:0,0:0:0:0:
60,192,146892,5,2,0:0:0:0:
60,192,147192,2,0,B|56:236|76:288|76:288|120:328|168:332,1,200,0|8,0:0|0:0,0:0:0:0:
452,192,148395,2,0,B|456:236|436:288|436:288|392:328|344:332,1,200,0|8,0:0|0:0,0:0:0:0:
256,212,149298,5,2,0:0:0:0:
256,212,149448,1,0,0:0:0:0:
256,212,149598,2,0,B|212:116|300:116|256:20,1,200,6|0,0:0|0:0,0:0:0:0:
168,308,150801,2,0,P|256:348|344:308,1,200
256,192,152004,12,2,159222,0:0:0:0:
