osu file format v14

[General]
AudioFilename: melty snow (Short Ver.).mp3
AudioLeadIn: 0
PreviewTime: 92606
Countdown: 0
SampleSet: Soft
StackLeniency: 0.4
Mode: 0
LetterboxInBreaks: 0
EpilepsyWarning: 1
WidescreenStoryboard: 0

[Editor]
Bookmarks: 17268,31704,50952,70200,94260,113508,132756,152004
DistanceSpacing: 1
BeatDivisor: 4
GridSize: 4
TimelineZoom: 1

[Metadata]
Title:melty snow (Short ver.)
TitleUnicode:melty snow (Short ver.)
Artist:Mami Kawada
ArtistUnicode:川田まみ
Creator:Sure
Version:Easy
Source:あねいも2 ~Second Stage~
Tags:Aneimo 2nd bootUP! eroge visual novel opening ykcarrot
BeatmapID:674767
BeatmapSetID:300896

[Difficulty]
HPDrainRate:2
CircleSize:3
OverallDifficulty:2
ApproachRate:3
SliderMultiplier:1.2
SliderTickRate:2

[Events]
//Background and Video events
0,0,"Main BG.jpg",0,0
//Break Periods
2,135362,140940
//Storyboard Layer 0 (Background)
//Storyboard Layer 1 (Fail)
//Storyboard Layer 2 (Pass)
//Storyboard Layer 3 (Foreground)
//Storyboard Sound Samples

[TimingPoints]
7644,601.503759398496,4,2,1,60,1,0
15764,-100,4,2,1,40,0,0
16816,-100,4,2,1,60,0,0
29298,-100,4,2,1,50,0,0
29448,-100,4,2,1,30,0,0
32004,-100,4,2,1,60,0,0
69598,-100,4,2,1,45,0,0
70200,-100,4,2,1,60,0,0
89448,-100,4,2,1,30,0,0
89749,-100,4,2,1,35,0,0
90350,-100,4,2,1,39,0,0
90952,-100,4,2,1,43,0,0
91553,-100,4,2,1,47,0,0
92155,-100,4,2,1,51,0,0
92756,-100,4,2,1,55,0,0
93358,-100,4,2,1,5,0,0
93508,-100,4,2,1,55,0,0
94260,-100,4,2,1,70,0,1
113358,-100,4,2,1,70,0,0
113508,-100,4,2,1,70,0,1
132756,-100,4,2,1,60,0,0
134260,-100,4,2,1,55,0,0
134561,-100,4,2,1,50,0,0
134862,-100,4,2,1,45,0,0
135162,-100,4,2,1,40,0,0
142380,-100,4,2,1,60,0,0
152004,-100,4,2,1,55,0,0
152606,-100,4,2,1,52,0,0
153207,-100,4,2,1,50,0,0
153809,-100,4,2,1,48,0,0
154410,-100,4,2,1,46,0,0
155012,-100,4,2,1,44,0,0
155613,-100,4,2,1,42,0,0
156215,-100,4,2,1,40,0,0
156816,-100,4,2,1,38,0,0
157418,-100,4,2,1,36,0,0
158019,-100,4,2,1,34,0,0
158621,-100,4,2,1,32,0,0
159222,-100,4,2,1,30,0,0

[Colours]
Combo1 : 254,129,182
Combo2 : 170,34,79
Combo3 : 255,215,26
Combo4 : 68,72,225

[HitObjects]
212,80,15914,6,0,L|212:144,1,60,8|8,3:0|3:0,0:0:0:0:
300,140,16666,2,0,L|300:72,2,60,8|2|6,3:0|3:2|0:0,0:0:0:0:
256,252,17869,5,10,0:0:0:0:
140,224,18471,2,0,P|140:164|108:116,1,120,0|8,0:0|0:0,0:0:0:0:
196,36,19674,1,2,0:0:0:0:
316,36,20275,1,10,0:0:0:0:
404,116,20877,2,0,P|372:164|372:224,1,120,0|8,0:0|0:0,0:0:0:0:
428,332,22080,6,0,P|396:348|316:332,1,120,2|8,0:0|0:0,0:0:0:0:
196,332,23283,2,0,P|180:300|196:220,1,120,2|8,0:0|0:0,0:0:0:0:
316,220,24486,2,0,P|332:252|316:332,1,120,2|8,0:0|0:0,0:0:0:0:
196,332,25689,2,0,P|164:348|84:332,1,120,2|10,0:0|0:0,0:0:0:0:
140,224,26892,6,0,P|256:56|372:224,2,480,0|6|6,0:0|0:0|0:0,0:0:0:0:
196,328,32305,5,0,0:0:0:0:
316,328,32907,1,0,0:0:0:0:
376,224,33508,1,0,0:0:0:0:
312,124,34110,2,0,P|276:108|200:124,1,120,2|0,0:0|0:0,0:0:0:0:
136,224,35313,1,0,0:0:0:0:
256,224,35914,1,0,0:0:0:0:
376,224,36516,6,0,P|432:240|464:292,1,120,2|0,0:0|0:0,0:0:0:0:
352,344,37719,1,0,0:0:0:0:
256,264,38320,1,0,0:0:0:0:
136,224,38922,2,0,P|80:240|48:292,1,120,2|0,0:0|0:0,0:0:0:0:
160,344,40125,1,0,0:0:0:0:
256,264,40726,1,0,0:0:0:0:
376,248,41328,6,0,P|396:192|376:136,1,120,2|0,0:0|0:0,0:0:0:0:
316,32,42531,1,0,0:0:0:0:
196,32,43132,1,0,0:0:0:0:
136,136,43734,2,0,P|116:192|136:248,1,120,2|0,0:0|0:0,0:0:0:0:
196,352,44937,1,0,0:0:0:0:
316,352,45538,1,0,0:0:0:0:
256,248,46140,6,0,B|232:192|280:188|256:132,1,120,2|0,0:0|0:0,0:0:0:0:
196,28,47343,1,0,0:0:0:0:
316,28,47944,1,0,0:0:0:0:
256,132,48546,2,0,B|232:188|280:192|256:248,1,120,2|0,0:0|0:0,0:0:0:0:
196,352,49749,1,0,0:0:0:0:
316,352,50350,1,0,0:0:0:0:
376,248,50952,6,0,L|496:248,2,120,2|0|0,0:0|0:0|0:0,0:0:0:0:
256,248,52756,1,0,0:0:0:0:
136,248,53358,2,0,L|12:248,2,120,2|0|0,0:0|0:0|0:0,0:0:0:0:
256,248,55162,1,0,0:0:0:0:
364,192,55764,6,0,P|384:136|364:80,1,120,2|0,0:0|0:0,0:0:0:0:
256,136,56967,2,0,L|256:196,2,60
148,80,58170,2,0,P|128:136|148:192,1,120,2|0,0:0|0:0,0:0:0:0:
256,136,59373,2,0,L|256:76,2,60
316,240,60576,6,0,B|316:268|296:296|296:296|316:324|316:352,1,120,2|0,0:0|0:0,0:0:0:0:
196,352,61779,2,0,B|196:324|216:296|216:296|196:268|196:240,1,120
104,164,62982,2,0,B|116:124|152:108|152:108|196:108,1,120,2|0,0:0|0:0,0:0:0:0:
316,108,64185,2,0,B|360:108|360:108|396:124|408:164,1,120
464,268,65388,6,0,P|408:288|352:268,1,120,2|0,0:0|0:0,0:0:0:0:
312,224,66290,2,0,P|256:204|200:224,1,120
160,268,67192,2,0,P|104:288|48:268,1,120,0|2,0:0|0:0,0:0:0:0:
104,164,68395,1,0,0:0:0:0:
196,88,68997,1,2,0:0:0:0:
256,192,69598,2,0,L|256:256,2,60,0|0|4,1:0|1:0|0:0,0:0:0:0:
316,88,70801,5,0,0:0:0:0:
408,164,71403,1,0,0:0:0:0:
316,240,72004,2,0,P|360:280|420:284,2,120,8|0|0,0:0|0:0|0:0,0:0:0:0:
196,240,73809,2,0,P|152:280|92:284,1,120,0|8,0:0|0:0,0:0:0:0:
104,164,75012,5,0,0:0:0:0:
148,52,75613,2,0,P|256:8|364:52,1,240,0|8,0:0|0:0,0:0:0:0:
408,164,77418,1,0,0:0:0:0:
312,236,78019,2,0,P|256:256|200:236,2,120,8|0|8,0:0|0:0|0:0,0:0:0:0:
408,164,79824,6,0,B|416:132|408:104|408:104|380:96|360:72,1,120
256,12,81027,1,2,0:0:0:0:
152,72,81628,2,0,B|132:96|104:104|104:104|96:132|104:164,2,120,8|2|0,0:0|0:0|0:0,0:0:0:0:
256,132,83433,2,0,L|256:252,1,120,0|8,0:0|0:0,0:0:0:0:
360,312,84636,6,0,B|416:336|420:288|476:312,2,120,0|0|0,0:0|0:0|0:0,0:0:0:0:
256,372,86440,1,10,0:0:0:0:
152,312,87042,2,0,B|96:336|92:288|36:312,2,120,0|2|2,0:0|0:0|0:0,0:0:0:0:
256,252,88847,1,10,0:0:0:0:
256,372,89448,5,0,0:0:0:0:
372,340,90050,2,0,P|420:308|444:252,1,120,2|2,0:0|0:0,0:0:0:0:
444,132,91253,2,0,P|420:76|372:44,1,120,2|2,0:0|0:0,0:0:0:0:
256,12,92456,1,2,0:0:0:0:
140,44,93057,2,0,P|92:76|68:132,1,120,0|8,0:0|3:0,0:0:0:0:
68,252,94260,6,0,P|92:308|140:340,1,120,4|8,0:0|0:0,0:0:0:0:
196,232,95463,1,0,0:0:0:0:
316,232,96065,1,8,0:0:0:0:
372,339,96666,2,0,P|420:308|444:252,1,120,0|8,0:0|0:0,0:0:0:0:
420,132,97869,1,0,0:0:0:0:
316,196,98471,1,8,0:0:0:0:
312,76,99072,6,0,P|256:56|200:76,1,120,0|8,0:0|0:0,0:0:0:0:
92,132,100275,1,0,0:0:0:0:
196,196,100877,1,8,0:0:0:0:
316,196,101478,2,0,B|316:140|316:140|316:112|288:84,1,120,0|8,0:0|0:0,0:0:0:0:
224,84,102380,2,0,B|196:112|196:140|196:140|196:196,1,120,2|2,0:0|0:0,0:0:0:0:
256,220,103283,1,10,0:0:0:0:
316,324,103884,6,0,B|352:324|352:324|392:296|392:296|428:296,1,120,0|8,0:0|0:0,0:0:0:0:
428,176,105087,2,0,B|392:176|392:176|352:148|352:148|316:148,1,120,0|8,0:0|0:0,0:0:0:0:
196,148,106290,2,0,B|160:148|160:148|120:176|120:176|84:176,1,120,0|8,0:0|0:0,0:0:0:0:
84,296,107493,2,0,B|120:296|120:296|160:324|160:324|196:324,1,120,0|8,0:0|0:0,0:0:0:0:
316,324,108696,6,0,P|336:268|316:212,1,120,0|8,0:0|0:0,0:0:0:0:
196,212,109899,2,0,P|176:268|196:324,1,120,0|8,0:0|0:0,0:0:0:0:
316,324,111102,1,2,0:0:0:0:
412,252,111704,1,10,0:0:0:0:
412,132,112305,1,0,0:0:0:0:
316,60,112907,1,8,3:2:0:0:
196,60,113508,6,0,P|136:72|96:112,1,120,4|8,0:0|0:0,0:0:0:0:
196,180,114711,1,0,0:0:0:0:
316,180,115313,1,8,0:0:0:0:
416,112,115914,2,0,P|376:72|316:60,1,120,0|8,0:0|0:0,0:0:0:0:
196,60,117117,1,0,0:0:0:0:
136,164,117719,1,8,0:0:0:0:
200,264,118320,6,0,B|256:288|256:288|312:264,1,120,0|8,0:0|0:0,0:0:0:0:
376,164,119523,1,0,0:0:0:0:
316,60,120125,1,8,0:0:0:0:
196,60,120726,2,0,B|196:144|196:144|224:168,1,120,0|8,0:0|0:0,0:0:0:0:
288,168,121628,2,0,B|316:144|316:144|316:60,1,120,2|2,0:0|0:0,0:0:0:0:
256,36,122531,1,10,0:0:0:0:
136,36,123132,6,0,P|96:72|72:132,1,120,0|8,0:0|0:0,0:0:0:0:
96,252,124335,2,0,B|160:260|196:312,1,120,0|8,0:0|0:0,0:0:0:0:
316,312,125538,2,0,B|352:260|416:252,1,120,0|8,0:0|0:0,0:0:0:0:
440,132,126741,2,0,P|416:72|376:36,1,120,0|8,0:0|0:0,0:0:0:0:
256,36,127944,6,0,L|256:160,1,120,0|8,0:0|0:0,0:0:0:0:
312,264,129147,2,0,P|256:284|200:264,1,120,0|8,0:0|0:0,0:0:0:0:
160,152,130350,1,2,0:0:0:0:
196,36,130952,1,10,0:0:0:0:
316,36,131553,1,0,0:0:0:0:
352,152,132155,1,8,3:2:0:0:
256,224,132756,1,4,0:0:0:0:
256,192,132907,12,2,135162,0:0:0:0:
144,192,142380,6,0,P|180:208|256:192,1,120,2|8,0:0|0:0,0:0:0:0:
256,72,143583,2,0,P|292:56|368:72,1,120,2|8,0:0|0:0,0:0:0:0:
368,192,144786,2,0,P|332:208|256:192,1,120,2|8,0:0|0:0,0:0:0:0:
256,72,145989,2,0,P|220:56|144:72,1,120,2|10,0:0|0:0,0:0:0:0:
144,192,147192,6,0,P|240:360|368:192,1,480,0|6,0:0|0:0,0:0:0:0:
256,148,150200,2,0,L|256:24,2,120
256,192,152004,12,2,159222,0:0:0:0:
