osu file format v14

[General]
AudioFilename: giga.mp3
AudioLeadIn: 0
PreviewTime: 75534
Countdown: 0
SampleSet: Soft
StackLeniency: 0.7
Mode: 0
LetterboxInBreaks: 0
WidescreenStoryboard: 0

[Editor]
DistanceSpacing: 0.5
BeatDivisor: 4
GridSize: 4
TimelineZoom: 1.5

[Metadata]
Title:as x sist ~Amae Beta na Watashi Nari ni~ -Short Ver-
TitleUnicode:as×sist ~甘えベタな私なりに~ -Short Ver-
Artist:Mami Kawada
ArtistUnicode:川田まみ
Creator:Mei
Version:Insane
Source:甘えかたは彼女なりに。
Tags:amae kata wa kanojo nari ni galgame giga 戯画 tt_mouse sakaue nachi imoutosan
BeatmapID:841308
BeatmapSetID:384745

[Difficulty]
HPDrainRate:6
CircleSize:4
OverallDifficulty:8
ApproachRate:9
SliderMultiplier:1.8
SliderTickRate:1

[Events]
//Background and Video events
0,0,"4.jpg",0,0
Video,-1000,"moive.avi"
//Break Periods
//Storyboard Layer 0 (Background)
//Storyboard Layer 1 (Fail)
//Storyboard Layer 2 (Pass)
//Storyboard Layer 3 (Foreground)
//Storyboard Sound Samples

[TimingPoints]
713,357.142857142857,4,2,1,50,1,0
14998,-133.333333333333,4,2,1,30,0,0
15712,-133.333333333333,4,2,1,50,0,0
16427,-100,4,2,1,60,0,0
39284,-133.333333333333,4,2,1,25,0,0
49284,-133.333333333333,4,2,1,50,0,0
50712,-100,4,2,1,60,0,0
76427,-90.9090909090909,4,2,1,70,0,1
99284,-100,4,2,1,60,0,0
101962,-100,4,2,1,10,0,0

[Colours]
Combo1 : 22,101,188
Combo2 : 0,255,255
Combo3 : 210,102,30
Combo4 : 194,89,221

[HitObjects]
91,151,14998,5,0,0:0:0:0:
91,151,15355,1,0,0:0:0:0:
91,151,15712,6,0,L|15:143,1,67.5000025749208,8|0,3:0|0:0,0:0:0:0:
24,144,15980,1,0,0:0:0:0:
24,144,16070,2,0,P|32:216|32:256,1,101.250003862381,2|0,3:0|0:0,0:0:0:0:
28,280,16427,6,0,P|88:268|144:268,1,90,6|0,0:0|0:0,0:0:0:0:
196,168,16784,1,8,0:0:0:0:
280,248,16962,2,0,L|296:348,2,90,2|0|2,0:0|0:0|0:0,0:0:0:0:
368,160,17498,2,0,P|424:144|476:136,1,90,8|0,0:0|0:0,0:0:0:0:
280,160,17855,5,2,0:0:0:0:
252,84,18034,1,2,0:0:0:0:
220,8,18212,2,0,L|108:4,1,90,8|0,0:0|0:0,0:0:0:0:
16,76,18570,1,2,0:0:0:0:
130,4,18748,1,2,0:0:0:0:
120,152,18927,2,0,L|124:264,1,90,8|0,0:0|0:0,0:0:0:0:
128,352,19284,5,2,0:0:0:0:
36,284,19462,1,2,0:0:0:0:
220,244,19641,2,0,L|248:140,1,90,8|0,0:0|0:0,0:0:0:0:
352,104,19998,2,0,P|412:88|448:84,1,90,2|2,0:0|0:0,0:0:0:0:
412,176,20355,1,8,0:0:0:0:
280,40,20534,1,0,0:0:0:0:
280,40,20712,6,0,L|264:148,1,90,2|2,0:0|0:0,0:0:0:0:
156,88,21070,2,0,L|176:188,1,90,8|0,0:0|0:0,0:0:0:0:
376,192,21427,2,0,L|296:244,1,90,2|2,0:0|0:0,0:0:0:0:
88,248,21784,2,0,L|188:280,1,90,8|0,0:0|0:0,0:0:0:0:
300,330,22141,6,0,P|305:285|300:241,1,90,6|2,0:0|0:0,0:0:0:0:
156,88,22498,2,0,P|196:128|308:88,1,180,8|2,0:0|0:0,0:0:0:0:
232,48,23034,1,2,0:0:0:0:
88,20,23212,1,8,0:0:0:0:
232,48,23391,6,0,P|268:20|332:16,1,90,6|0,0:0|0:0,0:0:0:0:
412,60,23748,1,2,0:0:0:0:
232,140,23927,2,0,L|128:112,1,90,8|0,0:0|0:0,0:0:0:0:
288,224,24284,1,2,0:0:0:0:
288,224,24462,1,2,0:0:0:0:
152,232,24641,2,0,B|124:272|136:336,1,90,8|0,0:0|0:0,0:0:0:0:
276,360,24998,6,0,P|336:336|452:304,1,180,2|8,0:0|0:0,0:0:0:0:
408,172,25534,1,0,0:0:0:0:
484,219,25712,1,2,0:0:0:0:
385,77,25891,1,2,0:0:0:0:
363,253,26070,1,8,0:0:0:0:
484,113,26248,1,0,0:0:0:0:
320,138,26427,6,0,L|206:91,1,90,10|0,0:0|0:0,0:0:0:0:
215,93,26695,1,2,0:0:0:0:
192,84,26784,1,2,0:0:0:0:
96,184,26962,1,8,0:0:0:0:
152,320,27141,1,2,0:0:0:0:
224,208,27320,5,8,0:0:0:0:
56,264,27498,1,10,0:0:0:0:
24,100,27677,1,8,0:0:0:0:
156,8,27855,6,0,L|284:0,1,90,6|0,0:0|0:0,0:0:0:0:
364,56,28212,1,8,0:0:0:0:
200,128,28391,2,0,P|128:112|108:108,1,90,0|2,0:0|0:0,0:0:0:0:
136,200,28748,1,2,0:0:0:0:
280,112,28927,1,8,0:0:0:0:
232,264,29105,1,0,0:0:0:0:
232,264,29284,6,0,L|224:360,1,90,2|2,0:0|0:0,0:0:0:0:
392,280,29641,2,0,L|400:184,1,90,8|0,0:0|0:0,0:0:0:0:
216,172,29998,1,2,0:0:0:0:
356,116,30177,1,2,0:0:0:0:
236,40,30355,1,8,0:0:0:0:
315,218,30534,1,0,0:0:0:0:
315,218,30712,6,0,L|307:307,1,90,2|0,0:0|0:0,0:0:0:0:
140,384,31069,2,0,L|147:294,1,90,8|0,0:0|0:0,0:0:0:0:
104,128,31427,1,2,0:0:0:0:
216,172,31605,1,2,0:0:0:0:
44,220,31784,1,8,0:0:0:0:
244,92,31962,6,0,P|288:128|260:248,1,180,6|2,0:0|0:0,0:0:0:0:
216,376,32498,1,8,0:0:0:0:
188,264,32677,1,0,0:0:0:0:
320,292,32855,2,0,P|376:304|420:312,1,90,2|2,0:0|0:0,0:0:0:0:
216,172,33212,2,0,P|160:184|116:192,1,90,10|0,0:0|0:0,0:0:0:0:
104,196,33480,1,0,0:0:0:0:
80,200,33570,6,0,L|64:316,1,90,6|0,0:0|0:0,0:0:0:0:
124,372,33927,1,8,0:0:0:0:
256,240,34105,1,0,0:0:0:0:
276,368,34284,1,2,0:0:0:0:
192,312,34462,1,2,0:0:0:0:
340,284,34641,2,0,P|412:268|448:264,1,90,8|0,0:0|0:0,0:0:0:0:
440,120,34998,5,2,0:0:0:0:
440,120,35177,2,0,L|456:20,1,90,2|8,0:0|0:0,0:0:0:0:
297,58,35534,2,0,L|304:148,1,90,0|2,0:0|0:0,0:0:0:0:
268,296,35891,1,2,0:0:0:0:
196,228,36070,1,8,0:0:0:0:
336,224,36248,1,8,0:0:0:0:
200,352,36427,6,0,P|136:344|96:336,1,90,2|0,0:0|0:0,0:0:0:0:
48,192,36784,1,10,0:0:0:0:
199,143,36962,2,0,P|239:83|255:51,1,90,0|2,0:0|0:0,0:0:0:0:
80,20,37320,1,2,0:0:0:0:
120,124,37498,1,8,0:0:0:0:
292,4,37677,1,8,0:0:0:0:
236,224,37855,6,0,L|224:320,2,90,2|0|8,0:0|0:0|0:0,0:0:0:0:
172,32,38391,1,2,0:0:0:0:
172,32,38480,1,0,0:0:0:0:
172,32,38570,1,8,0:0:0:0:
262,136,38748,1,2,0:0:0:0:
297,133,38837,1,2,0:0:0:0:
331,129,38926,1,10,0:0:0:0:
366,125,39016,1,8,0:0:0:0:
400,121,39105,1,8,0:0:0:0:
435,117,39194,1,8,0:0:0:0:
470,114,39284,6,0,L|464:260,1,135.000005149842,4|0,0:0|0:0,0:0:0:0:
464,264,40355,1,0,0:0:0:0:
464,276,41070,2,0,P|408:272|316:260,1,135.000005149842,0|0,0:0|0:0,0:0:0:0:
112,272,41784,1,0,0:0:0:0:
284,132,42141,6,0,P|344:108|420:104,1,135.000005149842,2|0,2:0|0:0,0:0:0:0:
436,108,43212,1,0,0:0:0:0:
456,116,43927,2,0,L|440:260,1,135.000005149842,0|0,0:0|0:0,0:0:0:0:
340,340,44641,1,0,0:0:0:0:
260,232,44998,6,0,P|228:220|116:172,1,135.000005149842,4|0,0:0|0:0,0:0:0:0:
159,104,45534,2,0,P|220:130|283:155,2,135.000005149842
248,32,46427,1,0,0:0:0:0:
72,48,46784,1,0,0:0:0:0:
72,48,47498,2,0,P|56:100|48:140,1,67.5000025749208,0|0,0:0|0:0,0:0:0:0:
96,200,47855,6,0,L|248:180,1,135.000005149842,0|0,0:0|0:0,0:0:0:0:
233,262,48391,2,0,L|100:280,2,135.000005149842,0|0|0,0:0|0:0|0:0,0:0:0:0:
344,236,49284,6,0,P|392:260|348:328,2,135.000005149842,0|0|8,3:0|3:0|3:0,0:0:0:0:
308,140,50177,2,0,L|344:132,1,33.7500012874604
366,33,50355,2,0,P|318:45|250:33,1,101.250003862381,0|0,3:0|0:0,0:0:0:0:
268,40,50712,6,0,L|136:32,1,90,4|0,0:3|0:0,0:0:0:0:
60,96,51070,1,8,0:0:0:0:
192,152,51248,2,0,P|208:220|212:248,1,90,0|2,0:0|0:0,0:0:0:0:
72,352,51605,1,2,0:0:0:0:
124,224,51784,1,8,0:0:0:0:
228,312,51962,1,0,0:0:0:0:
228,312,52141,6,0,P|292:320|340:320,1,90,2|0,0:0|0:0,0:0:0:0:
492,260,52498,2,0,P|447:262|402:268,1,90,8|0,0:0|0:0,0:0:0:0:
192,152,52855,1,2,0:0:0:0:
360,192,53034,1,2,0:0:0:0:
308,64,53212,1,8,0:0:0:0:
244,232,53391,1,0,0:0:0:0:
244,232,53570,6,0,L|230:53,1,180,2|8,0:0|0:0,0:0:0:0:
52,44,54105,1,0,0:0:0:0:
124,116,54284,1,2,0:0:0:0:
229,52,54462,2,0,L|301:40|349:32,2,90,2|8|0,0:0|0:0|0:0,0:0:0:0:
32,124,54998,6,0,P|20:180|112:264,1,180,2|8,0:0|0:0,0:0:0:0:
176,352,55534,1,0,0:0:0:0:
248,264,55712,2,0,P|304:248|364:236,1,90,2|2,0:0|0:0,0:0:0:0:
224,144,56070,2,0,P|180:133|137:121,1,90,8|0,0:0|0:0,0:0:0:0:
320,61,56427,6,0,L|334:241,1,180,2|8,0:0|0:0,0:0:0:0:
396,340,56962,2,0,P|452:324|492:312,1,90,0|2,0:0|0:0,0:0:0:0:
280,368,57320,1,2,0:0:0:0:
280,368,57498,1,8,0:0:0:0:
334,241,57677,1,0,0:0:0:0:
168,248,57855,6,0,P|112:240|64:228,1,90,2|0,0:0|0:0,0:0:0:0:
272,108,58212,2,0,P|332:100|464:84,1,180,8|2,0:0|0:0,0:0:0:0:
156,52,58748,1,2,0:0:0:0:
156,52,58927,1,8,0:0:0:0:
188,212,59105,1,0,0:0:0:0:
272,108,59284,6,0,L|288:4,1,90,2|0,0:0|0:0,0:0:0:0:
152,140,59641,1,8,0:0:0:0:
280,200,59820,1,0,0:0:0:0:
124,272,59998,1,2,0:0:0:0:
280,200,60177,2,0,P|332:188|376:184,1,90,2|8,0:0|0:0,0:0:0:0:
232,344,60534,1,0,0:0:0:0:
232,344,60712,6,0,P|216:280|208:240,1,90,2|0,0:0|0:0,0:0:0:0:
236,120,61070,2,0,P|252:56|260:16,1,90,10|0,0:0|0:0,0:0:0:0:
120,88,61427,2,0,P|104:152|96:192,1,90,2|2,0:0|0:0,0:0:0:0:
24,256,61784,1,8,0:0:0:0:
100,328,61962,1,0,0:0:0:0:
216,232,62141,6,0,P|276:216|320:208,1,90,12|0,0:0|0:0,0:0:0:0:
432,104,62498,2,0,P|387:94|344:82,1,90,8|0,0:0|0:0,0:0:0:0:
228,30,62855,2,0,L|236:126,1,90,10|2,0:0|0:0,0:0:0:0:
388,280,63212,2,0,L|395:190,1,90,8|0,0:0|0:0,0:0:0:0:
216,232,63570,5,10,0:0:0:0:
296,312,63748,1,8,0:0:0:0:
296,152,63927,1,8,0:0:0:0:
116,260,64105,2,0,L|132:356,1,90,8|2,0:0|0:0,0:0:0:0:
300,236,64462,5,2,0:0:0:0:
200,144,64641,1,8,0:0:0:0:
348,72,64820,1,0,0:0:0:0:
300,236,64998,6,0,P|256:235|211:231,1,90,10|0,0:0|0:0,0:0:0:0:
44,88,65355,1,8,0:0:0:0:
44,88,65534,2,0,P|88:83|133:82,1,90,0|10,0:0|0:0,0:0:0:0:
296,152,65891,5,2,0:0:0:0:
248,28,66070,1,8,0:0:0:0:
424,76,66248,1,0,0:0:0:0:
280,184,66427,5,10,0:0:0:0:
348,72,66605,1,8,0:0:0:0:
388,244,66784,1,8,0:0:0:0:
388,244,66962,2,0,L|380:344,1,90,0|2,0:0|0:0,0:0:0:0:
304,228,67320,5,10,0:0:0:0:
371,151,67498,1,8,0:0:0:0:
466,178,67677,1,0,0:0:0:0:
340,45,67855,5,10,0:0:0:0:
248,128,68034,2,0,P|192:116|144:104,1,90,0|8,0:0|0:0,0:0:0:0:
256,320,68391,1,0,0:0:0:0:
352,300,68570,2,0,P|408:288|456:276,1,90,10|2,0:0|0:0,0:0:0:0:
176,200,68927,2,0,L|160:312,1,90,8|0,0:0|0:0,0:0:0:0:
84,204,69284,5,10,0:0:0:0:
260,232,69462,1,8,0:0:0:0:
136,108,69641,1,8,0:0:0:0:
163,289,69820,1,8,0:0:0:0:
248,128,69998,2,0,L|268:24,1,90,2|0,0:0|0:0,0:0:0:0:
344,164,70355,1,10,0:0:0:0:
176,200,70534,1,2,0:0:0:0:
296,344,70712,6,0,P|376:312|504:308,1,180,6|8,0:0|0:0,0:0:0:0:
260,217,71248,1,0,0:0:0:0:
260,217,71427,2,0,P|252:157|244:109,1,90,2|2,0:0|0:0,0:0:0:0:
384,168,71784,1,8,0:0:0:0:
296,344,71962,2,0,P|240:332|196:324,1,90,0|2,0:0|0:0,0:0:0:0:
176,200,72320,5,0,0:0:0:0:
416,256,72498,2,0,P|423:300|429:345,1,90,8|0,0:0|0:0,0:0:0:0:
308,144,72855,2,0,P|336:100|452:124,1,180,2|8,0:0|0:0,0:0:0:0:
384,168,73391,1,0,0:0:0:0:
224,104,73570,6,0,L|248:304,1,180,10|10,0:0|0:0,0:0:0:0:
416,256,74105,1,10,0:0:0:0:
152,208,74284,1,2,0:0:0:0:
328,72,74462,1,10,0:0:0:0:
284,244,74641,1,10,0:0:0:0:
104,132,74820,2,0,P|68:200|104:276,1,135,10|0,0:0|0:0,0:0:0:0:
100,280,75177,5,10,0:0:0:0:
380,160,75355,1,10,0:0:0:0:
248,352,75712,5,0,0:0:0:0:
251,318,75801,1,0,0:0:0:0:
255,284,75890,1,0,0:0:0:0:
258,251,75979,1,0,0:0:0:0:
262,217,76070,2,0,L|268:160,1,45,0|0,3:0|3:0,0:0:0:0:
144,284,76248,2,0,L|154:333,1,45,0|0,3:0|3:0,0:0:0:0:
336,348,76427,6,0,P|336:280|448:240,1,198.000006042481,6|8,0:0|0:0,0:0:0:0:
412,316,76962,1,0,0:0:0:0:
380,160,77141,2,0,L|368:44,1,99.0000030212403,2|2,0:0|0:0,0:0:0:0:
160,28,77498,1,8,0:0:0:0:
276,116,77677,1,0,0:0:0:0:
136,176,77855,6,0,L|120:288,1,99.0000030212403,2|0,0:0|0:0,0:0:0:0:
12,228,78212,1,8,0:0:0:0:
136,176,78391,1,0,0:0:0:0:
236,224,78570,1,2,0:0:0:0:
236,224,78748,2,0,L|220:336,1,99.0000030212403,2|8,0:0|0:0,0:0:0:0:
336,252,79105,1,0,0:0:0:0:
336,252,79284,6,0,P|376:300|500:284,1,198.000006042481,2|8,0:0|0:0,0:0:0:0:
440,128,79820,1,0,0:0:0:0:
440,128,79998,2,0,P|433:177|429:227,1,99.0000030212403,2|2,0:0|0:0,0:0:0:0:
264,372,80355,2,0,P|259:322|252:273,1,99.0000030212403,8|0,0:0|0:0,0:0:0:0:
104,200,80712,5,2,0:0:0:0:
280,136,80891,1,0,0:0:0:0:
172,44,81070,1,8,0:0:0:0:
212,248,81248,1,0,0:0:0:0:
384,160,81427,1,2,0:0:0:0:
384,160,81605,2,0,L|404:40,1,99.0000030212403,2|8,0:0|0:0,0:0:0:0:
180,128,81962,1,0,0:0:0:0:
296,248,82141,6,0,P|268:320|148:308,1,198.000006042481,6|8,0:0|0:0,0:0:0:0:
52,308,82677,1,0,0:0:0:0:
212,248,82855,1,2,0:0:0:0:
64,124,83034,2,0,L|76:240,1,99.0000030212403,2|8,0:0|0:0,0:0:0:0:
180,128,83391,6,0,P|192:56|312:40,1,198.000006042481,4|0,0:0|0:0,0:0:0:0:
360,140,83927,2,0,P|284:120|264:112,1,99.0000030212403,8|0,0:0|0:0,0:0:0:0:
96,204,84284,2,0,P|20:224|0:232,1,99.0000030212403,2|2,0:0|0:0,0:0:0:0:
196,345,84641,2,0,L|216:221,1,99.0000030212403,8|0,0:0|0:0,0:0:0:0:
360,140,84998,6,0,P|396:200|312:292,1,198.000006042481,2|8,0:0|0:0,0:0:0:0:
220,116,85534,1,0,0:0:0:0:
316,208,85712,1,2,0:0:0:0:
148,272,85891,1,2,0:0:0:0:
216,88,86070,1,8,0:0:0:0:
244,284,86248,1,0,0:0:0:0:
244,284,86427,6,0,L|252:388,1,99.0000030212403,10|0,0:0|0:0,0:0:0:0:
344,328,86784,1,8,0:0:0:0:
148,272,86962,2,0,L|184:216,1,49.5000015106202,8|0,0:0|0:0,0:0:0:0:
228,148,87141,1,2,0:0:0:0:
244,284,87320,5,10,0:0:0:0:
120,160,87498,1,8,0:0:0:0:
344,16,87677,1,8,0:0:0:0:
244,284,87855,6,0,B|232:204|232:204|248:168|248:168|236:88,1,198.000006042481,6|8,0:0|0:0,0:0:0:0:
112,32,88391,1,0,0:0:0:0:
20,128,88570,2,0,P|16:204|16:244,1,99.0000030212403,2|2,0:0|0:0,0:0:0:0:
104,356,88927,1,8,0:0:0:0:
212,208,89105,1,0,0:0:0:0:
376,296,89284,5,2,0:0:0:0:
376,296,89462,2,0,P|392:228|388:184,1,99.0000030212403,0|8,0:0|0:0,0:0:0:0:
240,24,89820,1,0,0:0:0:0:
212,160,89998,1,2,0:0:0:0:
328,100,90177,1,2,0:0:0:0:
312,236,90355,1,8,0:0:0:0:
192,144,90534,1,0,0:0:0:0:
116,312,90712,6,0,P|52:320|8:200,1,198.000006042481,2|8,0:0|0:0,0:0:0:0:
160,40,91248,1,0,0:0:0:0:
232,180,91427,1,2,0:0:0:0:
328,100,91605,2,0,P|376:92|436:84,1,99.0000030212403,2|8,0:0|0:0,0:0:0:0:
508,260,91962,6,0,P|420:248|276:232,1,198.000006042481,4|0,0:0|0:0,0:0:0:0:
120,168,92498,1,8,0:0:0:0:
212,284,92677,1,0,0:0:0:0:
328,100,92855,1,2,0:0:0:0:
232,180,93034,1,2,0:0:0:0:
284,12,93212,1,8,0:0:0:0:
311,235,93391,1,0,0:0:0:0:
60,116,93570,1,6,0:0:0:0:
231,77,93748,6,0,L|328:100,1,99.0000030212403,0|8,0:0|0:0,0:0:0:0:
400,248,94105,1,0,0:0:0:0:
400,248,94284,2,0,P|360:312|236:272,1,198.000006042481,2|8,0:0|0:0,0:0:0:0:
136,268,94820,5,0,0:0:0:0:
208,184,94998,1,2,0:0:0:0:
311,235,95177,1,0,0:0:0:0:
311,235,95355,2,0,L|331:335,1,99.0000030212403,8|0,0:0|0:0,0:0:0:0:
128,180,95712,2,0,L|147:82,1,99.0000030212403,2|2,0:0|0:0,0:0:0:0:
344,160,96070,1,8,0:0:0:0:
381,154,96159,1,0,0:0:0:0:
418,148,96248,1,0,0:0:0:0:
455,143,96337,1,0,0:0:0:0:
492,139,96427,6,0,P|500:72|504:24,1,99.0000030212403,2|0,0:0|0:0,0:0:0:0:
272,24,96784,1,8,0:0:0:0:
251,161,96962,2,0,L|239:265,1,99.0000030212403,0|2,0:0|0:0,0:0:0:0:
280,368,97320,1,2,0:0:0:0:
128,304,97498,1,8,0:0:0:0:
328,148,97677,6,0,L|316:252,1,99.0000030212403,8|2,0:0|0:0,0:0:0:0:
200,344,98034,1,8,0:0:0:0:
200,344,98123,1,0,0:0:0:0:
200,344,98212,1,8,0:0:0:0:
384,280,98391,1,0,0:0:0:0:
140,80,98570,5,10,0:0:0:0:
228,240,98748,1,2,0:0:0:0:
316,28,98927,1,8,0:0:0:0:
316,28,99016,1,0,0:0:0:0:
316,28,99105,1,0,0:0:0:0:
316,28,99195,1,0,0:0:0:0:
316,28,99284,1,4,0:0:0:0:
256,192,99462,12,0,101962,0:0:0:0:
