osu file format v14

[General]
AudioFilename: giga.mp3
AudioLeadIn: 0
PreviewTime: 75534
Countdown: 0
SampleSet: Soft
StackLeniency: 0.7
Mode: 0
LetterboxInBreaks: 0
WidescreenStoryboard: 0

[Editor]
DistanceSpacing: 1
BeatDivisor: 4
GridSize: 4
TimelineZoom: 1.5

[Metadata]
Title:as x sist ~Amae Beta na Watashi Nari ni~ -Short Ver-
TitleUnicode:as×sist ~甘えベタな私なりに~ -Short Ver-
Artist:Mami Kawada
ArtistUnicode:川田まみ
Creator:Mei
Version:Easy
Source:甘えかたは彼女なりに。
Tags:amae kata wa kanojo nari ni galgame giga 戯画 tt_mouse sakaue nachi imoutosan
BeatmapID:841887
BeatmapSetID:384745

[Difficulty]
HPDrainRate:3
CircleSize:3
OverallDifficulty:2
ApproachRate:3
SliderMultiplier:0.999999999999999
SliderTickRate:1

[Events]
//Background and Video events
0,0,"4.jpg",0,0
Video,-1000,"moive.avi"
//Break Periods
//Storyboard Layer 0 (Background)
//Storyboard Layer 1 (Fail)
//Storyboard Layer 2 (Pass)
//Storyboard Layer 3 (Foreground)
//Storyboard Sound Samples

[TimingPoints]
713,357.142857142857,4,2,1,50,1,0
16427,-100,4,2,1,50,0,0
50712,-100,4,2,1,60,0,0
76427,-100,4,2,1,70,0,1
99284,-100,4,2,1,60,0,0
101962,-100,4,2,1,10,0,0

[Colours]
Combo1 : 22,101,188
Combo2 : 0,255,255
Combo3 : 210,102,30
Combo4 : 194,89,221

[HitObjects]
80,228,14998,6,0,L|56:120,2,99.9999999999999,0|0|8,0:0|0:0|3:0,0:0:0:0:
106,324,16070,1,2,3:0:0:0:
204,328,16427,6,0,P|244:340|320:316,1,99.9999999999999,6|8,0:0|0:0,0:0:0:0:
380,268,17141,2,0,L|432:276,2,50,0|2|8,0:0|0:0|0:0,0:0:0:0:
288,228,17855,2,0,P|289:174|308:116,1,99.9999999999999,2|8,0:0|0:0,0:0:0:0:
388,76,18570,2,0,L|448:72,2,50,2|2|8,0:0|0:0|0:0,0:0:0:0:
294,39,19284,6,0,P|226:35|178:31,1,99.9999999999999,2|8,0:0|0:0,0:0:0:0:
102,72,19998,2,0,P|98:52|98:12,2,50,2|2|8,0:0|0:0|0:0,0:0:0:0:
180,140,20712,2,0,P|176:180|164:248,1,99.9999999999999,2|8,0:0|0:0,0:0:0:0:
80,292,21427,2,0,P|108:324|180:336,1,99.9999999999999,2|8,0:0|0:0,0:0:0:0:
256,348,22141,5,6,0:0:0:0:
320,272,22498,2,0,B|486:234,1,150,8|8,0:0|0:0,0:0:0:0:
463,138,23391,2,0,L|305:90,1,150,6|8,0:0|0:0,0:0:0:0:
242,30,24284,2,0,P|202:18|134:38,1,99.9999999999999,2|8,0:0|0:0,0:0:0:0:
92,112,24998,5,2,0:0:0:0:
144,196,25355,2,0,L|132:304,2,99.9999999999999,8|2|8,0:0|0:0|0:0,0:0:0:0:
232,144,26427,2,0,P|284:152|320:288,1,200,10|2,0:0|0:0,0:0:0:0:
264,352,27498,1,8,0:0:0:0:
164,348,27855,6,0,L|44:336,1,99.9999999999999,6|8,0:0|0:0,0:0:0:0:
28,244,28570,2,0,L|16:192,2,50,2|2|8,0:0|0:0|0:0,0:0:0:0:
128,236,29284,2,0,P|144:184|164:132,1,99.9999999999999,2|8,0:0|0:0,0:0:0:0:
220,60,29998,2,0,P|220:36|224:0,2,50,2|2|8,0:0|0:0|0:0,0:0:0:0:
268,148,30712,6,0,P|300:160|376:160,1,99.9999999999999,2|8,0:0|0:0,0:0:0:0:
440,96,31427,2,0,L|448:32,2,50,2|2|8,0:0|0:0|0:0,0:0:0:0:
460,140,31962,2,0,B|472:164|472:164|440:300,1,150,6|8,0:0|0:0,0:0:0:0:
364,344,32855,2,0,B|324:368|324:368|264:360,1,99.9999999999999,2|10,0:0|0:0,0:0:0:0:
208,284,33570,6,0,L|184:64,1,200,6|2,0:0|0:0,0:0:0:0:
260,16,34641,1,8,0:0:0:0:
324,92,34998,2,0,L|312:152,2,50,2|2|8,0:0|0:0|0:0,0:0:0:0:
400,28,35712,2,0,P|440:48|496:84,1,99.9999999999999,2|8,0:0|0:0,0:0:0:0:
456,172,36427,6,0,L|440:280,1,99.9999999999999,2|10,0:0|0:0,0:0:0:0:
344,252,37141,2,0,L|352:360,2,99.9999999999999,2|8|6,0:0|0:0|0:0,0:0:0:0:
256,192,38212,12,2,39283,0:0:0:0:
162,96,42141,5,0,0:0:0:0:
323,276,44998,5,0,0:0:0:0:
117,196,47855,5,0,0:0:0:0:
88,168,50712,5,4,0:3:0:0:
144,252,51070,2,0,P|192:272|336:220,1,200,8|8,0:0|0:0,0:0:0:0:
368,140,52141,2,0,P|412:128|476:116,2,99.9999999999999,2|8|2,0:0|0:0|0:0,0:0:0:0:
288,80,53212,1,8,0:0:0:0:
204,132,53570,6,0,P|192:84|208:24,2,99.9999999999999,2|8|2,0:0|0:0|0:0,0:0:0:0:
256,216,54641,1,8,0:0:0:0:
336,272,54998,2,0,L|440:252,1,99.9999999999999,2|8,0:0|0:0,0:0:0:0:
456,352,55712,2,0,L|357:370,1,99.9999999999999,2|8,0:0|0:0,0:0:0:0:
264,332,56427,5,2,0:0:0:0:
192,260,56784,2,0,B|168:280|152:324|168:368|168:368|76:340,1,200,8|8,0:0|0:0,0:0:0:0:
28,264,57855,2,0,L|24:152,1,99.9999999999999,2|8,0:0|0:0,0:0:0:0:
120,192,58570,2,0,L|116:92,1,99.9999999999999,2|8,0:0|0:0,0:0:0:0:
192,24,59284,5,2,0:0:0:0:
248,108,59641,2,0,B|360:148|360:148|440:112,1,200,8|8,0:0|0:0,0:0:0:0:
480,200,60712,2,0,P|504:236|508:300,1,99.9999999999999,2|8,0:0|0:0,0:0:0:0:
412,268,61427,2,0,P|414:311|384:368,1,99.9999999999999,2|8,0:0|0:0,0:0:0:0:
312,296,62141,6,0,P|268:284|164:312,2,150,12|10|8,0:0|0:0|0:0,0:0:0:0:
412,268,63570,2,0,P|432:272|472:284,2,50,10|8|8,0:0|0:0|0:0,0:0:0:0:
328,212,64284,2,0,L|336:100,1,99.9999999999999,2|8,0:0|0:0,0:0:0:0:
324,12,64998,6,0,P|380:16|452:88,2,150,10|10|8,0:0|0:0|0:0,0:0:0:0:
232,52,66427,2,0,P|188:40|168:36,2,50,10|8|8,0:0|0:0|0:0,0:0:0:0:
316,104,67141,2,0,L|304:216,1,99.9999999999999,2|8,0:0|0:0,0:0:0:0:
204,200,67855,6,0,L|232:352,2,150,10|10|8,0:0|0:0|0:0,0:0:0:0:
188,100,69284,2,0,P|204:64|212:40,2,50,10|8|8,0:0|0:0|0:0,0:0:0:0:
112,168,69998,2,0,P|88:216|80:264,1,99.9999999999999,2|8,0:0|0:0,0:0:0:0:
132,348,70712,5,2,0:0:0:0:
231,347,71070,2,0,P|304:284|404:296,1,200,8|8,0:0|0:0,0:0:0:0:
480,356,72141,2,0,P|496:306|496:248,1,99.9999999999999,2|8,0:0|0:0,0:0:0:0:
476,160,72855,2,0,P|420:152|360:152,1,99.9999999999999,2|8,0:0|0:0,0:0:0:0:
288,104,73570,5,10,0:0:0:0:
228,184,73927,2,0,L|220:252,2,50,10|10|2,0:0|0:0|0:0,0:0:0:0:
188,92,74641,1,10,0:0:0:0:
140,80,74820,2,0,P|104:68|48:153,1,150,8|10,0:0|0:0,0:0:0:0:
444,248,76427,6,0,L|452:140,1,99.9999999999999,6|8,0:0|0:0,0:0:0:0:
396,64,77141,2,0,L|400:4,2,50,2|2|8,0:0|0:0|0:0,0:0:0:0:
356,156,77855,2,0,P|312:172|236:168,1,99.9999999999999,2|8,0:0|0:0,0:0:0:0:
176,120,78570,2,0,L|120:116,2,50,2|2|8,0:0|0:0|0:0,0:0:0:0:
172,220,79284,6,0,P|180:256|184:324,1,99.9999999999999,2|8,0:0|0:0,0:0:0:0:
276,352,79998,2,0,P|344:344|388:336,1,99.9999999999999,2|8,0:0|0:0,0:0:0:0:
456,276,80712,2,0,L|480:176,1,99.9999999999999,2|8,0:0|0:0,0:0:0:0:
412,108,81427,1,2,0:0:0:0:
320,144,81784,2,0,P|280:152|212:152,1,99.9999999999999,8|6,0:0|0:0,0:0:0:0:
148,84,82498,6,0,P|124:160|190:255,1,200,8|8,0:0|0:0,0:0:0:0:
232,272,83391,2,0,L|384:248,1,150,4|8,0:0|0:0,0:0:0:0:
452,180,84284,2,0,P|464:140|456:84,1,99.9999999999999,2|8,0:0|0:0,0:0:0:0:
376,24,84998,6,0,L|260:40,1,99.9999999999999,2|8,0:0|0:0,0:0:0:0:
292,136,85712,2,0,L|176:120,1,99.9999999999999,2|8,0:0|0:0,0:0:0:0:
124,52,86427,2,0,P|60:60|32:140,1,150,14|8,0:0|0:0,0:0:0:0:
32,228,87320,2,0,L|140:212,1,99.9999999999999,8|2,0:0|0:0,0:0:0:0:
168,244,87855,6,0,L|168:280|168:352,1,99.9999999999999,6|8,0:0|0:0,0:0:0:0:
256,300,88570,2,0,L|256:232,2,50,2|2|8,0:0|0:0|0:0,0:0:0:0:
344,344,89284,2,0,L|344:280|344:244,1,99.9999999999999,2|8,0:0|0:0,0:0:0:0:
372,148,89998,2,0,P|432:144|484:136,1,99.9999999999999,2|8,0:0|0:0,0:0:0:0:
416,56,90712,6,0,L|420:0,2,50,2|0|8,0:0|0:0|0:0,0:0:0:0:
316,68,91427,2,0,P|268:60|208:52,1,99.9999999999999,2|8,0:0|0:0,0:0:0:0:
176,84,91962,2,0,P|152:104|40:72,1,150,4|8,0:0|0:0,0:0:0:0:
12,176,92855,2,0,L|24:280,1,99.9999999999999,2|8,0:0|0:0,0:0:0:0:
96,344,93570,5,6,0:0:0:0:
164,272,93927,1,8,0:0:0:0:
252,320,94284,2,0,L|260:376,2,50,2|2|8,0:0|0:0|0:0,0:0:0:0:
260,220,94998,2,0,P|296:204|368:192,1,99.9999999999999,2|8,0:0|0:0,0:0:0:0:
448,152,95712,2,0,L|452:96,2,50,2|2|8,0:0|0:0|0:0,0:0:0:0:
424,248,96427,6,0,L|412:364,1,99.9999999999999,2|8,0:0|0:0,0:0:0:0:
312,344,97141,2,0,P|276:336|192:352,1,99.9999999999999,2|8,0:0|0:0,0:0:0:0:
164,356,97677,2,0,L|152:188,1,150,8|8,0:0|0:0,0:0:0:0:
136,108,98570,2,0,P|96:100|32:96,2,99.9999999999999,10|8|4,0:0|0:0|0:0,0:0:0:0:
256,192,99641,12,0,101962,0:0:0:0:
