osu file format v14

[General]
AudioFilename: Wings of Courage.mp3
AudioLeadIn: 500
PreviewTime: 76383
Countdown: 0
SampleSet: Soft
StackLeniency: 0.5
Mode: 0
LetterboxInBreaks: 0
EpilepsyWarning: 1
WidescreenStoryboard: 1

[Editor]
Bookmarks: 13470,27532
DistanceSpacing: 0.5
BeatDivisor: 4
GridSize: 4
TimelineZoom: 2.4

[Metadata]
Title:Wings of Courage -Sora o Koete-
TitleUnicode:Wings of Courage -空を超えて-
Artist:Mami Kawada
ArtistUnicode:川田まみ
Creator:BetaStar
Version:Anti-Graviton Shoe
Source:蒼の彼方のフォーリズム
Tags:Ao no Kanata no Four Rhythm Shudaika opening Beyond the sky into the firmament FreeSongs YellowManul Gaia CXu Okoratu
BeatmapID:777821
BeatmapSetID:329949

[Difficulty]
HPDrainRate:7
CircleSize:4
OverallDifficulty:8
ApproachRate:9
SliderMultiplier:1.8
SliderTickRate:2

[Events]
//Background and Video events
0,0,"insane.jpg",0,0
//Break Periods
//Storyboard Layer 0 (Background)
Sprite,Background,Centre,"insane.jpg",320,240 M,0,0,727,321,240 F,0,0,727,1,0 S,0,0,727,0.6509091
//Storyboard Layer 1 (Fail)
//Storyboard Layer 2 (Pass)
//Storyboard Layer 3 (Foreground)
//Storyboard Sound Samples

[TimingPoints]
727,375,4,2,0,40,1,0
1477,-166.666666666667,4,2,2,50,0,0
6352,-166.666666666667,4,2,2,50,0,0
8227,-133.333333333333,4,2,1,50,0,0
12352,-133.333333333333,4,2,1,40,0,0
12727,-133.333333333333,4,2,1,60,0,0
13289,-133.333333333333,4,2,1,70,0,0
13852,-133.333333333333,4,2,1,50,0,0
14227,-90.9090909090909,4,2,1,60,0,0
37852,-200,4,2,3,70,0,0
38133,-200,4,2,3,70,0,0
38227,-100,4,2,1,70,0,0
40477,-100,4,2,2,70,0,0
41227,-100,4,2,1,60,0,0
44227,-90.9090909090909,4,2,1,60,0,0
50227,-100,4,2,1,60,0,0
52477,-100,4,2,2,70,0,0
53227,-100,4,2,1,60,0,0
56227,-90.9090909090909,4,2,1,60,0,0
62227,-100,4,2,1,60,0,0
66914,-100,4,2,2,60,0,0
67102,-100,4,2,1,60,0,0
76477,-83.3333333333333,4,2,2,50,0,0
77039,-83.3333333333333,4,2,1,50,0,0
77227,-83.3333333333333,4,2,1,70,0,1
87727,-83.3333333333333,4,2,1,60,0,0
89227,-83.3333333333333,4,2,1,70,0,1
99727,-133.333333333333,4,2,1,70,0,0
101227,-90.9090909090909,4,2,1,60,0,0
113227,-90.9090909090909,4,2,1,70,0,1
122227,-90.9090909090909,4,2,1,50,0,1
123727,-90.9090909090909,4,2,1,60,0,0
125039,-90.9090909090909,4,2,1,30,0,0
125227,-133.333333333333,4,2,1,30,0,0
131320,-133.333333333333,4,2,3,20,0,0
132727,-133.333333333333,4,2,3,30,0,0
134227,-133.333333333333,4,2,3,20,0,0
135727,-133.333333333333,4,2,3,10,0,0
137227,-133.333333333333,4,2,3,5,0,0

[Colours]
Combo1 : 255,128,255
Combo2 : 0,255,128
Combo3 : 108,108,255
Combo4 : 255,128,128
Combo5 : 255,255,128

[HitObjects]
58,58,1477,6,0,P|84:52|115:58,1,53.9999983520508,2|0,0:0|0:0,0:0:0:0:
217,133,1852,2,0,P|191:139|160:133,1,53.9999983520508,2|0,0:0|0:0,0:0:0:0:
252,48,2227,2,0,P|294:80|305:152,1,107.999996704102,10|4,0:0|0:0,0:0:0:0:
384,74,2789,2,0,P|416:32|488:21,1,107.999996704102,0|0,0:0|0:0,0:0:0:0:
472,111,3352,1,0,0:0:0:0:
472,111,3727,6,0,P|489:173|430:245,1,161.999995056153,10|0,0:0|0:0,0:0:0:0:
350,297,4477,2,0,P|345:343|351:364,1,53.9999983520508,2|4,0:0|0:0,0:0:0:0:
263,298,4852,2,0,P|268:252|262:231,1,53.9999983520508,0|0,0:0|0:0,0:0:0:0:
184,268,5227,6,0,P|140:236|175:44,1,269.999991760254,10|0,0:0|0:0,0:0:0:0:
256,88,6352,1,4,2:0:0:0:
344,48,6539,2,0,P|402:163|328:268,1,269.999991760254,0|4,0:0|0:0,0:0:0:0:
256,364,7852,1,2,0:0:0:0:
127,318,8227,6,0,L|47:281,1,67.5000025749208,2|0,0:0|0:0,0:0:0:0:
206,215,8602,2,0,L|286:178,1,67.5000025749208,2|0,0:0|0:0,0:0:0:0:
127,112,8977,2,0,L|47:75,1,67.5000025749208,2|0,0:0|0:0,0:0:0:0:
45,184,9352,1,2,0:0:0:0:
146,19,9539,1,0,0:0:0:0:
276,104,9727,6,0,P|323:107|356:93,1,67.5000025749208,2|0,0:0|0:0,0:0:0:0:
505,189,10102,2,0,P|458:192|425:178,1,67.5000025749208,2|0,0:0|0:0,0:0:0:0:
276,256,10477,2,0,P|323:259|356:245,1,67.5000025749208,2|0,0:0|0:0,0:0:0:0:
476,102,10852,1,2,0:0:0:0:
447,280,11039,1,0,0:0:0:0:
306,175,11227,6,0,P|271:170|226:187,1,67.5000025749208,2|0,0:0|0:0,0:0:0:0:
97,331,11602,1,2,0:0:0:0:
97,331,11789,1,2,0:0:0:0:
84,299,12164,1,0,0:0:0:0:
76,279,12352,6,0,L|67:258,8,16.8750006437302,0|0|0|0|2|2|2|2|10,0:0|0:0|0:0|0:0|0:0|0:0|0:0|0:0|0:0,0:0:0:0:
180,348,12914,1,2,0:0:0:0:
180,348,13008,1,2,0:0:0:0:
180,348,13102,1,10,0:0:0:0:
256,252,13289,1,2,0:0:0:0:
256,252,13383,1,2,0:0:0:0:
256,252,13477,1,2,0:0:0:0:
332,348,13664,1,2,0:0:0:0:
436,279,13852,2,0,L|445:258,7,16.8750006437302,10|0|0|0|0|0|0|0,0:0|0:0|0:0|0:0|0:0|0:0|0:0|0:0,0:0:0:0:
456,232,14227,6,0,P|437:192|452:125,1,99.0000030212403,6|2,0:0|0:0,0:0:0:0:
249,159,14602,2,0,P|293:163|341:212,1,99.0000030212403,10|2,0:0|0:0,0:0:0:0:
255,358,14977,1,2,0:0:0:0:
175,191,15164,2,0,P|171:136|201:90,1,99.0000030212403,2|10,0:0|0:0,0:0:0:0:
392,69,15539,6,0,L|292:69,1,99.0000030212403,0|2,0:0|0:0,0:0:0:0:
406,232,15914,2,0,L|506:232,1,99.0000030212403,2|10,0:0|0:0,0:0:0:0:
306,232,16289,1,2,0:0:0:0:
462,339,16477,1,2,0:0:0:0:
256,368,16664,1,2,0:0:0:0:
256,368,16852,1,10,0:0:0:0:
256,368,17227,6,0,P|206:353|154:369,1,99.0000030212403,6|2,2:0|2:0,0:0:0:0:
40,256,17602,2,0,L|23:151,1,99.0000030212403,10|2,0:0|0:0,0:0:0:0:
92,25,17977,1,2,0:0:0:0:
116,174,18164,2,0,L|133:279,1,99.0000030212403,2|10,0:0|0:0,0:0:0:0:
199,79,18539,6,0,P|250:26|377:40,1,198.000006042481,2|2,0:0|0:0,0:0:0:0:
324,219,19102,2,0,P|300:171|310:112,1,99.0000030212403,10|2,0:0|0:0,0:0:0:0:
430,142,19477,1,2,0:0:0:0:
324,219,19664,1,2,0:0:0:0:
490,284,19852,1,10,0:0:0:0:
372,356,20039,1,2,0:0:0:0:
356,356,20133,1,0,0:0:0:0:
340,356,20227,6,0,L|240:356,1,99.0000030212403,6|2,0:0|0:0,0:0:0:0:
34,282,20602,2,0,L|134:282,1,99.0000030212403,10|2,0:0|0:0,0:0:0:0:
316,176,20977,1,2,0:0:0:0:
204,176,21164,2,0,L|104:176,1,99.0000030212403,2|10,0:0|0:0,0:0:0:0:
306,124,21539,6,0,P|318:172|310:221,1,99.0000030212403,2|2,0:0|0:0,0:0:0:0:
209,63,21914,2,0,P|244:28|290:11,1,99.0000030212403,2|10,0:0|0:0,0:0:0:0:
442,104,22289,1,2,0:0:0:0:
309,221,22477,1,2,0:0:0:0:
441,339,22664,1,2,0:0:0:0:
441,339,22852,1,10,0:0:0:0:
441,339,23227,6,0,P|381:353|341:333,1,99.0000030212403,2|2,0:0|0:0,0:0:0:0:
203,242,23602,1,10,0:0:0:0:
174,236,23695,1,2,0:0:0:0:
144,240,23789,1,2,0:0:0:0:
118,254,23883,1,2,0:0:0:0:
100,278,23977,1,2,0:0:0:0:
246,319,24164,2,0,P|287:275|290:237,1,99.0000030212403,0|10,0:0|0:0,0:0:0:0:
284,209,24445,1,2,0:0:0:0:
281,179,24539,1,2,0:0:0:0:
287,149,24633,1,2,0:0:0:0:
304,125,24727,5,2,0:0:0:0:
412,222,24914,1,0,0:0:0:0:
512,117,25102,1,14,0:0:0:0:
509,87,25195,1,2,0:0:0:0:
496,59,25289,1,2,0:0:0:0:
473,39,25383,1,2,0:0:0:0:
443,33,25477,1,2,0:0:0:0:
304,125,25664,1,10,0:0:0:0:
443,33,25852,1,2,0:0:0:0:
304,125,26039,1,10,0:0:0:0:
276,135,26133,1,10,0:0:0:0:
246,136,26227,6,0,P|195:126|157:89,1,99.0000030212403,14|2,0:0|0:0,0:0:0:0:
86,264,26602,2,0,P|97:329|89:371,1,99.0000030212403,10|2,0:0|0:0,0:0:0:0:
256,261,26977,1,2,0:0:0:0:
377,332,27164,2,0,P|444:338|482:315,1,99.0000030212403,2|10,0:0|0:0,0:0:0:0:
292,167,27539,6,0,P|225:161|187:184,1,99.0000030212403,2|2,0:0|0:0,0:0:0:0:
358,237,27914,2,0,P|385:181|378:133,1,99.0000030212403,2|10,0:0|0:0,0:0:0:0:
309,66,28289,1,2,0:0:0:0:
358,237,28477,1,2,0:0:0:0:
497,113,28664,1,2,0:0:0:0:
497,113,28852,1,10,0:0:0:0:
497,113,29227,6,0,P|473:50|444:29,1,99.0000030212403,2|2,0:0|0:0,0:0:0:0:
317,107,29602,2,0,P|341:170|370:191,1,99.0000030212403,10|2,0:0|0:0,0:0:0:0:
497,113,29977,1,2,0:0:0:0:
317,107,30164,2,0,L|216:104,1,99.0000030212403,2|10,0:0|0:0,0:0:0:0:
14,231,30539,6,0,L|214:237,1,198.000006042481,0|2,0:0|0:0,0:0:0:0:
455,241,31102,2,0,P|470:296|450:348,1,99.0000030212403,10|2,0:0|0:0,0:0:0:0:
353,208,31477,1,2,0:0:0:0:
323,361,31664,1,2,0:0:0:0:
250,177,31852,1,10,0:0:0:0:
250,177,32227,6,0,P|241:122|257:77,1,99.0000030212403,6|2,0:0|0:0,0:0:0:0:
444,129,32602,2,0,P|396:144|341:129,1,99.0000030212403,10|2,0:0|0:0,0:0:0:0:
391,30,32977,1,2,0:0:0:0:
404,220,33164,2,0,L|411:320,1,99.0000030212403,2|10,0:0|0:0,0:0:0:0:
205,221,33539,6,0,P|150:213|99:228,1,99.0000030212403,2|2,0:0|0:0,0:0:0:0:
307,221,33914,2,0,P|355:229|404:220,1,99.0000030212403,2|10,0:0|0:0,0:0:0:0:
256,44,34289,2,0,L|256:148,1,99.0000030212403,2|2,0:0|0:0,0:0:0:0:
256,324,34664,1,2,0:0:0:0:
157,264,34852,1,10,0:0:0:0:
355,264,35039,6,0,P|388:188|335:83,1,198.000006042481,6|2,0:0|0:0,0:0:0:0:
169,88,35602,2,0,P|124:173|157:264,1,198.000006042481,10|2,0:0|0:0,0:0:0:0:
256,180,36164,1,2,0:0:0:0:
169,88,36352,6,0,P|73:92|11:165,1,198.000006042481,10|0,0:0|0:0,0:0:0:0:
50,307,36914,2,0,L|48:340,4,24.7500007553101,2|2|2|2|10,0:0|0:0|0:0|0:0|0:0,0:0:0:0:
149,221,37289,1,2,0:0:0:0:
242,344,37477,1,2,0:0:0:0:
318,183,37664,1,2,0:0:0:0:
402,368,37852,6,0,P|444:371|487:345,1,90,8|6,0:0|0:0,0:0:0:0:
502,255,38414,6,0,L|513:154,1,90,0|2,0:0|0:0,0:0:0:0:
381,26,38789,2,0,L|392:127,1,90,0|2,0:0|0:0,0:0:0:0:
405,227,39164,1,2,0:0:0:0:
475,84,39352,1,2,0:0:0:0:
307,148,39539,1,2,0:0:0:0:
171,29,39727,5,2,0:0:0:0:
218,211,39914,1,2,0:0:0:0:
281,39,40102,1,2,0:0:0:0:
127,142,40289,1,2,0:0:0:0:
307,148,40477,5,2,0:0:0:0:
342,152,40664,1,0,0:0:0:0:
377,156,40852,1,2,0:0:0:0:
412,160,41039,1,2,0:0:0:0:
484,108,41227,5,2,0:0:0:0:
396,264,41414,1,2,0:0:0:0:
396,68,41602,1,2,0:0:0:0:
484,224,41789,2,0,P|495:274|476:320,1,90,2|2,0:0|0:0,0:0:0:0:
368,363,42164,1,2,0:0:0:0:
260,297,42352,1,2,0:0:0:0:
162,376,42539,1,2,0:0:0:0:
49,317,42727,5,0,0:0:0:0:
81,190,42914,1,2,0:0:0:0:
169,281,43102,1,2,0:0:0:0:
8,227,43289,2,0,P|-1:176|20:135,1,90,2|2,0:0|0:0,0:0:0:0:
141,67,43664,1,2,0:0:0:0:
256,160,43852,1,2,0:0:0:0:
371,67,44039,1,2,0:0:0:0:
141,67,44227,5,6,0:0:0:0:
371,67,44414,1,2,0:0:0:0:
141,67,44602,1,10,0:0:0:0:
160,188,44977,5,2,0:0:0:0:
352,188,45164,1,2,0:0:0:0:
160,188,45352,1,2,0:0:0:0:
352,188,45539,1,10,0:0:0:0:
337,297,45914,5,2,0:0:0:0:
175,297,46102,1,2,0:0:0:0:
375,371,46289,2,0,P|412:328|414:276,1,99.0000030212403,10|0,0:0|0:0,0:0:0:0:
327,104,46664,1,2,0:0:0:0:
327,104,46758,1,0,0:0:0:0:
327,104,46852,2,0,L|174:90,1,148.50000453186,14|0,0:0|0:0,0:0:0:0:
101,83,47227,5,6,0:0:0:0:
101,301,47414,1,2,0:0:0:0:
101,83,47602,1,10,0:0:0:0:
256,48,47977,5,2,0:0:0:0:
256,266,48164,1,2,0:0:0:0:
256,48,48352,1,2,0:0:0:0:
256,266,48539,1,10,0:0:0:0:
411,301,48914,5,2,0:0:0:0:
411,83,49102,1,2,0:0:0:0:
342,251,49289,2,0,P|328:294|340:346,1,99.0000030212403,14|0,0:0|0:0,0:0:0:0:
183,243,49664,1,2,0:0:0:0:
183,243,49758,1,0,0:0:0:0:
183,243,49852,2,0,P|104:233|32:270,1,148.50000453186,14|0,0:0|0:0,0:0:0:0:
18,293,50227,5,6,0:0:0:0:
22,150,50414,2,0,L|25:47,1,90,0|2,0:0|0:0,0:0:0:0:
204,16,50789,2,0,L|201:119,1,90,0|2,0:0|0:0,0:0:0:0:
278,216,51164,1,0,0:0:0:0:
380,127,51352,1,2,0:0:0:0:
467,229,51539,1,0,0:0:0:0:
295,132,51727,5,2,0:0:0:0:
368,291,51914,1,0,0:0:0:0:
467,144,52102,1,2,0:0:0:0:
368,291,52289,1,0,0:0:0:0:
295,132,52477,5,2,0:0:0:0:
259,128,52664,1,0,0:0:0:0:
225,140,52852,1,2,0:0:0:0:
202,167,53039,1,2,0:0:0:0:
194,309,53227,5,2,0:0:0:0:
83,234,53414,1,0,0:0:0:0:
80,362,53602,1,2,0:0:0:0:
126,164,53789,2,0,P|65:154|36:167,1,90
189,224,54164,2,0,P|210:170|196:114,1,90,2|2,0:0|0:0,0:0:0:0:
111,41,54539,1,0,0:0:0:0:
242,5,54727,5,2,0:0:0:0:
126,164,54914,1,0,0:0:0:0:
111,41,55102,1,2,0:0:0:0:
286,120,55289,2,0,P|340:116|383:88,1,90,0|2,0:0|0:0,0:0:0:0:
461,11,55664,1,0,0:0:0:0:
480,152,55852,1,2,0:0:0:0:
496,292,56039,1,2,0:0:0:0:
461,11,56227,5,10,0:0:0:0:
496,292,56414,1,0,0:0:0:0:
461,11,56602,1,6,0:0:0:0:
388,87,56977,5,2,0:0:0:0:
356,341,57164,1,10,0:0:0:0:
388,87,57352,1,2,0:0:0:0:
356,341,57539,1,14,0:0:0:0:
302,249,57914,5,2,0:0:0:0:
275,24,58101,1,2,0:0:0:0:
221,237,58289,2,0,P|234:295|282:330,1,99.0000030212403,14|0,0:0|0:0,0:0:0:0:
410,244,58664,1,2,0:0:0:0:
194,140,58852,2,0,P|138:181|129:278,1,148.50000453186,14|0,0:0|0:0,0:0:0:0:
133,327,59227,5,6,0:0:0:0:
405,290,59414,1,2,0:0:0:0:
133,327,59602,1,14,0:0:0:0:
219,195,59977,5,2,0:0:0:0:
491,232,60164,1,2,0:0:0:0:
219,195,60352,1,2,0:0:0:0:
491,232,60539,1,14,0:0:0:0:
412,201,60914,6,0,P|397:158|410:103,1,99.0000030212403,2|10,0:0|0:0,0:0:0:0:
497,25,61289,1,2,0:0:0:0:
497,25,61383,1,2,0:0:0:0:
497,25,61477,1,2,0:0:0:0:
492,150,61664,1,2,0:0:0:0:
385,21,61852,1,2,0:0:0:0:
357,30,61945,1,2,0:0:0:0:
335,50,62039,1,2,0:0:0:0:
320,76,62133,1,2,0:0:0:0:
313,105,62227,6,0,P|263:91|218:98,1,90,6|0,0:0|0:0,0:0:0:0:
50,191,62602,2,0,P|100:205|145:198,1,90,2|0,0:0|0:0,0:0:0:0:
359,227,62977,2,0,P|309:213|264:220,1,90,2|0,0:0|0:0,0:0:0:0:
96,313,63352,2,0,P|146:327|191:320,1,90,2|0,0:0|0:0,0:0:0:0:
359,227,63727,6,0,L|393:128,1,90,2|0,0:0|0:0,0:0:0:0:
260,16,64102,2,0,L|226:115,1,90,2|0,0:0|0:0,0:0:0:0:
168,254,64477,1,2,0:0:0:0:
72,62,64664,1,0,0:0:0:0:
72,62,64852,1,6,0:0:0:0:
72,62,65227,6,0,L|52:174,1,90,2|0,0:0|0:0,0:0:0:0:
183,342,65602,2,0,L|163:230,1,90,2|0,0:0|0:0,0:0:0:0:
294,62,65977,2,0,L|274:174,1,90,2|0,0:0|0:0,0:0:0:0:
405,342,66352,2,0,L|385:230,1,90,2|0,0:0|0:0,0:0:0:0:
222,340,66727,6,0,P|165:353|126:336,1,90,2|2,0:0|0:0,0:0:0:0:
48,270,67102,1,2,0:0:0:0:
280,244,67289,2,0,L|462:224,1,180
230,168,67852,2,0,P|195:210|189:267,1,90,2|0,0:0|0:0,0:0:0:0:
150,363,68227,5,6,0:0:0:0:
150,363,68414,1,0,0:0:0:0:
65,177,68602,2,0,P|84:136|139:100,1,90,2|0,0:0|0:0,0:0:0:0:
236,189,68977,2,0,P|276:170|342:177,1,90,2|0,0:0|0:0,0:0:0:0:
479,270,69352,1,10,0:0:0:0:
415,81,69539,1,2,0:0:0:0:
402,316,69727,6,0,P|440:352|501:356,1,90,2|2,0:0|0:0,0:0:0:0:
304,265,70102,2,0,P|291:315|318:370,1,90,2|2,0:0|0:0,0:0:0:0:
299,154,70477,2,0,P|248:168|214:219,1,90,2|2,0:0|0:0,0:0:0:0:
164,383,70852,1,10,0:0:0:0:
35,254,71039,1,0,0:0:0:0:
126,156,71227,5,2,0:0:0:0:
126,156,71414,1,2,0:0:0:0:
237,270,71602,1,2,0:0:0:0:
237,270,71789,1,2,0:0:0:0:
316,96,71977,1,2,0:0:0:0:
316,96,72164,1,2,0:0:0:0:
405,283,72352,1,2,0:0:0:0:
405,283,72539,1,0,0:0:0:0:
507,180,72727,5,2,0:0:0:0:
316,96,73008,1,2,0:0:0:0:
339,303,73289,1,2,0:0:0:0:
267,206,73477,5,2,0:0:0:0:
458,289,73758,1,2,0:0:0:0:
434,82,74039,1,2,0:0:0:0:
390,194,74227,5,2,0:0:0:0:
256,288,74414,1,2,0:0:0:0:
390,194,74602,1,2,0:0:0:0:
256,288,74789,2,0,P|208:298|165:282,1,90,2|2,0:0|0:0,0:0:0:0:
30,135,75164,2,0,P|78:125|121:141,1,90,2|2,0:0|0:0,0:0:0:0:
256,288,75539,1,10,0:0:0:0:
256,48,75914,5,2,0:0:0:0:
256,288,76102,1,10,0:0:0:0:
256,48,76477,5,2,0:0:0:0:
357,120,76664,1,2,0:0:0:0:
193,177,76852,1,2,0:0:0:0:
406,235,77039,1,8,0:0:0:0:
406,235,77133,1,8,0:0:0:0:
406,235,77227,6,0,P|388:317|268:366,1,215.999993408203,6|10,0:0|0:0,0:0:0:0:
115,204,77789,2,0,P|195:178|297:258,1,215.999993408203,2|2,0:0|0:0,0:0:0:0:
168,373,78352,1,10,0:0:0:0:
218,182,78539,6,0,L|250:66,1,107.999996704102,2|2,0:0|0:0,0:0:0:0:
330,312,78914,1,2,0:0:0:0:
380,121,79101,2,0,L|412:5,1,107.999996704102,10|2,0:0|0:0,0:0:0:0:
292,45,79477,1,2,0:0:0:0:
476,194,79664,1,2,0:0:0:0:
254,279,79852,1,10,0:0:0:0:
476,194,80039,1,2,0:0:0:0:
204,151,80227,6,0,P|133:217|131:338,1,215.999993408203,2|10,0:0|0:0,0:0:0:0:
447,302,80789,2,0,P|355:250|253:278,1,215.999993408203,2|2,0:0|0:0,0:0:0:0:
340,375,81352,1,10,0:0:0:0:
384,165,81539,1,2,0:0:0:0:
182,225,81727,6,0,P|128:219|84:182,1,107.999996704102,2|2,0:0|0:0,0:0:0:0:
281,156,82102,2,0,P|302:205|292:262,1,107.999996704102,10|2,0:0|0:0,0:0:0:0:
87,186,82477,1,2,0:0:0:0:
229,316,82664,1,2,0:0:0:0:
178,108,82852,2,0,P|210:64|264:44,1,107.999996704102,10|0,0:0|0:0,0:0:0:0:
455,192,83227,6,0,L|472:335,1,107.999996704102,6|0,0:0|0:0,0:0:0:0:
351,95,83602,1,10,0:0:0:0:
329,306,83789,2,0,P|280:328|229:316,1,107.999996704102,2|0,0:0|0:0,0:0:0:0:
82,232,84164,1,2,0:0:0:0:
271,172,84352,1,10,0:0:0:0:
63,74,84539,1,2,0:0:0:0:
318,98,84727,6,0,P|348:130|350:202,1,107.999996704102,2|0,0:0|0:0,0:0:0:0:
280,327,85102,1,10,0:0:0:0:
218,82,85289,2,0,P|230:40|292:2,1,107.999996704102,2|0,0:0|0:0,0:0:0:0:
479,197,85664,2,0,L|487:324,1,107.999996704102,2|10,0:0|0:0,0:0:0:0:
352,375,86039,1,2,0:0:0:0:
191,261,86227,6,0,P|84:247|12:319,1,215.999993408203,14|10,0:0|2:0,0:0:0:0:
245,332,86789,1,0,2:0:0:0:
265,306,86883,1,10,2:0:0:0:
273,274,86977,2,0,P|262:217|201:168,1,107.999996704102,10|2,2:0|0:0,0:0:0:0:
81,125,87352,1,2,0:0:0:0:
256,28,87539,1,10,0:0:0:0:
287,20,87633,1,10,0:0:0:0:
319,19,87727,6,0,P|372:19|442:79,1,107.999996704102,14|0,0:0|0:0,0:0:0:0:
328,175,88102,2,0,P|354:221|337:311,1,107.999996704102,10|10,0:0|0:0,0:0:0:0:
347,306,88383,1,10,0:0:0:0:
326,331,88477,1,10,0:0:0:0:
200,252,88664,1,0,0:0:0:0:
93,373,88852,1,10,0:0:0:0:
62,361,88945,1,10,0:0:0:0:
42,334,89039,1,10,0:0:0:0:
34,302,89133,1,10,0:0:0:0:
37,269,89227,6,0,L|89:55,1,215.999993408203,14|10,0:0|0:0,0:0:0:0:
319,224,89789,2,0,P|224:239|154:134,1,215.999993408203,2|2,0:0|0:0,0:0:0:0:
235,34,90352,1,10,0:0:0:0:
319,224,90539,6,0,P|328:285|308:332,1,107.999996704102,2|2,0:0|0:0,0:0:0:0:
146,349,90914,1,2,0:0:0:0:
319,224,91102,2,0,P|377:222|439:253,1,107.999996704102,10|2,0:0|0:0,0:0:0:0:
500,366,91477,1,2,0:0:0:0:
512,165,91664,1,2,0:0:0:0:
319,224,91852,1,10,0:0:0:0:
512,166,92039,1,2,0:0:0:0:
359,345,92227,6,0,P|256:337|192:233,1,215.999993408203,6|10,0:0|0:0,0:0:0:0:
361,129,92789,2,0,P|351:182|318:224,1,107.999996704102,2|2,0:0|0:0,0:0:0:0:
288,36,93164,2,0,P|335:10|388:10,1,107.999996704102,2|10,0:0|0:0,0:0:0:0:
237,145,93539,6,0,P|136:144|66:46,1,215.999993408203,6|2,0:0|0:0,0:0:0:0:
237,145,94102,2,0,L|229:272,1,107.999996704102,10|2,0:0|0:0,0:0:0:0:
357,368,94477,2,0,L|349:241,1,107.999996704102,2|2,0:0|0:0,0:0:0:0:
338,89,94852,1,10,0:0:0:0:
504,216,95039,1,2,0:0:0:0:
357,368,95227,6,0,P|257:373|175:277,1,215.999993408203,6|10,0:0|0:0,0:0:0:0:
130,139,95789,1,2,0:0:0:0:
260,39,95977,2,0,P|321:44|358:83,1,107.999996704102,2|2,0:0|0:0,0:0:0:0:
427,202,96352,1,10,0:0:0:0:
398,351,96539,6,0,P|301:329|240:232,1,215.999993408203,2|2,0:0|0:0,0:0:0:0:
156,71,97102,2,0,P|94:67|39:94,1,107.999996704102,10|2,0:0|0:0,0:0:0:0:
51,277,97477,2,0,P|78:221|129:187,1,107.999996704102,2|0,0:0|0:0,0:0:0:0:
256,296,97852,1,10,0:0:0:0:
399,193,98039,1,10,0:0:0:0:
256,90,98227,6,0,L|208:56,1,53.9999983520508,10|10,0:0|0:0,0:0:0:0:
80,84,98414,2,0,L|128:118,1,53.9999983520508,10|10,0:0|0:0,0:0:0:0:
252,210,98602,2,0,L|204:176,1,53.9999983520508,10|10,0:0|0:0,0:0:0:0:
76,204,98789,2,0,L|124:238,1,53.9999983520508,10|10,0:0|0:0,0:0:0:0:
200,290,98977,1,10,0:0:0:0:
325,156,99164,1,0,0:0:0:0:
403,324,99352,1,6,0:0:0:0:
512,118,99539,1,2,0:0:0:0:
512,118,99633,1,2,0:0:0:0:
512,118,99727,6,0,P|454:78|381:83,1,135.000005149842,6|2,0:0|0:0,0:0:0:0:
288,88,100289,2,0,P|256:96|224:88,1,67.5000025749208,6|2,0:0|0:0,0:0:0:0:
120,79,100664,2,0,P|53:79|0:118,1,135.000005149842,2|2,0:0|0:0,0:0:0:0:
96,203,101227,5,6,0:0:0:0:
195,10,101414,1,2,0:0:0:0:
327,184,101602,2,0,P|336:230|314:282,1,99.0000030212403,10|2,0:0|0:0,0:0:0:0:
223,356,101977,1,2,0:0:0:0:
419,238,102164,2,0,P|474:244|508:278,1,99.0000030212403,2|10,0:0|0:0,0:0:0:0:
240,219,102539,6,0,P|231:170|346:89,1,198.000006042481,2|0,0:0|0:0,0:0:0:0:
151,120,103102,2,0,P|87:124|48:104,1,99.0000030212403,8|0,0:0|0:0,0:0:0:0:
327,184,103477,2,0,P|391:180|430:200,1,99.0000030212403,2|2,0:0|0:0,0:0:0:0:
342,362,103852,1,10,0:0:0:0:
206,261,104039,1,2,0:0:0:0:
206,261,104133,1,0,0:0:0:0:
206,261,104227,6,0,P|84:271|33:358,1,198.000006042481,2|10,0:0|0:0,0:0:0:0:
296,302,104789,2,0,P|302:263|275:198,1,99.0000030212403,2|2,0:0|0:0,0:0:0:0:
140,107,105164,1,2,0:0:0:0:
300,97,105352,1,10,0:0:0:0:
173,207,105539,1,2,0:0:0:0:
218,37,105727,6,0,P|311:2|396:65,1,198.000006042481,2|10,0:0|0:0,0:0:0:0:
444,199,106289,1,2,0:0:0:0:
383,346,106477,2,0,P|310:347|279:324,1,99.0000030212403,2|0,0:0|0:0,0:0:0:0:
225,281,106758,1,0,0:0:0:0:
225,281,106852,2,0,L|214:172,1,99.0000030212403,10|2,0:0|0:0,0:0:0:0:
104,20,107227,6,0,L|87:219,1,198.000006042481,6|10,0:0|0:0,0:0:0:0:
75,351,107789,1,2,0:0:0:0:
176,207,107977,2,0,P|227:194|280:212,1,99.0000030212403,2|2,0:0|0:0,0:0:0:0:
389,329,108352,1,10,0:0:0:0:
488,192,108539,6,0,P|499:130|410:32,1,198.000006042481,2|2,0:0|0:0,0:0:0:0:
230,123,109102,2,0,P|173:119|127:85,1,99.0000030212403,10|2,0:0|0:0,0:0:0:0:
209,249,109477,2,0,P|234:300|227:357,1,99.0000030212403,2|2,0:0|0:0,0:0:0:0:
328,203,109852,2,0,P|360:156|413:133,1,99.0000030212403,8|2,0:0|0:0,0:0:0:0:
327,367,110227,6,0,L|112:375,1,198.000006042481,6|10,0:0|0:0,0:0:0:0:
11,254,110789,1,10,0:0:0:0:
11,254,110883,1,2,0:0:0:0:
11,254,110977,2,0,P|2:202|16:154,1,99.0000030212403,2|2,0:0|0:0,0:0:0:0:
89,33,111352,1,10,0:0:0:0:
220,126,111539,1,10,0:0:0:0:
220,126,111633,1,10,0:0:0:0:
220,126,111727,6,0,P|269:137|314:122,1,99.0000030212403,10|0,0:0|0:0,0:0:0:0:
451,201,112102,1,10,0:0:0:0:
321,289,112289,1,10,0:0:0:0:
321,289,112383,1,10,0:0:0:0:
321,289,112477,1,10,0:0:0:0:
462,358,112664,1,0,0:0:0:0:
348,192,112852,1,10,0:0:0:0:
318,184,112945,1,10,0:0:0:0:
288,187,113039,1,10,0:0:0:0:
261,200,113133,1,10,0:0:0:0:
240,221,113227,6,0,P|156:267|71:225,1,198.000006042481,14|10,0:0|0:0,0:0:0:0:
177,77,113789,2,0,P|261:31|346:73,1,198.000006042481,2|2,0:0|0:0,0:0:0:0:
445,193,114352,1,10,0:0:0:0:
382,332,114539,6,0,P|307:339|228:234,1,198.000006042481,2|2,0:0|0:0,0:0:0:0:
206,88,115102,2,0,P|166:129|114:143,1,99.0000030212403,10|2,0:0|0:0,0:0:0:0:
2,74,115477,1,2,0:0:0:0:
127,142,115664,1,2,0:0:0:0:
2,210,115852,1,10,0:0:0:0:
127,278,116039,1,2,0:0:0:0:
254,155,116227,6,0,P|322:145|412:240,1,198.000006042481,6|10,0:0|0:0,0:0:0:0:
294,345,116789,2,0,P|290:280|315:241,1,99.0000030212403,2|2,0:0|0:0,0:0:0:0:
494,191,117164,2,0,P|498:256|473:295,1,99.0000030212403,2|10,0:0|0:0,0:0:0:0:
288,298,117539,6,0,L|90:308,1,198.000006042481,6|2,0:0|0:0,0:0:0:0:
19,167,118102,2,0,P|9:112|25:64,1,99.0000030212403,10|2,0:0|0:0,0:0:0:0:
130,123,118477,1,2,0:0:0:0:
195,2,118664,1,2,0:0:0:0:
287,152,118852,2,0,P|347:163|406:130,1,99.0000030212403,10|2,0:0|0:0,0:0:0:0:
508,56,119227,6,0,P|474:116|516:252,1,198.000006042481,6|10,0:0|0:0,0:0:0:0:
421,362,119789,1,2,0:0:0:0:
296,280,119977,2,0,P|240:279|191:319,1,99.0000030212403,2|2,0:0|0:0,0:0:0:0:
58,247,120352,1,10,0:0:0:0:
93,84,120539,6,0,P|135:30|259:22,1,198.000006042481,6|2,0:0|0:0,0:0:0:0:
399,127,121102,2,0,L|396:235,1,99.0000030212403,10|2,0:0|0:0,0:0:0:0:
390,351,121477,1,2,0:0:0:0:
491,294,121664,1,2,0:0:0:0:
296,280,121852,1,10,0:0:0:0:
296,280,122227,6,0,L|233:275,1,49.5000015106202,10|10,0:0|0:0,0:0:0:0:
118,234,122414,2,0,L|181:229,1,49.5000015106202,10|10,0:0|0:0,0:0:0:0:
278,181,122602,2,0,L|215:176,1,49.5000015106202,10|10,0:0|0:0,0:0:0:0:
138,115,122789,2,0,L|201:110,1,49.5000015106202,10|10,0:0|0:0,0:0:0:0:
261,76,122977,6,0,P|264:43|257:14,1,49.5000015106202,10|10,0:0|0:0,0:0:0:0:
345,66,123164,2,0,P|372:85|400:93,1,49.5000015106202,10|10,0:0|0:0,0:0:0:0:
446,146,123352,2,0,P|418:165|390:173,1,49.5000015106202,10|10,0:0|0:0,0:0:0:0:
345,226,123539,2,0,P|372:245|400:253,1,49.5000015106202,10|10,0:0|0:0,0:0:0:0:
486,272,123727,5,14,0:0:0:0:
478,295,124289,1,2,0:0:0:0:
471,319,124664,1,2,0:0:0:0:
409,263,125039,6,0,L|399:235,3,24.7500007553101,10|10|10|10,0:0|0:0|0:0|0:0,0:0:0:0:
393,291,125227,6,0,P|336:273|261:298,1,135.000005149842,14|10,0:0|0:0,0:0:0:0:
188,247,125789,1,2,0:0:0:0:
188,247,125883,1,2,0:0:0:0:
188,247,125977,2,0,L|185:212,1,33.7500012874604,2|0,0:0|0:0,0:0:0:0:
182,140,126164,1,2,0:0:0:0:
267,88,126352,1,10,0:0:0:0:
339,155,126539,1,2,0:0:0:0:
339,155,126914,5,2,0:0:0:0:
345,170,127008,1,2,0:0:0:0:
351,185,127102,1,10,0:0:0:0:
430,276,127289,1,2,0:0:0:0:
430,276,127383,1,2,0:0:0:0:
430,276,127477,2,0,L|437:223,1,33.7500012874604,2|2,0:0|0:0,0:0:0:0:
487,180,127664,2,0,L|480:133,1,33.7500012874604,2|2,0:0|0:0,0:0:0:0:
430,78,127852,1,10,0:0:0:0:
479,7,128039,1,2,0:0:0:0:
479,7,128133,1,2,0:0:0:0:
479,7,128227,5,2,0:0:0:0:
479,7,128602,1,10,0:0:0:0:
363,22,128789,1,2,0:0:0:0:
363,22,128883,1,2,0:0:0:0:
363,22,128977,2,0,L|311:28,1,33.7500012874604,2|2,0:0|0:0,0:0:0:0:
266,85,129164,2,0,L|214:79,1,33.7500012874604,2|2,0:0|0:0,0:0:0:0:
159,31,129352,1,10,0:0:0:0:
70,76,129539,1,2,0:0:0:0:
70,76,129914,5,2,0:0:0:0:
69,92,130008,1,2,0:0:0:0:
68,108,130102,1,10,0:0:0:0:
27,211,130289,1,2,0:0:0:0:
27,211,130383,1,2,0:0:0:0:
27,211,130477,2,0,L|32:257,1,33.7500012874604,2|2,0:0|0:0,0:0:0:0:
99,334,130664,2,0,L|104:288,1,33.7500012874604,2|0,0:0|0:0,0:0:0:0:
156,226,130852,1,10,0:0:0:0:
256,340,131227,5,4,0:0:0:0:
256,192,131320,12,0,137227,0:0:0:0:
