osu file format v14

[General]
AudioFilename: Kawada Mami - Wings of Courage -Sora o Koete-.mp3
AudioLeadIn: 0
PreviewTime: 79857
Countdown: 0
SampleSet: Soft
StackLeniency: 0.7
Mode: 3
LetterboxInBreaks: 0
SpecialStyle: 0
WidescreenStoryboard: 0

[Editor]
DistanceSpacing: 1.1
BeatDivisor: 8
GridSize: 4
TimelineZoom: 1.1

[Metadata]
Title:Wings of Courage -Sora o Koete-
TitleUnicode:Wings of Courage -空を超えて-
Artist:Mami Kawada
ArtistUnicode:川田まみ
Creator:-[ AmiShici ]-
Version:Hard
Source:蒼の彼方のフォーリズム
Tags:galgame eroge Sprite opening ao no kanata four rhythm Beyond the sky into the firmament Vocal & Sound Collection限定版 Elements Garden
BeatmapID:707054
BeatmapSetID:312601

[Difficulty]
HPDrainRate:7.5
CircleSize:6
OverallDifficulty:7.5
ApproachRate:9
SliderMultiplier:1.6
SliderTickRate:1

[Events]
//Background and Video events
0,0,"BG.jpg",0,0
Video,0,"Video.avi"
//Break Periods
//Storyboard Layer 0 (Background)
//Storyboard Layer 1 (Fail)
//Storyboard Layer 2 (Pass)
//Storyboard Layer 3 (Foreground)
//Storyboard Sound Samples
Sample,72920,0,"soft-hitclap1.wav",25
Sample,74420,0,"soft-hitclap1.wav",25
Sample,75920,0,"soft-hitclap1.wav",25

[TimingPoints]
5815,375,4,2,1,25,1,0
11795,375,4,2,1,25,1,0
80795,-100,4,2,1,25,0,1
101795,-100,4,2,1,25,0,0
116795,-100,4,2,1,25,0,1
128607,-100,4,2,1,25,0,0

[HitObjects]
42,192,5815,128,0,7174:0:0:0:0:
469,192,7174,128,0,8955:0:0:0:0:
298,192,8955,128,0,10221:0:0:0:0:
128,192,10221,128,0,11795:0:0:0:0:
182,192,11795,128,2,14795:0:0:0:0:
475,192,11795,1,0,0:0:0:0:
36,192,11982,1,0,0:0:0:0:
329,192,12170,1,2,0:0:0:0:
36,192,12357,1,0,0:0:0:0:
475,192,12545,1,2,0:0:0:0:
36,192,12732,1,0,0:0:0:0:
329,192,12920,1,2,0:0:0:0:
36,192,13107,1,0,0:0:0:0:
475,192,13295,1,2,0:0:0:0:
36,192,13482,1,0,0:0:0:0:
329,192,13670,1,2,0:0:0:0:
36,192,13857,1,0,0:0:0:0:
475,192,14045,1,2,0:0:0:0:
36,192,14232,1,0,0:0:0:0:
329,192,14420,1,2,0:0:0:0:
128,192,14795,1,2,0:0:0:0:
469,192,14795,1,0,0:0:0:0:
36,192,14982,1,2,0:0:0:0:
213,192,15170,1,2,0:0:0:0:
384,192,15170,1,0,0:0:0:0:
298,192,15357,1,2,0:0:0:0:
128,192,15357,1,0,0:0:0:0:
182,192,15732,1,2,0:0:0:0:
298,192,15732,1,0,0:0:0:0:
384,192,16107,1,0,0:0:0:0:
213,192,16201,1,0,0:0:0:0:
42,192,16295,1,0,0:0:0:0:
469,192,16295,1,0,0:0:0:0:
298,192,16482,1,0,0:0:0:0:
384,192,16576,1,0,0:0:0:0:
182,192,16670,1,0,0:0:0:0:
469,192,16670,1,0,0:0:0:0:
298,192,16857,1,0,0:0:0:0:
213,192,16951,1,0,0:0:0:0:
128,192,17045,1,0,0:0:0:0:
36,192,17232,1,0,0:0:0:0:
256,192,17326,1,0,0:0:0:0:
475,192,17420,1,0,0:0:0:0:
128,192,17420,1,0,0:0:0:0:
475,192,17795,1,2,0:0:0:0:
42,192,17795,1,4,0:0:0:0:
128,192,17795,128,0,17982:0:0:0:0:
384,192,17982,128,2,18170:0:0:0:0:
298,192,18170,1,8,0:0:0:0:
128,192,18170,128,0,18357:0:0:0:0:
384,192,18357,128,2,18545:0:0:0:0:
36,192,18545,1,0,0:0:0:0:
213,192,18545,1,0,0:0:0:0:
298,192,18732,128,2,18920:0:0:0:0:
36,192,18920,1,8,0:0:0:0:
475,192,18920,1,0,0:0:0:0:
384,192,19107,128,2,19295:0:0:0:0:
298,192,19295,1,0,0:0:0:0:
182,192,19295,1,0,0:0:0:0:
128,192,19482,128,2,19670:0:0:0:0:
36,192,19670,1,8,0:0:0:0:
475,192,19670,1,0,0:0:0:0:
384,192,19857,128,2,20045:0:0:0:0:
128,192,20045,1,0,0:0:0:0:
213,192,20045,128,0,20232:0:0:0:0:
298,192,20232,128,2,20420:0:0:0:0:
469,192,20420,1,8,0:0:0:0:
42,192,20420,128,0,20607:0:0:0:0:
213,192,20795,1,0,0:0:0:0:
128,192,20795,128,0,20982:0:0:0:0:
402,192,20795,1,0,0:0:0:0:
298,192,20982,128,2,21170:0:0:0:0:
475,192,21170,1,8,0:0:0:0:
42,192,21170,128,0,21357:0:0:0:0:
298,192,21357,128,2,21545:0:0:0:0:
475,192,21545,1,0,0:0:0:0:
128,192,21545,1,0,0:0:0:0:
42,192,21732,128,2,21920:0:0:0:0:
213,192,21920,1,8,0:0:0:0:
384,192,21920,1,0,0:0:0:0:
469,192,22107,128,2,22295:0:0:0:0:
298,192,22107,1,0,0:0:0:0:
128,192,22295,1,0,0:0:0:0:
384,192,22482,128,0,22670:0:0:0:0:
42,192,22670,1,8,0:0:0:0:
298,192,22670,128,0,22857:0:0:0:0:
128,192,22857,128,2,23045:0:0:0:0:
213,192,23045,1,0,0:0:0:0:
475,192,23045,1,0,0:0:0:0:
384,192,23232,128,2,23420:0:0:0:0:
329,192,23420,1,8,0:0:0:0:
42,192,23420,128,0,23607:0:0:0:0:
475,192,23795,1,4,0:0:0:0:
128,192,23795,128,0,23982:0:0:0:0:
384,192,23795,1,0,0:0:0:0:
298,192,23982,128,2,24170:0:0:0:0:
42,192,24170,1,8,0:0:0:0:
213,192,24170,128,0,24357:0:0:0:0:
384,192,24357,128,2,24545:0:0:0:0:
298,192,24545,1,0,0:0:0:0:
128,192,24545,1,0,0:0:0:0:
42,192,24732,128,2,24920:0:0:0:0:
469,192,24920,1,8,0:0:0:0:
298,192,24920,1,0,0:0:0:0:
213,192,25107,128,2,25295:0:0:0:0:
42,192,25295,1,0,0:0:0:0:
469,192,25295,1,0,0:0:0:0:
298,192,25482,128,2,25670:0:0:0:0:
128,192,25670,1,8,0:0:0:0:
475,192,25670,1,0,0:0:0:0:
42,192,25857,128,2,26045:0:0:0:0:
298,192,26045,128,0,26232:0:0:0:0:
384,192,26045,1,0,0:0:0:0:
128,192,26232,128,2,26420:0:0:0:0:
182,192,26420,1,8,0:0:0:0:
469,192,26420,128,0,26607:0:0:0:0:
298,192,26795,1,0,0:0:0:0:
42,192,26795,128,0,26982:0:0:0:0:
213,192,26795,1,0,0:0:0:0:
469,192,26982,128,2,27170:0:0:0:0:
298,192,27170,1,8,0:0:0:0:
42,192,27170,128,0,27357:0:0:0:25:soft-hitclap5.wav
384,192,27170,1,0,0:0:0:0:
182,192,27263,1,0,0:0:0:25:soft-hitclap5.wav
109,192,27357,1,2,0:0:0:25:soft-hitclap5.wav
469,192,27357,128,2,27545:0:0:0:0:
213,192,27451,1,0,0:0:0:25:soft-hitclap5.wav
298,192,27545,1,0,0:0:0:0:
384,192,27545,1,0,0:0:0:0:
42,192,27732,128,2,27920:0:0:0:0:
128,192,27920,1,8,0:0:0:0:
213,192,27920,1,0,0:0:0:25:soft-hitclap5.wav
298,192,28013,1,0,0:0:0:25:soft-hitclap5.wav
384,192,28107,1,0,0:0:0:25:soft-hitclap5.wav
469,192,28107,128,2,28295:0:0:0:0:
298,192,28201,1,0,0:0:0:25:soft-hitclap5.wav
128,192,28295,1,0,0:0:0:0:
213,192,28295,1,0,0:0:0:0:
42,192,28482,128,2,28670:0:0:0:0:
298,192,28670,1,0,0:0:0:25:soft-hitclap5.wav
384,192,28670,1,8,0:0:0:0:
469,192,28670,128,0,28857:0:0:0:0:
213,192,28763,1,0,0:0:0:25:soft-hitclap5.wav
128,192,28857,1,0,0:0:0:25:soft-hitclap5.wav
213,192,28951,1,0,0:0:0:25:soft-hitclap5.wav
384,192,29045,1,0,0:0:0:0:
298,192,29045,1,0,0:0:0:0:
42,192,29232,1,0,0:0:0:25:soft-hitclap5.wav
128,192,29232,1,0,0:0:0:0:
469,192,29420,1,8,0:0:0:0:
384,192,29420,1,0,0:0:0:25:soft-hitclap5.wav
128,192,29607,1,2,0:0:0:0:
42,192,29607,1,0,0:0:0:25:soft-hitclap5.wav
298,192,29701,1,0,0:0:0:25:soft-hitclap5.wav
182,192,29795,128,0,29982:0:0:0:0:
469,192,29795,1,4,0:0:0:0:
384,192,29795,1,0,0:0:0:0:
329,192,29982,128,2,30170:0:0:0:0:
182,192,30170,128,8,30357:0:0:0:0:
42,192,30170,1,0,0:0:0:0:
329,192,30357,128,2,30545:0:0:0:0:
109,192,30545,1,0,0:0:0:0:
469,192,30545,1,0,0:0:0:0:
182,192,30732,128,2,30920:0:0:0:0:
384,192,30920,1,8,0:0:0:0:
42,192,30920,1,0,0:0:0:0:
128,192,31107,128,2,31295:0:0:0:0:
469,192,31295,1,0,0:0:0:0:
298,192,31295,1,0,0:0:0:0:
384,192,31482,128,2,31670:0:0:0:0:
213,192,31670,1,8,0:0:0:0:
42,192,31670,1,0,0:0:0:0:
109,192,31857,128,2,32045:0:0:0:0:
298,192,32045,1,0,0:0:0:0:
384,192,32045,128,0,32232:0:0:0:0:
42,192,32232,128,2,32420:0:0:0:0:
469,192,32420,128,8,32607:0:0:0:0:
213,192,32420,1,0,0:0:0:0:
402,192,32795,128,0,32982:0:0:0:0:
36,192,32795,1,0,0:0:0:0:
182,192,32795,1,0,0:0:0:0:
109,192,32982,128,2,33170:0:0:0:0:
402,192,33170,128,8,33357:0:0:0:0:
298,192,33170,1,0,0:0:0:0:
109,192,33357,128,2,33545:0:0:0:0:
36,192,33545,1,0,0:0:0:0:
384,192,33545,1,0,0:0:0:0:
213,192,33732,128,2,33920:0:0:0:0:
469,192,33920,1,8,0:0:0:0:
298,192,33920,1,0,0:0:0:0:
36,192,34107,128,2,34295:0:0:0:0:
384,192,34107,1,0,0:0:0:0:
128,192,34295,1,0,0:0:0:0:
298,192,34295,1,0,0:0:0:0:
475,192,34482,128,2,34670:0:0:0:0:
213,192,34670,128,8,34857:0:0:0:0:
42,192,34670,1,0,0:0:0:0:
384,192,34857,128,2,35045:0:0:0:0:
109,192,35045,1,0,0:0:0:0:
298,192,35045,1,0,0:0:0:0:
42,192,35232,128,2,35420:0:0:0:0:
213,192,35420,1,8,0:0:0:0:
384,192,35420,128,0,35607:0:0:0:0:
329,192,35795,128,0,35982:0:0:0:0:
475,192,35795,1,4,0:0:0:0:
42,192,35795,1,0,0:0:0:0:
128,192,35982,128,2,36170:0:0:0:0:
213,192,36170,1,8,0:0:0:0:
384,192,36170,128,0,36357:0:0:0:0:
42,192,36357,128,2,36545:0:0:0:0:
298,192,36545,1,0,0:0:0:0:
469,192,36545,1,0,0:0:0:0:
213,192,36732,128,2,36920:0:0:0:0:
475,192,36920,1,8,0:0:0:0:
128,192,36920,1,0,0:0:0:0:
298,192,37107,5,2,0:0:0:0:
384,192,37107,128,0,37295:0:0:0:0:
128,192,37295,1,0,0:0:0:0:
42,192,37295,1,0,0:0:0:0:
475,192,37482,128,2,37670:0:0:0:0:
298,192,37670,1,8,0:0:0:0:
402,192,37670,1,0,0:0:0:0:
182,192,37857,128,2,38045:0:0:0:0:
469,192,38045,1,0,0:0:0:0:
42,192,38045,1,0,0:0:0:0:
213,192,38232,1,0,0:0:0:0:
298,192,38232,1,0,0:0:0:0:
402,192,38420,1,0,0:0:0:0:
109,192,38420,1,8,0:0:0:0:
36,192,38607,128,2,40295:0:0:0:0:
475,192,38607,128,0,40295:0:0:0:0:
256,192,38607,1,4,0:0:0:0:
213,192,38607,1,0,0:0:0:0:
213,192,38982,1,2,0:0:0:0:
298,192,38982,1,0,0:0:0:0:
384,192,39170,1,8,0:0:0:0:
128,192,39170,1,0,0:0:0:0:
213,192,39545,1,2,0:0:0:0:
128,192,39545,1,0,0:0:0:0:
298,192,39732,1,2,0:0:0:0:
384,192,39732,1,0,0:0:0:0:
213,192,39920,1,8,0:0:0:0:
128,192,39920,1,0,0:0:0:0:
402,192,40482,1,2,0:0:0:0:
213,192,40576,1,2,0:0:0:0:
42,192,40670,1,2,0:0:0:0:
469,192,40670,1,0,0:0:0:0:
384,192,40857,1,0,0:0:0:0:
298,192,40857,1,2,0:0:0:0:
42,192,41045,1,0,0:0:0:0:
128,192,41045,1,2,0:0:0:0:
213,192,41232,1,0,0:0:0:0:
298,192,41232,1,2,0:0:0:0:
36,192,41420,1,2,0:0:0:0:
475,192,41420,1,0,0:0:0:0:
384,192,41420,1,0,0:0:0:25:soft-hitclap1.wav
36,192,41795,1,2,0:0:0:0:
256,192,41795,1,0,0:0:0:0:
475,192,41795,1,4,0:0:0:0:
182,192,41982,1,0,0:0:0:0:
384,192,42170,1,2,0:0:0:0:
182,192,42357,1,0,0:0:0:0:
384,192,42545,1,2,0:0:0:0:
182,192,42732,1,0,0:0:0:0:
384,192,42920,1,2,0:0:0:0:
182,192,43107,1,0,0:0:0:0:
384,192,43295,1,2,0:0:0:0:
182,192,43482,1,0,0:0:0:0:
384,192,43670,1,2,0:0:0:0:
182,192,43857,1,0,0:0:0:0:
41,192,44045,1,2,0:0:0:0:
127,192,44232,1,0,0:0:0:0:
298,192,44420,1,2,0:0:0:0:
384,192,44513,1,0,0:0:0:0:
213,192,44607,1,0,0:0:0:0:
469,192,44607,1,2,0:0:0:0:
128,192,44795,1,2,0:0:0:0:
384,192,44982,1,0,0:0:0:0:
128,192,45170,1,2,0:0:0:0:
384,192,45357,1,0,0:0:0:0:
128,192,45545,1,2,0:0:0:0:
384,192,45732,1,0,0:0:0:0:
36,192,45920,1,2,0:0:0:0:
182,192,46107,1,0,0:0:0:0:
298,192,46201,1,0,0:0:0:0:
384,192,46295,1,2,0:0:0:0:
128,192,46295,1,0,0:0:0:0:
182,192,46482,1,0,0:0:0:0:
36,192,46670,1,2,0:0:0:0:
475,192,46857,1,0,0:0:0:0:
128,192,47045,1,2,0:0:0:0:
402,192,47232,1,0,0:0:0:0:
213,192,47420,1,2,0:0:0:0:
298,192,47607,1,0,0:0:0:0:
128,192,47795,1,2,0:0:0:0:
42,192,47795,1,4,0:0:0:0:
475,192,47795,1,0,0:0:0:0:
298,192,47982,1,2,0:0:0:0:
384,192,47982,1,0,0:0:0:0:
213,192,48170,1,2,0:0:0:0:
128,192,48170,1,0,0:0:0:25:soft-hitclap5.wav
36,192,48545,1,2,0:0:0:0:
128,192,48545,1,0,0:0:0:0:
402,192,48732,1,2,0:0:0:0:
475,192,48732,1,0,0:0:0:0:
36,192,48920,1,2,0:0:0:0:
128,192,48920,1,0,0:0:0:25:soft-hitclap5.wav
402,192,49107,1,2,0:0:0:0:
475,192,49107,1,0,0:0:0:0:
36,192,49482,1,2,0:0:0:0:
256,192,49482,1,0,0:0:0:0:
109,192,49670,1,2,0:0:0:0:
402,192,49670,1,0,0:0:0:25:soft-hitclap5.wav
475,192,49857,1,2,0:0:0:0:
182,192,49857,1,0,0:0:0:0:
36,192,50232,1,2,0:0:0:0:
469,192,50232,1,0,0:0:0:0:
128,192,50420,128,0,50795:0:0:0:25:soft-hitclap5.wav
384,192,50420,128,2,50795:0:0:0:0:
298,192,50795,1,4,0:0:0:0:
475,192,50795,1,2,0:0:0:0:
42,192,50795,1,0,0:0:0:0:
384,192,50982,1,2,0:0:0:0:
109,192,50982,1,0,0:0:0:0:
256,192,51170,1,2,0:0:0:0:
182,192,51170,1,0,0:0:0:25:soft-hitclap5.wav
475,192,51545,1,2,0:0:0:0:
128,192,51545,1,0,0:0:0:0:
36,192,51732,1,2,0:0:0:0:
384,192,51732,1,0,0:0:0:0:
475,192,51920,1,2,0:0:0:0:
128,192,51920,1,0,0:0:0:25:soft-hitclap5.wav
384,192,52107,1,2,0:0:0:0:
36,192,52107,1,0,0:0:0:0:
475,192,52482,1,2,0:0:0:0:
182,192,52482,1,0,0:0:0:0:
402,192,52670,1,2,0:0:0:0:
109,192,52670,1,0,0:0:0:25:soft-hitclap5.wav
329,192,52857,1,2,0:0:0:0:
36,192,52857,1,0,0:0:0:0:
475,192,53232,1,2,0:0:0:0:
42,192,53232,1,0,0:0:0:0:
128,192,53420,128,2,53795:0:0:0:0:
384,192,53420,128,0,53795:0:0:0:25:soft-hitclap5.wav
475,192,53795,1,2,0:0:0:0:
298,192,53795,1,4,0:0:0:0:
36,192,53795,1,0,0:0:0:0:
213,192,53982,1,0,0:0:0:0:
475,192,54170,1,2,0:0:0:0:
213,192,54357,1,0,0:0:0:0:
475,192,54545,1,2,0:0:0:0:
213,192,54732,1,0,0:0:0:0:
475,192,54920,1,2,0:0:0:0:
213,192,55107,1,0,0:0:0:0:
475,192,55295,1,2,0:0:0:0:
213,192,55482,1,0,0:0:0:0:
475,192,55670,1,2,0:0:0:0:
213,192,55857,1,0,0:0:0:0:
128,192,56045,1,2,0:0:0:0:
213,192,56232,1,0,0:0:0:0:
256,192,56420,1,2,0:0:0:0:
213,192,56513,1,0,0:0:0:0:
384,192,56607,1,2,0:0:0:0:
128,192,56607,1,0,0:0:0:0:
42,192,56795,1,2,0:0:0:0:
329,192,56982,1,0,0:0:0:0:
128,192,57170,1,2,0:0:0:0:
384,192,57357,1,0,0:0:0:0:
213,192,57545,1,2,0:0:0:0:
469,192,57732,1,0,0:0:0:0:
298,192,57920,1,2,0:0:0:0:
213,192,58107,1,0,0:0:0:0:
128,192,58201,1,0,0:0:0:0:
475,192,58295,1,2,0:0:0:0:
36,192,58295,1,0,0:0:0:0:
182,192,58482,1,0,0:0:0:0:
42,192,58670,1,2,0:0:0:0:
329,192,58857,1,0,0:0:0:0:
42,192,59045,1,2,0:0:0:0:
213,192,59232,1,0,0:0:0:0:
36,192,59420,1,2,0:0:0:0:
298,192,59607,1,0,0:0:0:0:
182,192,59795,1,2,0:0:0:0:
36,192,59795,1,4,0:0:0:0:
475,192,59795,1,0,0:0:0:0:
109,192,59982,1,2,0:0:0:0:
402,192,59982,1,0,0:0:0:0:
42,192,60170,1,2,0:0:0:0:
469,192,60170,1,0,0:0:0:25:soft-hitclap5.wav
384,192,60545,1,2,0:0:0:0:
298,192,60545,1,0,0:0:0:0:
213,192,60732,1,2,0:0:0:0:
128,192,60732,1,0,0:0:0:0:
329,192,60920,1,2,0:0:0:0:
402,192,60920,1,0,0:0:0:25:soft-hitclap5.wav
213,192,61107,1,2,0:0:0:0:
128,192,61107,1,0,0:0:0:0:
36,192,61482,1,2,0:0:0:0:
402,192,61482,1,0,0:0:0:0:
475,192,61670,1,2,0:0:0:0:
109,192,61670,1,0,0:0:0:25:soft-hitclap5.wav
402,192,61857,1,2,0:0:0:0:
36,192,61857,1,0,0:0:0:0:
42,192,62232,1,2,0:0:0:0:
469,192,62232,1,0,0:0:0:0:
128,192,62420,128,2,62795:0:0:0:0:
384,192,62420,128,0,62795:0:0:0:25:soft-hitclap5.wav
36,192,62795,1,2,0:0:0:0:
475,192,62795,1,4,0:0:0:0:
329,192,62795,1,0,0:0:0:0:
402,192,62982,1,2,0:0:0:0:
109,192,62982,1,0,0:0:0:0:
36,192,63170,1,2,0:0:0:0:
475,192,63170,1,0,0:0:0:25:soft-hitclap5.wav
213,192,63545,1,2,0:0:0:0:
298,192,63545,1,0,0:0:0:0:
469,192,63732,1,2,0:0:0:0:
42,192,63732,1,0,0:0:0:0:
213,192,63920,1,2,0:0:0:0:
298,192,63920,1,0,0:0:0:25:soft-hitclap5.wav
469,192,64107,1,2,0:0:0:0:
42,192,64107,1,0,0:0:0:0:
384,192,64482,1,2,0:0:0:0:
128,192,64482,1,0,0:0:0:0:
213,192,64670,1,0,0:0:0:25:soft-hitclap5.wav
298,192,64670,1,0,0:0:0:0:
475,192,64857,1,0,0:0:0:0:
384,192,64857,1,0,0:0:0:0:
128,192,64951,1,0,0:0:0:25:soft-hitclap5.wav
42,192,64951,1,0,0:0:0:0:
469,192,65045,1,0,0:0:0:25:soft-hitclap5.wav
384,192,65045,1,0,0:0:0:0:
298,192,65232,1,0,0:0:0:0:
213,192,65420,1,2,0:0:0:25:soft-hitclap5.wav
128,192,65420,1,0,0:0:0:0:
384,192,65513,1,2,0:0:0:25:soft-hitclap5.wav
298,192,65513,1,0,0:0:0:0:
213,192,65607,1,2,0:0:0:0:
298,192,65701,1,2,0:0:0:0:
469,192,65795,1,0,0:0:0:0:
42,192,65795,1,4,0:0:0:0:
213,192,65795,1,0,0:0:0:0:
42,192,65982,1,0,0:0:0:0:
469,192,65982,1,0,0:0:0:0:
42,192,66357,1,0,0:0:0:0:
469,192,66357,1,0,0:0:0:0:
42,192,66732,1,0,0:0:0:0:
469,192,66732,1,0,0:0:0:0:
42,192,67107,1,0,0:0:0:0:
469,192,67107,1,0,0:0:0:0:
469,192,67482,1,0,0:0:0:0:
42,192,67482,1,0,0:0:0:0:
42,192,67670,1,0,0:0:0:0:
469,192,67670,1,0,0:0:0:0:
384,192,67857,1,0,0:0:0:0:
128,192,67857,1,0,0:0:0:0:
42,192,68232,1,0,0:0:0:0:
469,192,68232,1,0,0:0:0:0:
469,192,68420,1,0,0:0:0:0:
42,192,68420,1,0,0:0:0:0:
213,192,68420,1,4,0:0:0:0:
128,192,68795,1,0,0:0:0:0:
384,192,68795,1,0,0:0:0:0:
384,192,68982,1,0,0:0:0:0:
128,192,68982,1,0,0:0:0:0:
384,192,69357,1,0,0:0:0:0:
128,192,69357,1,0,0:0:0:0:
384,192,69732,1,0,0:0:0:0:
128,192,69732,1,0,0:0:0:0:
384,192,70107,1,0,0:0:0:0:
128,192,70107,1,0,0:0:0:0:
128,192,70482,1,0,0:0:0:0:
384,192,70482,1,0,0:0:0:0:
128,192,70670,1,0,0:0:0:0:
384,192,70670,1,0,0:0:0:0:
213,192,70857,1,0,0:0:0:0:
298,192,70857,1,0,0:0:0:0:
128,192,71232,1,0,0:0:0:0:
384,192,71232,1,0,0:0:0:0:
36,192,71795,1,0,0:0:0:0:
475,192,71795,1,4,0:0:0:0:
213,192,71795,1,0,0:0:0:0:
213,192,71982,1,0,0:0:0:0:
36,192,71982,1,0,0:0:0:0:
384,192,72170,1,0,0:0:0:0:
213,192,72357,1,0,0:0:0:0:
36,192,72357,1,0,0:0:0:0:
384,192,72545,1,0,0:0:0:0:
182,192,72732,1,0,0:0:0:0:
36,192,72732,1,0,0:0:0:0:
469,192,73107,1,0,0:0:0:0:
298,192,73107,1,0,0:0:0:0:
469,192,73482,1,0,0:0:0:0:
298,192,73482,1,0,0:0:0:0:
469,192,73670,1,0,0:0:0:0:
298,192,73670,1,0,0:0:0:0:
469,192,74045,1,0,0:0:0:0:
298,192,74045,1,0,0:0:0:0:
128,192,74232,1,0,0:0:0:0:
298,192,74420,1,0,0:0:0:0:
475,192,74420,1,0,0:0:0:0:
42,192,74607,1,0,0:0:0:0:
128,192,74795,1,2,0:0:0:0:
384,192,74795,1,0,0:0:0:0:
213,192,74982,1,0,0:0:0:0:
128,192,75170,1,0,0:0:0:0:
384,192,75170,1,2,0:0:0:0:
298,192,75357,1,0,0:0:0:0:
128,192,75545,1,2,0:0:0:0:
384,192,75545,1,0,0:0:0:0:
213,192,75732,1,0,0:0:0:0:
128,192,75920,1,0,0:0:0:0:
384,192,75920,1,2,0:0:0:0:
298,192,76107,1,0,0:0:0:0:
128,192,76295,1,2,0:0:0:0:
384,192,76295,1,0,0:0:0:0:
42,192,76576,1,2,0:0:0:0:
469,192,76576,1,0,0:0:0:0:
128,192,76857,1,2,0:0:0:0:
384,192,76857,1,0,0:0:0:0:
213,192,77045,1,2,0:0:0:0:
298,192,77045,1,0,0:0:0:0:
298,192,77326,1,2,0:0:0:0:
213,192,77326,1,0,0:0:0:0:
128,192,77607,1,0,0:0:0:0:
384,192,77607,1,2,0:0:0:0:
475,192,77795,1,2,0:0:0:0:
36,192,77795,1,0,0:0:0:0:
475,192,77982,1,2,0:0:0:0:
36,192,77982,1,0,0:0:0:0:
256,192,78170,1,2,0:0:0:0:
213,192,78170,1,0,0:0:0:0:
256,192,78357,1,2,0:0:0:0:
213,192,78357,1,0,0:0:0:0:
469,192,78545,1,0,0:0:0:0:
256,192,78732,1,2,0:0:0:0:
213,192,78732,1,0,0:0:0:0:
42,192,78920,1,0,0:0:0:0:
402,192,79107,1,2,0:0:0:0:
109,192,79107,1,0,0:0:0:0:
298,192,79482,1,0,0:0:0:0:
182,192,79482,1,0,0:0:0:0:
36,192,79670,1,0,0:0:0:0:
469,192,79670,1,0,0:0:0:0:
213,192,80795,128,0,82107:0:0:0:0:
36,192,80795,1,4,0:0:0:0:
475,192,80795,1,2,0:0:0:0:
298,192,80982,1,2,0:0:0:0:
128,192,81170,1,8,0:0:0:0:
475,192,81170,1,0,0:0:0:0:
384,192,81357,1,2,0:0:0:0:
298,192,81545,1,0,0:0:0:0:
42,192,81545,1,0,0:0:0:0:
128,192,81732,1,2,0:0:0:0:
384,192,81920,1,8,0:0:0:0:
475,192,81920,1,0,0:0:0:0:
36,192,82107,1,2,0:0:0:0:
128,192,82107,1,0,0:0:0:0:
298,192,82107,128,0,83045:0:0:0:0:
384,192,82295,1,0,0:0:0:0:
469,192,82295,1,0,0:0:0:0:
128,192,82482,1,2,0:0:0:0:
469,192,82670,1,8,0:0:0:0:
42,192,82670,1,0,0:0:0:0:
213,192,82857,1,2,0:0:0:0:
475,192,83045,1,0,0:0:0:0:
42,192,83045,1,0,0:0:0:0:
128,192,83232,1,2,0:0:0:0:
469,192,83420,1,8,0:0:0:0:
298,192,83420,1,0,0:0:0:0:
384,192,83795,128,0,84920:0:0:0:0:
36,192,83795,1,0,0:0:0:0:
475,192,83795,1,0,0:0:0:0:
298,192,83982,1,2,0:0:0:0:
128,192,84170,1,8,0:0:0:0:
213,192,84170,1,0,0:0:0:0:
469,192,84357,1,2,0:0:0:0:
298,192,84545,1,0,0:0:0:0:
36,192,84545,1,0,0:0:0:0:
128,192,84732,1,2,0:0:0:0:
213,192,84920,1,8,0:0:0:0:
475,192,84920,1,0,0:0:0:0:
128,192,85107,128,0,85670:0:0:0:0:
402,192,85107,1,0,0:0:0:0:
256,192,85107,1,2,0:0:0:0:
475,192,85295,1,0,0:0:0:0:
213,192,85295,1,0,0:0:0:0:
384,192,85482,1,2,0:0:0:0:
298,192,85670,1,8,0:0:0:0:
42,192,85670,128,0,86045:0:0:0:0:
213,192,85857,1,2,0:0:0:0:
384,192,86045,1,0,0:0:0:0:
128,192,86045,128,0,86420:0:0:0:0:
298,192,86232,1,2,0:0:0:0:
384,192,86420,1,8,0:0:0:0:
213,192,86420,128,0,86795:0:0:0:0:
469,192,86420,1,4,0:0:0:0:
469,192,86795,1,0,0:0:0:0:
298,192,86795,128,0,88295:0:0:0:0:
42,192,86795,1,0,0:0:0:0:
384,192,86982,1,2,0:0:0:0:
213,192,87170,1,8,0:0:0:0:
128,192,87170,1,0,0:0:0:0:
384,192,87357,1,2,0:0:0:0:
36,192,87545,1,0,0:0:0:0:
475,192,87545,1,0,0:0:0:0:
128,192,87732,1,2,0:0:0:0:
384,192,87920,1,8,0:0:0:0:
213,192,87920,1,0,0:0:0:0:
128,192,88107,1,2,0:0:0:0:
36,192,88295,1,0,0:0:0:0:
469,192,88295,1,0,0:0:0:0:
182,192,88482,1,2,0:0:0:0:
384,192,88670,128,8,89045:0:0:0:0:
128,192,88670,1,0,0:0:0:0:
213,192,88857,1,2,0:0:0:0:
128,192,89045,128,0,89420:0:0:0:0:
298,192,89045,1,0,0:0:0:0:
213,192,89232,1,2,0:0:0:0:
36,192,89420,1,8,0:0:0:0:
475,192,89420,128,0,89795:0:0:0:0:
402,192,89795,1,0,0:0:0:0:
182,192,89795,1,0,0:0:0:0:
42,192,89795,128,0,90170:0:0:0:0:
128,192,89982,1,2,0:0:0:0:
469,192,90170,1,8,0:0:0:0:
213,192,90170,1,0,0:0:0:0:
298,192,90357,1,2,0:0:0:25:soft-hitclap5.wav
384,192,90451,1,0,0:0:0:25:soft-hitclap5.wav
213,192,90545,1,0,0:0:0:0:
469,192,90545,1,0,0:0:0:0:
42,192,90732,1,2,0:0:0:0:
128,192,90920,1,8,0:0:0:0:
384,192,90920,1,0,0:0:0:25:soft-hitclap5.wav
182,192,91107,1,2,0:0:0:25:soft-hitclap5.wav
469,192,91107,128,2,91482:0:0:0:0:
128,192,91201,1,0,0:0:0:25:soft-hitclap5.wav
298,192,91295,1,0,0:0:0:0:
42,192,91295,1,0,0:0:0:0:
213,192,91482,1,2,0:0:0:0:
384,192,91670,1,8,0:0:0:0:
128,192,91670,1,0,0:0:0:0:
213,192,91857,1,0,0:0:0:25:soft-hitclap5.wav
42,192,91857,128,2,92420:0:0:0:0:
298,192,91951,1,0,0:0:0:25:soft-hitclap5.wav
469,192,92045,1,0,0:0:0:0:
384,192,92045,1,0,0:0:0:0:
213,192,92232,1,2,0:0:0:0:
475,192,92420,1,8,0:0:0:25:soft-hitclap5.wav
128,192,92420,128,8,92795:0:0:0:0:
402,192,92513,1,0,0:0:0:25:soft-hitclap5.wav
329,192,92607,1,0,0:0:0:25:soft-hitclap5.wav
402,192,92701,1,0,0:0:0:25:soft-hitclap5.wav
182,192,92795,128,0,94107:0:0:0:0:
36,192,92795,1,4,0:0:0:0:
469,192,92795,1,0,0:0:0:0:
384,192,92982,1,2,0:0:0:0:
128,192,93170,1,8,0:0:0:0:
298,192,93170,1,0,0:0:0:0:
384,192,93357,1,2,0:0:0:0:
36,192,93545,1,0,0:0:0:0:
469,192,93545,1,0,0:0:0:0:
298,192,93732,1,2,0:0:0:0:
469,192,93920,1,8,0:0:0:0:
109,192,93920,1,0,0:0:0:0:
384,192,94107,1,2,0:0:0:0:
42,192,94107,1,0,0:0:0:0:
298,192,94107,128,0,95045:0:0:0:0:
128,192,94295,1,0,0:0:0:0:
469,192,94295,1,0,0:0:0:0:
213,192,94482,1,2,0:0:0:0:
109,192,94670,1,8,0:0:0:0:
469,192,94670,1,0,0:0:0:0:
384,192,94857,1,2,0:0:0:0:
469,192,95045,128,0,95420:0:0:0:0:
42,192,95045,1,0,0:0:0:0:
213,192,95045,1,0,0:0:0:0:
128,192,95232,1,2,0:0:0:0:
213,192,95420,128,8,95795:0:0:0:0:
384,192,95420,1,0,0:0:0:0:
42,192,95795,128,0,96170:0:0:0:0:
128,192,95795,128,0,96170:0:0:0:0:
298,192,96357,128,0,96545:0:0:0:0:
213,192,96357,128,0,96545:0:0:0:0:
384,192,96732,128,0,96920:0:0:0:0:
469,192,96732,128,0,96920:0:0:0:0:
42,192,97107,128,0,97482:0:0:0:0:
128,192,97107,128,0,97482:0:0:0:0:
298,192,97107,1,4,0:0:0:0:
298,192,97670,1,8,0:0:0:0:
213,192,97670,1,0,0:0:0:0:
384,192,97857,1,2,0:0:0:0:
475,192,98045,1,0,0:0:0:0:
42,192,98045,1,0,0:0:0:0:
128,192,98232,1,2,0:0:0:0:
402,192,98420,1,8,0:0:0:0:
213,192,98420,1,0,0:0:0:0:
469,192,98795,128,0,100107:0:0:0:0:
128,192,98795,1,0,0:0:0:0:
42,192,98795,1,4,0:0:0:0:
182,192,98982,1,2,0:0:0:0:
298,192,99170,1,8,0:0:0:0:
384,192,99170,1,0,0:0:0:0:
182,192,99357,1,2,0:0:0:0:
36,192,99545,1,0,0:0:0:0:
109,192,99545,1,0,0:0:0:0:
213,192,99732,1,2,0:0:0:0:
298,192,99920,1,8,0:0:0:0:
402,192,99920,1,0,0:0:0:0:
213,192,100107,1,2,0:0:0:0:
36,192,100107,1,0,0:0:0:0:
128,192,100107,1,0,0:0:0:0:
384,192,100295,1,0,0:0:0:0:
298,192,100295,1,0,0:0:0:0:
128,192,100482,1,2,0:0:0:0:
298,192,100670,1,8,0:0:0:0:
213,192,100670,1,0,0:0:0:0:
42,192,100857,1,2,0:0:0:0:
213,192,101045,1,0,0:0:0:0:
475,192,101045,128,0,101420:0:0:0:0:
128,192,101045,1,0,0:0:0:0:
256,192,101232,1,2,0:0:0:0:
128,192,101420,1,8,0:0:0:0:
384,192,101420,1,0,0:0:0:0:
475,192,101795,1,0,0:0:0:25:soft-hitclap5.wav
42,192,101795,1,0,0:0:0:0:
128,192,101888,1,0,0:0:0:25:soft-hitclap5.wav
213,192,101982,1,0,0:0:0:25:soft-hitclap5.wav
298,192,102076,1,0,0:0:0:25:soft-hitclap5.wav
475,192,102170,1,0,0:0:0:25:soft-hitclap5.wav
384,192,102170,1,8,0:0:0:0:
298,192,102263,1,0,0:0:0:25:soft-hitclap5.wav
213,192,102357,1,0,0:0:0:25:soft-hitclap5.wav
128,192,102451,1,0,0:0:0:25:soft-hitclap5.wav
469,192,102545,1,0,0:0:0:0:
42,192,102545,1,0,0:0:0:0:
402,192,102732,1,2,0:0:0:0:
128,192,102732,1,0,0:0:0:25:soft-hitclap5.wav
298,192,102920,1,8,0:0:0:0:
213,192,102920,1,0,0:0:0:25:soft-hitclap5.wav
42,192,103107,1,0,0:0:0:25:soft-hitclap5.wav
128,192,103201,1,0,0:0:0:25:soft-hitclap5.wav
469,192,103295,128,0,103670:0:0:0:0:
213,192,103295,128,0,103670:0:0:0:0:
298,192,103857,128,0,104045:0:0:0:0:
42,192,103857,128,0,104045:0:0:0:0:
213,192,104232,128,0,104607:0:0:0:0:
469,192,104232,128,0,104607:0:0:0:0:
36,192,104795,1,4,0:0:0:0:
298,192,104795,1,0,0:0:0:0:
469,192,104795,128,0,107795:0:0:0:0:
109,192,104982,1,2,0:0:0:0:
402,192,105170,1,8,0:0:0:0:
298,192,105170,1,0,0:0:0:0:
213,192,105357,1,2,0:0:0:0:
128,192,105545,1,0,0:0:0:0:
36,192,105545,1,0,0:0:0:0:
384,192,105732,1,2,0:0:0:0:
256,192,105920,1,8,0:0:0:0:
182,192,105920,1,0,0:0:0:0:
109,192,106107,1,2,0:0:0:0:
402,192,106107,1,0,0:0:0:0:
42,192,106107,1,0,0:0:0:0:
298,192,106295,1,0,0:0:0:0:
182,192,106295,1,0,0:0:0:0:
128,192,106482,1,2,0:0:0:0:
384,192,106670,1,8,0:0:0:0:
42,192,106670,1,0,0:0:0:0:
213,192,106857,1,2,0:0:0:0:
402,192,107045,1,0,0:0:0:0:
298,192,107045,1,0,0:0:0:0:
42,192,107045,1,0,0:0:0:0:
213,192,107232,1,2,0:0:0:0:
109,192,107420,1,8,0:0:0:0:
42,192,107420,1,0,0:0:0:0:
128,192,107795,1,0,0:0:0:0:
36,192,107795,1,0,0:0:0:0:
384,192,107795,1,0,0:0:0:0:
213,192,107982,1,2,0:0:0:0:
329,192,108170,1,8,0:0:0:0:
402,192,108170,1,0,0:0:0:0:
182,192,108357,1,2,0:0:0:0:
42,192,108545,1,0,0:0:0:0:
475,192,108545,1,0,0:0:0:0:
384,192,108732,1,2,0:0:0:0:
329,192,108920,1,8,0:0:0:0:
213,192,108920,1,0,0:0:0:0:
109,192,109107,1,2,0:0:0:0:
469,192,109107,1,0,0:0:0:0:
402,192,109107,1,0,0:0:0:0:
256,192,109295,1,0,0:0:0:0:
36,192,109295,1,0,0:0:0:0:
128,192,109482,1,2,0:0:0:0:
469,192,109670,1,8,0:0:0:0:
182,192,109670,1,0,0:0:0:0:
256,192,109857,1,2,0:0:0:0:
128,192,110045,1,0,0:0:0:0:
475,192,110045,1,0,0:0:0:0:
384,192,110232,1,2,0:0:0:0:
213,192,110420,1,8,0:0:0:0:
42,192,110420,1,0,0:0:0:0:
469,192,110795,128,0,112295:0:0:0:0:
109,192,110795,1,0,0:0:0:0:
42,192,110795,1,0,0:0:0:0:
182,192,110982,1,2,0:0:0:0:
384,192,111170,1,8,0:0:0:0:
42,192,111170,1,0,0:0:0:0:
182,192,111357,1,2,0:0:0:0:
298,192,111357,1,0,0:0:0:0:
109,192,111545,1,0,0:0:0:0:
42,192,111545,1,0,0:0:0:0:
384,192,111732,1,2,0:0:0:0:
213,192,111732,1,0,0:0:0:0:
42,192,111920,1,8,0:0:0:0:
256,192,111920,1,0,0:0:0:0:
182,192,112107,1,2,0:0:0:0:
128,192,112107,1,0,0:0:0:0:
384,192,112295,1,0,0:0:0:0:
36,192,112295,1,0,0:0:0:0:
298,192,112482,1,2,0:0:0:0:
36,192,112670,1,8,0:0:0:0:
384,192,112670,128,0,113045:0:0:0:0:
109,192,112857,1,2,0:0:0:0:
256,192,113045,128,0,113420:0:0:0:0:
475,192,113045,1,0,0:0:0:0:
128,192,113232,1,2,0:0:0:0:
36,192,113420,1,8,0:0:0:0:
182,192,113420,128,0,113795:0:0:0:0:
475,192,113795,1,0,0:0:0:0:
36,192,113795,1,0,0:0:0:0:
109,192,113795,128,0,115107:0:0:0:0:
256,192,113982,1,2,0:0:0:0:
475,192,114170,1,8,0:0:0:0:
384,192,114170,1,0,0:0:0:25:soft-hitclap5.wav
213,192,114357,1,2,0:0:0:25:soft-hitclap5.wav
298,192,114451,1,0,0:0:0:25:soft-hitclap5.wav
384,192,114545,1,0,0:0:0:0:
42,192,114545,1,0,0:0:0:0:
298,192,114732,1,2,0:0:0:0:
475,192,114920,1,8,0:0:0:0:
213,192,114920,1,0,0:0:0:25:soft-hitclap5.wav
298,192,115107,1,2,0:0:0:25:soft-hitclap5.wav
42,192,115107,128,0,115482:0:0:0:0:
384,192,115201,1,0,0:0:0:25:soft-hitclap5.wav
469,192,115295,1,0,0:0:0:0:
384,192,115482,128,2,115670:0:0:0:0:
298,192,115670,1,8,0:0:0:25:soft-hitclap5.wav
128,192,115670,128,8,115857:0:0:0:0:
469,192,115857,128,2,116420:0:0:0:0:
213,192,115857,1,0,0:0:0:0:
298,192,115951,1,0,0:0:0:0:
42,192,116045,1,0,0:0:0:0:
384,192,116045,1,0,0:0:0:0:
213,192,116232,1,2,0:0:0:0:
384,192,116420,1,0,0:0:0:25:soft-hitclap5.wav
128,192,116420,128,8,116795:0:0:0:0:
298,192,116513,1,0,0:0:0:25:soft-hitclap5.wav
213,192,116607,1,0,0:0:0:25:soft-hitclap5.wav
298,192,116701,1,0,0:0:0:25:soft-hitclap5.wav
469,192,116795,1,4,0:0:0:0:
42,192,116795,128,0,118107:0:0:0:0:
384,192,116795,1,0,0:0:0:0:
298,192,116982,1,2,0:0:0:0:
109,192,117170,1,8,0:0:0:0:
475,192,117170,1,0,0:0:0:0:
384,192,117357,1,2,0:0:0:0:
213,192,117545,1,0,0:0:0:0:
329,192,117545,1,0,0:0:0:0:
384,192,117732,1,2,0:0:0:0:
469,192,117920,1,8,0:0:0:0:
128,192,117920,1,0,0:0:0:0:
213,192,118107,1,2,0:0:0:0:
384,192,118107,128,0,119045:0:0:0:0:
298,192,118107,1,0,0:0:0:0:
128,192,118295,1,0,0:0:0:0:
469,192,118295,1,0,0:0:0:0:
298,192,118482,1,2,0:0:0:0:
42,192,118670,1,8,0:0:0:0:
213,192,118670,1,0,0:0:0:0:
128,192,118857,1,2,0:0:0:0:
213,192,119045,1,0,0:0:0:0:
469,192,119045,128,0,119795:0:0:0:0:
298,192,119045,1,0,0:0:0:0:
42,192,119232,1,2,0:0:0:0:
402,192,119420,1,8,0:0:0:0:
298,192,119420,1,0,0:0:0:0:
298,192,119795,128,0,120170:0:0:0:0:
42,192,119795,128,0,120170:0:0:0:0:
128,192,120357,128,0,120545:0:0:0:0:
469,192,120357,128,0,120545:0:0:0:0:
42,192,120732,128,0,120920:0:0:0:0:
384,192,120732,128,0,120920:0:0:0:0:
128,192,121107,128,0,121482:0:0:0:0:
469,192,121107,128,0,121482:0:0:0:0:
213,192,121107,1,4,0:0:0:0:
298,192,121670,1,8,0:0:0:0:
42,192,121670,1,0,0:0:0:0:
469,192,121857,1,2,0:0:0:0:
384,192,122045,1,0,0:0:0:0:
213,192,122045,1,0,0:0:0:0:
128,192,122045,128,0,122232:0:0:0:0:
298,192,122232,128,2,122420:0:0:0:0:
42,192,122420,1,8,0:0:0:0:
384,192,122420,1,0,0:0:0:0:
469,192,122420,128,0,122795:0:0:0:0:
182,192,122795,128,0,124107:0:0:0:0:
384,192,122795,1,0,0:0:0:0:
36,192,122795,1,4,0:0:0:0:
256,192,122982,1,2,0:0:0:0:
42,192,123170,1,8,0:0:0:0:
469,192,123170,1,0,0:0:0:0:
384,192,123357,1,2,0:0:0:0:
475,192,123545,1,0,0:0:0:0:
128,192,123545,1,0,0:0:0:0:
298,192,123732,1,2,0:0:0:0:
384,192,123920,1,8,0:0:0:0:
42,192,123920,1,0,0:0:0:0:
469,192,124107,128,2,125420:0:0:0:0:
128,192,124107,1,0,0:0:0:0:
298,192,124107,1,0,0:0:0:0:
42,192,124295,1,0,0:0:0:0:
384,192,124295,1,0,0:0:0:0:
298,192,124482,1,2,0:0:0:0:
128,192,124670,1,8,0:0:0:0:
213,192,124670,1,0,0:0:0:0:
329,192,124857,1,2,0:0:0:0:
402,192,125045,1,0,0:0:0:0:
42,192,125045,1,0,0:0:0:0:
329,192,125232,1,2,0:0:0:0:
128,192,125420,1,8,0:0:0:0:
213,192,125420,1,0,0:0:0:0:
128,192,125795,1,0,0:0:0:25:soft-hitclap5.wav
42,192,125795,1,0,0:0:0:0:
213,192,125888,1,0,0:0:0:25:soft-hitclap5.wav
298,192,125982,1,0,0:0:0:25:soft-hitclap5.wav
384,192,126076,1,0,0:0:0:25:soft-hitclap5.wav
469,192,126170,1,0,0:0:0:25:soft-hitclap5.wav
42,192,126170,1,8,0:0:0:0:
128,192,126263,1,0,0:0:0:25:soft-hitclap5.wav
213,192,126357,1,0,0:0:0:25:soft-hitclap5.wav
298,192,126451,1,0,0:0:0:25:soft-hitclap5.wav
469,192,126545,1,0,0:0:0:25:soft-hitclap5.wav
384,192,126545,1,0,0:0:0:0:
298,192,126638,1,0,0:0:0:25:soft-hitclap5.wav
213,192,126732,1,0,0:0:0:25:soft-hitclap5.wav
128,192,126826,1,0,0:0:0:25:soft-hitclap5.wav
42,192,126920,1,0,0:0:0:25:soft-hitclap5.wav
469,192,126920,1,8,0:0:0:0:
384,192,127013,1,0,0:0:0:25:soft-hitclap5.wav
298,192,127107,1,0,0:0:0:25:soft-hitclap5.wav
213,192,127201,1,0,0:0:0:25:soft-hitclap5.wav
128,192,127295,128,0,127670:0:0:0:0:
384,192,127295,128,0,127670:0:0:0:0:
213,192,127857,128,0,128045:0:0:0:0:
469,192,127857,128,0,128045:0:0:0:0:
128,192,128232,128,0,128607:0:0:0:0:
384,192,128232,128,0,128607:0:0:0:0:
42,192,128795,1,2,0:0:0:0:
128,192,128795,1,0,0:0:0:0:
475,192,128795,1,4,0:0:0:0:
384,192,128795,128,0,134795:0:0:0:0:
182,192,129170,1,0,0:0:0:0:
128,192,129357,1,0,0:0:0:0:
329,192,129451,1,0,0:0:0:0:
42,192,129545,1,0,0:0:0:0:
469,192,129638,1,0,0:0:0:0:
182,192,129732,1,0,0:0:0:0:
128,192,129920,1,0,0:0:0:0:
329,192,129920,1,0,0:0:0:0:
36,192,130107,1,0,0:0:0:0:
109,192,130482,1,0,0:0:0:0:
213,192,130576,1,0,0:0:0:0:
36,192,130670,1,0,0:0:0:0:
298,192,130670,1,0,0:0:0:0:
475,192,130857,1,0,0:0:0:0:
128,192,130951,1,0,0:0:0:0:
298,192,131045,1,0,0:0:0:0:
42,192,131138,1,0,0:0:0:0:
213,192,131232,1,0,0:0:0:0:
42,192,131326,1,0,0:0:0:0:
329,192,131420,1,0,0:0:0:0:
475,192,131420,1,0,0:0:0:0:
213,192,131607,1,0,0:0:0:0:
128,192,131701,1,0,0:0:0:0:
42,192,131795,1,0,0:0:0:0:
213,192,132170,1,0,0:0:0:0:
475,192,132170,1,0,0:0:0:0:
298,192,132357,1,0,0:0:0:0:
213,192,132451,1,0,0:0:0:0:
128,192,132545,1,0,0:0:0:0:
42,192,132638,1,0,0:0:0:0:
128,192,132732,1,0,0:0:0:0:
213,192,132826,1,0,0:0:0:0:
298,192,132920,1,0,0:0:0:0:
42,192,132920,1,0,0:0:0:0:
128,192,133107,1,0,0:0:0:0:
128,192,133482,1,0,0:0:0:0:
213,192,133576,1,0,0:0:0:0:
329,192,133670,1,0,0:0:0:0:
475,192,133670,1,0,0:0:0:0:
213,192,133857,1,0,0:0:0:0:
128,192,133951,1,0,0:0:0:0:
42,192,134045,1,0,0:0:0:0:
298,192,134138,1,0,0:0:0:0:
213,192,134232,1,0,0:0:0:0:
128,192,134326,1,0,0:0:0:0:
475,192,134420,1,0,0:0:0:0:
36,192,134420,1,0,0:0:0:0:
298,192,134795,128,0,140795:0:0:0:0:
182,192,134795,128,4,140795:0:0:0:0:
469,192,134795,128,0,140795:0:0:0:0:
42,192,134795,128,0,140795:0:0:0:0:
