osu file format v5

[General]
AudioFilename: Mami Kawada - Triangle.mp3
AudioLeadIn: 0
PreviewTime: -1
Countdown: 0
SampleSet: Normal
StackLeniency: 0.7
Mode: 0
LetterboxInBreaks: 1
EditorBookmarks: 31206

[Metadata]
Title:Triangle
Artist:Mami Kawada
Creator:James
Version:Normal
Source:
Tags:

[Difficulty]
HPDrainRate:3
CircleSize:4
OverallDifficulty:4
SliderMultiplier:1.4
SliderTickRate:1

[Events]
//Background and Video events
0,0,"sample-3a33eb6186d9e4480ae9a0d0ac2cf04a.jpg"
//Break Periods
2,45931,60348
2,91400,105468
//Storyboard Layer 0 (Background)
//Storyboard Layer 1 (Failing)
//Storyboard Layer 2 (Passing)
//Storyboard Layer 3 (Foreground)
//Storyboard Sound Samples
//Background Colour Transformations
3,100,0,0,0

[TimingPoints]
1198,468.75,4,1,0,100,1
181434,468.75,4,2,0,100,1
196199,468.75,4,1,0,100,1

[Colours]
Combo1 : 206,0,0
Combo2 : 255,0,0
Combo3 : 176,0,0

[HitObjects]
88,72,31666,1,0
200,72,32135,1,0
200,72,32369,1,0
312,72,32838,1,0
424,72,33307,1,0
368,168,33776,1,0
368,168,34010,1,0
368,168,34244,1,0
256,168,34713,1,0
144,168,35182,1,0
88,264,35651,5,0
88,264,35885,1,0
88,264,36119,1,0
200,264,36588,1,0
312,264,37057,1,0
424,264,37526,1,0
424,264,37994,2,0,C|408:352|280:352,1,210,0|4
176,344,39166,5,0
168,232,39635,1,0
168,232,39869,1,0
168,120,40338,2,0,C|239:130|280:192,1,140
320,288,41276,1,0
320,288,41510,1,0
320,288,41744,1,0
408,216,42213,2,0,C|448:176|448:88,2,140
408,216,43385,5,0
408,216,43619,1,0
304,184,44088,1,4
192,168,44557,1,0
80,176,45026,1,0
80,176,45260,1,0
80,176,45494,1,0
80,176,45729,1,0
136,80,61666,5,0
136,80,61901,1,0
136,80,62135,2,0,C|248:80,2,105
192,176,63307,2,0,C|192:320,1,140,0|0
192,316,64010,1,0
192,316,64244,2,0,C|408:320,1,210
344,224,65416,5,0
344,224,65651,1,0
344,224,65885,2,0,C|208:224,2,105
280,128,67057,1,0
280,128,67291,2,0,C|228:184|256:256|280:308|208:352,1,280,0|4
120,48,69166,6,0,C|48:112,1,70
67,94,69635,2,0,C|100:131|112:192,2,105
24,200,70807,2,0,C|48:272|263:236|472:280,1,490,0|0
256,192,72916,12,0,74791
312,80,75729,6,0,C|273:61|216:72,2,70
312,80,76432,2,0,C|288:144|306:252|240:352,1,280
152,280,77838,2,0,C|72:152,1,140
77,161,78541,2,0,C|136:104,1,70
127,112,78893,2,0,C|191:137|248:136,1,105
280,128,79479,5,0
280,128,79713,1,0
280,128,79948,1,0
280,128,80182,2,0,C|310:177|288:208|288:264,2,140
184,184,81588,2,0,C|128:232|128:320,1,140
126,296,82291,2,0,C|128:376,1,70
392,48,83229,6,0,C|304:56,1,70
322,54,83698,1,4
320,56,83932,2,0,C|284:118|304:200,2,140
400,128,85338,2,0,C|440:192|432:256,1,140
432,255,86041,2,0,C|344:264,1,70
362,262,86393,2,0,C|316:240|240:248,1,105
208,248,86979,5,0
160,216,87213,1,0
184,168,87448,1,0
216,128,87682,2,0,C|366:132,4,140
256,192,89791,12,4,91198
120,48,106198,5,4
176,48,106432,2,0,C|176:104,2,35
232,48,106901,2,0,C|232:112,2,35
288,48,107369,2,0,C|288:104,2,35
344,48,107838,2,8,C|344:136,1,70
344,176,108307,6,0,C|296:176,2,35
344,232,108776,2,0,C|288:232,2,35
344,288,109244,2,0,C|304:288,2,35
344,344,109713,2,8,C|256:344,1,70
216,344,110182,6,0,C|160:344,2,35
216,288,110651,2,0,C|176:288,2,35
216,232,111119,2,0,C|168:232,2,35
216,176,111588,2,0,C|144:176|104:248,3,140
111,233,113229,1,0
111,233,113346,1,0
111,233,113463,1,4
432,64,114166,6,0,C|264:64,1,140
292,64,114869,1,0
352,152,115338,2,0,C|264:280,1,140
184,200,116276,1,0
184,200,116510,1,0
184,200,116744,1,0
96,264,117213,2,0,C|8:136,2,140
144,296,118385,2,0,C|208:280|256:284|304:277|368:288,1,210
288,192,119557,1,0
328,88,120026,1,0
272,72,120260,1,0
272,72,120494,2,0,C|232:144,1,70
80,320,121198,5,4
80,320,121432,2,0,C|232:320,2,140
144,224,122838,1,0
144,224,123073,1,0
144,224,123307,2,0,C|144:64,2,140
240,160,124713,2,0,C|320:160,2,70
272,264,125651,2,0,C|168:264,2,70,0|0|0
240,368,126588,2,0,C|72:368,4,140
448,48,129401,5,0
392,48,129635,1,0
336,48,129869,1,0
280,48,130104,1,0
224,48,130338,2,0,C|208:120|224:200,1,140
248,288,131276,1,0
248,288,131510,2,0,C|120:288,2,105
248,288,132448,5,0
328,208,132916,1,0
256,120,133385,1,0
176,200,133854,1,0
176,200,134088,1,0
248,280,134557,1,0
248,280,134791,2,0,C|416:280,1,140
328,184,135729,1,0
384,88,136198,1,4
288,24,136666,6,0,C|216:24,1,70
218,24,137135,2,0,C|168:128,2,105
280,120,138307,2,0,C|208:264,1,140
217,245,139010,2,0,C|128:248,1,70
147,247,139479,1,0
147,247,139596,1,0
96,48,140416,2,0,C|168:48,1,70
166,48,140885,2,0,C|224:136,2,105
280,40,142057,1,0
280,40,142291,2,0,C|464:280,1,280
368,336,143698,5,0
272,272,144166,2,0,C|184:272,1,70
202,272,144635,2,0,C|120:184,2,105
232,160,145807,2,0,C|144:48,1,140
145,49,146510,2,0,C|72:112,2,70
145,49,147096,1,0
256,192,147916,12,0,149791
184,48,150729,6,0,C|288:48,1,70
254,48,151198,1,4
312,48,151432,2,0,C|312:200,2,140
224,112,152838,2,0,C|224:264,1,140
224,256,153541,2,0,C|328:256,1,70
294,256,153893,2,0,C|312:312|296:368,1,105
240,360,154479,6,0,C|168:336|160:264|200:216|208:152|192:120|144:96,1,350
48,88,156119,1,0
16,192,156588,1,0
72,288,157057,1,0
72,288,157291,2,0,C|32:376,1,70
208,344,158229,6,0,C|368:344,1,140,0|4
320,296,158932,2,0,C|168:296,2,140
264,200,160338,2,0,C|184:199|168:128,1,140
170,143,161041,2,0,C|256:88,1,70
232,104,161393,2,0,C|252:48|240:0,1,105
256,192,161979,12,0,166198
