osu file format v9

[General]
AudioFilename: Shakugan no Shana II - Sense.mp3
AudioLeadIn: 0
PreviewTime: 121402
Countdown: 0
SampleSet: Normal
StackLeniency: 0.7
Mode: 0
LetterboxInBreaks: 1

[Editor]
Bookmarks: 26045
DistanceSpacing: 0.8
BeatDivisor: 4
GridSize: 8

[Metadata]
Title:Sense
Artist:Mami Kawada
Creator:Acrith
Version:Hard
Source:Shakugan no Shana II
Tags:SnS Second Shakugan no Shana II Yuji Sakai Anime

[Difficulty]
HPDrainRate:5
CircleSize:5
OverallDifficulty:5
ApproachRate:7
SliderMultiplier:1.5
SliderTickRate:2

[Events]
//Background and Video events
0,0,"Konachan.com - 40577 shakugan_no_shana shana.jpg"
//Break Periods
2,88781,98038
2,158781,166252
2,193067,200538
//Storyboard Layer 0 (Background)
//Storyboard Layer 1 (Fail)
//Storyboard Layer 2 (Pass)
//Storyboard Layer 3 (Foreground)
Sprite,Foreground,Centre,"unlimited.png",320,240 M,0,165688,,318,338 S,0,165688,,0.7952002 F,0,165688,166045,0,1 F,0,166045,167116,1,0 F,0,167116,167831,0,1 F,0,167831,168902,1,0 F,0,168902,169974,0,1 F,0,169974,170688,1,0 F,0,170688,171402,0,1 F,0,171402,172116,1,0 F,0,172116,172831,0,1 F,0,172831,173545,1,0 F,0,173545,174259,0,1 F,0,174259,174974,1,0.04255981 F,0,174974,175688,0.04255981,1 F,0,175688,176402,1,0 F,0,176402,177116,0,1 F,0,177116,177831,1,0 F,0,177831,190192,0,0.02657342
//Storyboard Sound Samples
//Background Colour Transformations
3,100,163,162,255

[TimingPoints]
7153,357.142857142857,4,1,0,60,1,0
18545,-100,4,1,0,60,0,0
29572,-100,4,1,0,40,0,0
29661,-100,4,1,0,60,0,0
29974,-133.333333333333,4,2,0,40,0,0
51402,-133.333333333333,4,2,0,40,0,0
52867,-100,4,1,0,40,0,0
53224,-100,4,1,0,60,0,1
75902,-100,4,1,0,60,0,0
87072,-100,4,1,0,40,0,0
87250,-100,4,1,0,10,0,0
88500,-100,4,1,0,40,0,0
88590,-100,4,1,0,10,0,0
98858,-100,4,1,0,60,0,0
121438,-100,4,1,0,40,0,1
121447,-100,4,1,0,60,0,1
144474,-100,4,1,0,10,0,0
146000,-100,4,1,0,60,0,0
150108,-100,4,1,0,10,0,0
151715,-100,4,1,0,60,0,0
155420,-100,4,1,0,40,0,0
155688,-100,4,1,0,10,0,0
158545,-100,4,1,0,20,0,0
158634,-100,4,1,0,10,0,0
167116,-76.9230769230769,4,1,0,40,0,0
167206,-76.9230769230769,4,1,0,60,0,0
168456,-76.9230769230769,4,1,0,40,0,0
168634,-76.9230769230769,4,1,0,60,0,0
169884,-76.9230769230769,4,1,0,40,0,0
170063,-76.9230769230769,4,1,0,60,0,0
172741,-76.9230769230769,4,1,0,40,0,0
172920,-76.9230769230769,4,1,0,60,0,0
174170,-76.9230769230769,4,1,0,40,0,0
174349,-76.9230769230769,4,1,0,60,0,0
175599,-76.9230769230769,4,1,0,40,0,0
175777,-76.9230769230769,4,1,0,60,0,0
178545,-100,4,1,0,60,0,0
188456,-100,4,1,0,40,0,0
190063,-100,4,1,0,60,0,0
192777,-100,4,1,0,40,0,0
192956,-100,4,1,0,60,0,0
204295,-100,4,1,0,60,0,1
215724,-100,4,1,0,60,0,0
215777,-100,4,1,0,10,0,0
217474,-100,4,1,0,60,0,0
221527,-100,4,1,0,10,0,0
223099,-100,4,1,0,60,0,0
227295,-100,4,1,0,10,0,0
231402,-100,4,1,0,60,0,0
233545,-100,4,1,0,10,0,0
237116,-100,4,1,0,60,0,0
238545,-100,4,2,0,60,0,0
239259,-100,4,2,0,50,0,0
239974,-100,4,2,0,40,0,0
240687,-100,4,2,0,30,0,0
241402,-100,4,2,0,20,0,0
242116,-100,4,2,0,10,0,0
242510,-100,4,2,0,5,0,0

[Colours]
Combo1 : 215,96,99
Combo2 : 103,188,177
Combo3 : 194,120,128
Combo4 : 11,159,149

[HitObjects]
256,272,18581,5,0
296,224,18760,1,0
336,176,18938,1,8
240,104,19295,1,0
200,152,19474,1,0
160,200,19652,1,8
40,200,20010,6,0,B|40:288|80:352,1,150,0|8
40,168,20724,2,0,B|32:104|88:24,1,150,0|8
256,88,21438,5,0
320,88,21617,2,0,B|352:40|392:104,1,75,0|8
320,192,22152,1,0
256,192,22331,2,0,B|224:240|200:192,1,75,0|8
120,280,22867,6,0,B|144:248|120:208,1,75
64,240,23224,2,0,B|32:200|80:152,1,75,8|0
40,112,23581,1,0
88,72,23760,1,0
144,104,23938,2,0,B|232:104,1,75,8|0
272,136,24295,5,0
312,184,24474,1,0
280,240,24652,2,0,B|280:288|216:280,1,75,8|0
200,224,25010,1,0
144,192,25188,1,0
200,160,25367,1,8
120,64,25724,6,0,B|192:24,1,75
200,88,26081,2,0,B|272:48,1,75,8|0
328,48,26438,1,0
384,80,26617,1,0
416,136,26795,1,8
392,288,27152,5,0
336,256,27331,1,0
296,208,27510,2,0,B|328:168,2,37.5,8|0|0
264,264,27867,2,0,B|192:272|192:208,1,75,0|0
136,248,28224,1,8
192,144,28581,6,0,B|208:184,2,37.5
136,128,28938,2,0,B|128:176,2,37.5,8|0|0
88,96,29295,2,0,B|56:120,4,37.5,0|0|0|0|12
64,184,30010,1,4
288,176,30367,6,0,B|336:176|344:224,1,56.2499983236194,8|0
360,240,30724,1,0
336,280,30902,1,0
256,312,31260,1,0
184,256,31617,1,0
224,232,31795,1,8
184,152,32152,2,0,B|184:224,1,56.2499983236194
400,320,33224,6,0,B|432:312|440:264,1,56.2499983236194,8|0
416,240,33581,1,0
440,200,33760,1,0
384,128,34117,1,0
248,152,34652,1,8
128,184,35010,1,0
168,104,35367,1,8
200,232,35724,1,0
272,288,36081,6,0,B|336:288,1,56.2499983236194,8|0
416,256,36617,1,0
400,216,36795,1,8
368,184,36974,1,0
328,208,37153,2,0,B|304:184|336:152,1,56.2499983236194
368,136,37510,2,0,B|400:136|416:168,1,56.2499983236194,8|0
296,96,38224,5,8
256,112,38403,1,0
216,120,38581,1,0
184,208,38938,1,8
224,232,39117,1,0
256,112,39653,1,8
336,128,40010,5,0
352,144,40099,1,0
368,160,40188,1,0
352,176,40278,1,0
336,192,40367,1,8
272,192,40724,5,0
256,208,40813,1,0
240,224,40903,1,0
256,240,40992,1,0
272,256,41081,1,8
352,304,41438,5,4
264,336,41795,1,8
288,296,41974,1,0
272,256,42153,2,0,B|232:288|208:256,1,56.2499983236194
112,288,42688,1,0
48,168,43224,2,0,B|96:120,2,56.2499983236194,8|0|0
104,184,43760,1,0
216,104,44295,1,0
304,88,44652,5,8
344,112,44831,1,0
360,152,45010,2,0,B|304:184,1,56.2499983236194
296,272,45545,1,0
176,216,46081,5,8
104,160,46438,1,0
176,104,46795,1,8
248,160,47153,1,0
296,80,47510,6,0,B|280:120|336:136,3,56.2499983236194,8|0|0|0
360,144,48224,1,8
400,168,48403,1,0
432,200,48581,2,0,B|432:240|384:256,3,56.2499983236194,0|0|8|0
280,296,49653,5,8
240,272,49831,1,0
208,240,50010,2,0,B|240:216,4,28.1249991618097,0|0|0|8|8
160,232,50545,1,0
120,208,50724,1,0
88,176,50903,1,0
104,136,51081,1,8
192,32,51438,5,0
232,56,51617,1,0
240,96,51795,1,8
224,136,51974,1,0
264,160,52153,1,0
256,200,52331,1,0
288,232,52510,1,8
336,232,52688,1,0
368,200,52867,1,4
416,80,53224,6,0,B|396:32|336:48,1,75,8|0
320,96,53581,2,0,B|304:184|192:168,1,150,0|8
168,120,54117,2,0,B|104:112|80:160,2,75
88,216,54831,1,4
136,328,55188,1,4
320,320,55724,1,0
432,344,56081,6,0,B|480:328|480:272,1,75,8|0
416,280,56438,2,0,B|368:272|368:200,1,75
432,216,56795,2,0,B|480:200|464:136,2,75,8|0|0
432,216,57331,1,0
352,304,57688,1,4
232,304,58045,1,4
144,152,58581,1,0
256,120,58938,5,8
312,152,59117,1,0
344,208,59295,2,0,B|296:264,1,75
256,216,59652,1,8
216,264,59831,2,0,B|160:208,1,75
144,152,60188,1,0
184,104,60367,1,8
400,208,61081,5,8
456,176,61260,1,0
400,144,61438,2,0,B|376:56|272:80,1,150,0|8
256,136,61974,2,0,B|312:208|224:264,1,150
192,312,62510,2,0,B|192:360|128:360,1,75,8|8
136,296,62867,6,0,B|80:280|80:224,1,75,0|0
144,232,63224,2,0,B|192:232|208:176,1,75,8|0
144,168,63581,2,0,B|104:72|-8:104,1,150,0|8
72,208,64295,1,0
152,296,64653,5,8
184,240,64831,1,0
224,288,65010,2,0,B|280:296|304:256,1,75
248,224,65367,1,8
288,176,65545,1,0
352,176,65724,2,0,B|320:224|368:256,1,75
448,320,66260,1,4
488,208,66617,1,4
328,120,67153,1,0
240,144,67510,6,8,B|240:48|328:40,1,150,8|0
352,96,68045,2,0,B|392:80|416:120,1,75,8|0
392,176,68402,1,0
352,224,68581,1,8
328,280,68760,1,0
448,264,69117,1,4
328,280,69474,1,4
240,200,69831,5,0
184,232,70010,1,0
288,296,70367,1,8
232,328,70545,1,0
296,232,70903,1,0
240,128,71260,1,0
240,128,71795,1,8
136,72,72153,5,0
192,48,72331,1,0
248,72,72510,1,8
304,48,72688,1,0
360,72,72867,1,0
328,184,73224,2,0,B|320:128|248:176,1,75,8|0
152,184,73760,2,0,B|160:128|232:176,1,75,0|8
240,280,74295,5,0
360,280,74653,2,0,B|312:224,1,75,8|0
368,120,75188,2,0,B|304:176,3,75,0|8|0|0
256,192,75903,8,8,77510
120,232,77867,5,0
168,120,78224,1,8
216,232,78581,1,0
264,120,78938,1,8
328,120,79117,1,0
360,240,79474,1,0
424,240,79653,1,8
448,120,80010,1,0
328,120,80367,5,8
264,120,80545,1,0
272,240,80903,1,0
208,240,81081,1,8
176,184,81260,1,0
176,184,81438,1,0
256,192,81617,12,0,82867
184,80,83224,5,8
304,96,83581,2,0,B|224:160|312:232,1,150,0|8
392,152,84295,2,0,B|464:216|392:296,1,150,0|8
280,296,85010,2,0,B|192:328|144:232,1,150,0|8
264,208,85724,6,0,B|320:200|280:128,1,75
240,120,86081,1,8
176,120,86260,1,0
120,88,86438,2,0,B|144:48|184:56,2,75,0|0|8
120,152,86974,2,0,B|136:208|200:176,1,75,0|0
256,192,87331,12,0,88581
408,88,98938,5,8
440,144,99117,1,0
472,200,99295,1,0
416,232,99474,2,0,B|336:96,2,150,0|8|0
472,200,100367,1,8
480,320,100724,1,0
424,352,100902,1,0
192,168,101795,5,8
240,128,101974,1,0
288,88,102152,1,0
240,48,102331,2,0,B|160:112,1,75,0|8
152,40,102688,2,0,B|72:104,1,75
64,144,103045,1,0
64,208,103224,1,8
160,272,103581,5,0
232,120,103938,1,8
328,256,104295,1,0
424,160,104652,5,8
472,120,104831,1,0
360,88,105189,1,0
328,144,105367,1,8
360,200,105546,1,0
288,200,105724,2,8,B|240:144|240:144|296:80,1,150,8|8
290,86,106260,1,0
168,88,106617,5,0
112,64,106795,1,8
32,152,107152,1,0
168,208,107510,1,8
112,232,107688,1,0
229,129,108045,6,0,B|149:73,3,75,0|8|0|0
240,56,108760,2,0,B|216:8,2,37.5,0|0|8
296,88,109117,1,0
320,144,109295,2,0,B|376:144,2,37.5
320,208,109652,1,8
376,240,109831,1,0
408,296,110010,1,0
296,352,110367,5,8
264,296,110545,1,0
208,328,110724,1,0
208,264,110902,2,0,B|248:208|312:232|328:280,1,150,0|8
376,240,111438,6,0,B|336:168|256:168|240:176,1,150,0|8
192,192,111974,1,0
144,232,112152,1,0
112,288,112331,1,0
104,112,112867,5,0
280,72,113224,2,0,B|344:24,1,75,8|0
368,80,113581,2,0,B|304:128,1,75
224,152,113938,1,8
192,208,114117,2,0,B|112:272,1,75
96,208,114474,2,0,B|160:160,1,75,0|8
168,40,115010,1,0
224,152,115367,1,8
272,40,115724,5,0
408,272,116260,1,0
136,304,116795,1,8
80,200,117152,5,0
136,168,117331,1,0
80,136,117510,1,8
136,104,117688,1,0
312,64,118224,6,0,B|312:152,1,75,8|0
368,168,118581,1,0
320,280,118938,1,8
256,176,119295,1,0
184,80,119652,1,8
176,200,120010,5,0
176,200,120188,2,0,B|176:288,1,75,0|8
176,336,120545,1,0
240,336,120724,2,0,B|240:256,1,75
240,200,121081,1,8
304,200,121260,2,0,B|304:280,1,75,0|4
384,184,121795,6,0,B|344:104|248:96,1,150,8|0
208,96,122331,2,0,B|128:104|88:176,1,150
192,232,123045,1,8
304,272,123402,1,4
192,320,123760,1,4
120,152,124295,6,0,B|160:96|240:64,1,150,0|8
296,56,124831,2,0,B|384:64|448:128,1,150
384,152,125367,2,0,B|296:88|224:144,1,150,8|0
200,176,125902,1,8
296,248,126260,1,4
400,312,126617,1,4
328,144,127152,1,0
152,96,127510,5,8
208,128,127688,1,0
264,96,127867,1,0
208,64,128045,1,0
152,96,128224,1,8
112,144,128402,2,0,B|200:240|320:136,1,225,0|8
136,312,129652,6,0,B|192:328|184:264,1,75,8|0
208,216,130010,2,0,B|208:168|256:168,1,75
312,144,130367,2,0,B|352:144|368:200,1,75,8|0
336,248,130724,2,0,B|320:304|408:304,1,75
432,320,131081,1,8
432,256,131260,1,8
464,200,131438,6,0,B|440:152|384:128,1,75
376,96,131795,2,0,B|344:64|296:80,1,75,8|0
264,120,132152,2,0,B|216:128|208:176,1,75
240,224,132510,2,0,B|232:288|176:280,1,75,8|8
152,240,132867,1,4
88,136,133224,5,8
144,104,133402,1,0
144,168,133581,1,0
200,136,133760,1,0
256,104,133938,1,8
256,168,134117,1,0
312,136,134295,1,0
312,200,134474,2,0,B|256:288|192:192,1,150,0|4
196,198,135188,2,0,B|128:296|72:176,1,150,4|8
88,136,135724,5,0
192,80,136081,1,8
256,80,136260,2,0,B|336:80|352:176,1,150
336,232,136795,1,8
288,192,136974,1,0
256,248,137152,1,0
256,248,137331,1,0
136,248,137688,1,0
128,128,138045,1,0
240,88,138402,6,0,B|320:24,1,75
264,152,138938,2,0,B|328:104,1,75,8|0
304,224,139474,1,0
400,160,139831,1,0
160,344,140724,5,0
192,288,140902,1,0
128,288,141081,1,8
88,240,141260,1,0
128,192,141438,2,0,B|128:104|128:104|200:104|224:208,1,225
280,296,142331,1,0
344,296,142510,1,8
432,216,142867,6,0,B|432:120|432:120|368:104|336:200,1,225
296,80,143760,2,0,B|256:104|248:152,1,75,8|0
192,112,144117,2,0,B|184:144|136:176,1,75,0|8
256,192,144474,12,8,146081
272,272,146438,5,0
152,288,146795,1,8
184,168,147152,2,0,B|272:184|272:272,1,150,0|8
320,312,147688,1,0
368,272,147867,2,0,B|392:176|288:152,1,150,0|8
272,104,148402,1,0
152,104,148760,5,0
112,56,148938,1,8
80,112,149117,1,0
80,232,149474,1,0
128,272,149652,1,8
168,224,149831,1,0
120,184,150010,1,0
256,192,150188,12,8,151795
352,96,152152,6,0,B|432:152|360:240,1,150,0|8
264,288,152867,2,0,B|168:328|128:224,1,150,0|8
104,192,153402,1,0
136,136,153581,2,0,B|176:40|272:56,1,150,0|8
264,176,154295,5,0
232,232,154474,1,0
200,176,154652,1,8
232,120,154831,1,0
296,120,155010,1,0
328,176,155188,1,0
296,232,155367,1,8
264,176,155545,1,4
256,192,155724,12,0,158581
48,120,167152,6,0,B|112:32|224:40,1,194.999996513128,4|8
208,120,167688,2,0,B|112:128|48:232,1,194.999996513128
112,272,168224,1,8
176,232,168402,1,0
176,312,168581,6,0,B|304:304|320:176,1,194.999996513128,4|8
368,264,169117,2,0,B|408:144|304:64,1,194.999996513128
256,120,169652,1,8
216,184,169831,1,0
176,120,170010,6,0,B|208:16|352:32,1,194.999996513128,4|8
344,104,170545,2,0,B|464:112|472:232,1,194.999996513128
400,248,171081,1,8
464,288,171260,2,0,B|376:360|248:296,1,194.999996513128
232,248,171795,1,8
200,320,171974,1,0
152,256,172152,2,0,B|32:248|32:120,1,194.999996513128,0|8
184,112,172867,6,0,B|304:104|208:280,1,194.999996513128,4|8
296,240,173402,2,0,B|392:224|160:160,1,194.999996513128
120,192,173938,2,0,B|64:144|120:88,1,97.4999982565642,8|0
168,80,174295,6,0,B|368:0|320:112,1,194.999996513128,4|8
264,128,174831,2,0,B|232:216|432:120,1,194.999996513128
400,208,175367,1,8
416,288,175545,1,0
352,344,175724,6,0,B|232:312|296:184,1,194.999996513128,4|8
216,184,176260,2,0,B|232:320|80:328,1,194.999996513128
128,248,176795,1,8
56,224,176974,2,0,B|168:136|32:80,1,194.999996513128
96,32,177510,1,8
160,72,177688,2,0,B|272:120|376:48,1,194.999996513128
416,32,178224,1,8
456,96,178402,1,0
416,160,178581,5,0
416,224,178760,1,0
360,192,178938,1,8
360,256,179117,1,0
304,224,179295,6,0,B|304:320,1,75
248,272,179652,2,0,B|248:176,1,75,8|0
192,224,180010,2,0,B|192:312,1,75
136,275,180367,2,0,B|136:200,1,75,8|0
192,160,180724,6,0,B|248:72|312:168,2,150,0|8|0
96,88,181795,2,0,B|8:160|104:224,1,150,8|0
192,160,182510,1,8
232,112,182688,1,0
272,64,182867,1,0
224,24,183045,5,0
184,72,183224,1,8
144,120,183402,1,0
184,72,183581,1,0
136,32,183760,1,0
136,32,183938,1,8
216,192,184295,5,0
176,240,184474,1,0
224,280,184652,2,0,B|280:216,1,75,8|0
328,256,185010,1,0
280,304,185188,1,0
336,328,185367,6,0,B|456:248|304:160,1,225,8|0
160,56,186438,2,0,B|288:0|384:80,1,225,8|0
400,128,187152,2,0,B|376:208,1,75
320,200,187510,2,0,B|344:120,1,75,8|0
264,144,187867,6,0,B|240:216,1,75
184,208,188224,2,0,B|208:136,1,75,8|0
256,192,188581,12,12,189652
112,64,190010,5,0
144,120,190188,1,0
176,176,190367,1,8
208,296,190724,1,0
232,240,190902,1,0
256,184,191081,1,8
360,120,191438,6,0,B|392:200,1,75,0|0
392,248,191795,2,0,B|344:320,1,75,8|0
312,264,192152,2,0,B|360:184|360:200,1,75,0|0
336,144,192510,2,0,B|296:80,1,75,8|0
248,120,192867,1,4
368,72,201438,5,0
368,312,202152,1,0
128,312,202867,1,0
128,72,203581,1,0
304,232,204295,5,4
304,168,204474,1,0
248,200,204652,1,8
248,136,204831,1,0
192,168,205010,5,0
192,104,205188,1,0
136,136,205367,1,8
136,200,205545,1,0
192,232,205724,6,0,B|192:320|296:312,1,150,0|8
344,272,206260,1,0
392,312,206438,2,0,B|480:320|480:216,1,150,0|8
384,136,207152,1,0
296,56,207510,6,0,B|224:72|272:136,1,75,8|0
312,120,207867,2,0,B|328:176|240:168,1,75
216,152,208224,1,8
216,152,208402,2,0,B|168:120|216:56,1,75
136,80,208760,2,0,B|160:32|96:16,1,75,0|8
64,64,209117,1,0
96,176,209474,1,0
168,272,209831,6,0,B|256:272,1,75
272,216,210188,1,0
304,160,210367,2,0,B|384:160,1,75,8|0
360,280,210902,2,0,B|432:232|448:160,1,150
160,72,212152,5,0
160,192,212510,1,8
64,128,212867,1,0
64,248,213224,2,0,B|136:280,1,75,8|0
256,280,213760,2,0,B|336:240,1,75,0|8
320,128,214295,1,0
208,48,214652,6,0,B|288:48,1,75,8|0
208,104,215010,2,0,B|112:104,1,75
208,160,215367,2,0,B|296:160,1,75,8|0
344,160,215724,1,0
256,192,215902,12,8,217510
192,48,217867,5,0
304,96,218224,1,8
192,144,218581,1,0
304,192,218938,2,0,B|304:272,1,75,8|0
192,232,219474,2,0,B|192:320,1,75,0|8
304,264,220010,5,0
192,232,220367,2,0,B|192:152,1,75,8|0
304,192,220902,2,0,B|304:112,3,75
256,192,221617,12,8,223224
152,136,223581,6,0,B|224:64|296:152,1,150,0|8
280,256,224295,2,0,B|216:336|144:248,1,150,0|8
154,259,224831,1,0
154,259,225010,1,0
64,184,225367,6,0,B|120:136,1,75,8|0
168,96,225724,1,0
216,136,225902,1,0
168,176,226081,2,0,B|88:240,1,75,8|0
160,264,226438,1,0
208,224,226617,2,0,B|272:168,1,75,0|8
312,216,226974,1,0
264,256,227152,1,0
256,192,227331,12,0,231438
408,56,231795,5,8
368,232,232152,1,0
336,56,232510,1,8
296,232,232867,1,0
88,56,233402,1,0
256,192,233581,12,0,237152
72,56,237510,5,8
112,232,237867,1,0
152,56,238224,1,8
192,232,238581,5,0
256,168,238760,1,0
320,232,238938,1,2
384,168,239117,5,0
440,232,239295,1,0
384,296,239474,1,2
320,232,239652,5,0
256,296,239831,1,0
192,232,240010,1,2
128,296,240188,5,0
64,232,240367,1,0
128,168,240545,1,2
192,232,240724,5,0
256,168,240902,1,0
320,104,241081,1,2
256,40,241260,5,0
192,104,241438,1,0
256,168,241617,1,2
320,232,241795,5,0
384,168,241974,1,0
448,232,242152,1,2
384,296,242331,1,0
256,192,242510,12,4,244295
