osu file format v14

[General]
AudioFilename: Kawada Mami - PSI-Missing.mp3
AudioLeadIn: 0
PreviewTime: 51678
Countdown: 0
SampleSet: Soft
StackLeniency: 0.7
Mode: 3
LetterboxInBreaks: 0
SpecialStyle: 0
WidescreenStoryboard: 0

[Editor]
DistanceSpacing: 0.8
BeatDivisor: 4
GridSize: 8
TimelineZoom: 1.099999

[Metadata]
Title:PSI-missing(TV Size)
TitleUnicode:PSI-missing(TVサイズ)
Artist:Mami Kawada
ArtistUnicode:川田まみ
Creator:Takane6
Version:Normal
Source:とある魔術の禁書目録
Tags:Toaru Majutsu no Index Eternalie Shinzo- opening Kinsho Mokuroku
BeatmapID:695194
BeatmapSetID:311202

[Difficulty]
HPDrainRate:7
CircleSize:7
OverallDifficulty:7
ApproachRate:5
SliderMultiplier:1.4
SliderTickRate:1

[Events]
//Background and Video events
0,0,"bg.jpg",0,0
Video,0,"video.avi"
//Break Periods
//Storyboard Layer 0 (Background)
//Storyboard Layer 1 (Fail)
//Storyboard Layer 2 (Pass)
//Storyboard Layer 3 (Foreground)
//Storyboard Sound Samples

[TimingPoints]
100,461.538461538462,4,2,1,45,1,0
14866,-100,4,2,2,45,0,0
51792,-100,4,2,1,45,0,1
81330,-100,4,2,1,45,0,0

[HitObjects]
109,192,100,1,2,0:0:0:0:
402,192,446,1,0,0:0:0:0:
256,192,792,1,0,0:0:0:0:
109,192,1023,1,2,0:0:0:0:
402,192,1369,1,0,0:0:0:0:
256,192,1715,1,0,0:0:0:0:
109,192,1946,1,2,0:0:0:0:
402,192,2292,1,0,0:0:0:0:
256,192,2638,1,0,0:0:0:0:
109,192,2869,1,2,0:0:0:0:
402,192,3215,1,0,0:0:0:0:
256,192,3561,1,0,0:0:0:0:
475,192,3792,128,0,4715:0:0:0:40:LR_HiHat Click.wav
109,192,4138,1,0,0:0:0:0:
256,192,4484,1,0,0:0:0:0:
36,192,4715,128,0,5638:0:0:0:40:LR_HiHat Click.wav
402,192,5061,1,0,0:0:0:0:
182,192,5407,1,0,0:0:0:0:
475,192,5638,1,2,0:0:0:0:
475,192,5869,1,2,0:0:0:0:
109,192,6100,1,8,0:0:0:0:
256,192,6446,1,2,0:0:0:0:
402,192,6676,1,8,0:0:0:0:
36,192,6792,1,2,0:0:0:0:
182,192,7023,128,2,7484:0:0:0:0:
36,192,7484,1,2,0:0:0:0:
475,192,7484,128,4,8176:0:0:0:0:
329,192,7715,1,2,0:0:0:0:
182,192,7946,1,8,0:0:0:0:
329,192,8176,128,2,9330:0:0:0:0:
36,192,8407,1,2,0:0:0:0:
402,192,8638,1,2,0:0:0:0:
109,192,8869,1,8,0:0:0:0:
475,192,9100,1,0,0:0:0:0:
182,192,9330,1,2,0:0:0:0:
109,192,9561,1,2,0:0:0:0:
402,192,9792,1,8,0:0:0:0:
182,192,10023,128,0,10484:0:0:0:0:
402,192,10253,1,2,0:0:0:0:
329,192,10484,128,0,10946:0:0:0:0:
36,192,10715,1,8,0:0:0:0:
182,192,10946,128,0,11176:0:0:0:0:
109,192,11176,128,0,11869:0:0:0:0:
475,192,11176,1,2,0:0:0:0:
256,192,11407,1,2,0:0:0:0:
402,192,11638,1,8,0:0:0:0:
182,192,11869,128,0,12792:0:0:0:0:
329,192,12100,1,2,0:0:0:0:
475,192,12330,1,2,0:0:0:0:
256,192,12561,1,8,0:0:0:0:
402,192,12792,128,0,13946:0:0:0:0:
36,192,13023,1,2,0:0:0:0:
256,192,13253,1,2,0:0:0:0:
109,192,13484,1,8,0:0:0:0:
182,192,13715,1,0,0:0:0:0:
329,192,13946,1,2,0:0:0:0:
36,192,14176,1,2,0:0:0:0:
329,192,14407,1,8,0:0:0:0:
475,192,14638,1,2,0:0:0:0:
36,192,14869,1,0,0:0:0:0:
256,192,14869,1,2,0:0:0:0:
109,192,15100,1,0,0:0:0:0:
329,192,15330,1,8,0:0:0:0:
109,192,15561,1,0,0:0:0:0:
182,192,15676,1,0,0:0:0:0:
256,192,15792,1,2,0:0:0:0:
36,192,16023,1,0,0:0:0:0:
329,192,16253,1,8,0:0:0:0:
182,192,16484,1,0,0:0:0:0:
109,192,16715,1,2,0:0:0:0:
402,192,17176,1,8,0:0:0:0:
182,192,17407,1,0,0:0:0:0:
256,192,17523,1,0,0:0:0:0:
329,192,17638,1,2,0:0:0:0:
109,192,17869,1,0,0:0:0:0:
402,192,18100,1,8,0:0:0:0:
256,192,18330,1,0,0:0:0:0:
182,192,18561,1,2,0:0:0:0:
475,192,19023,1,8,0:0:0:0:
256,192,19253,1,0,0:0:0:0:
329,192,19369,1,0,0:0:0:0:
402,192,19484,1,2,0:0:0:0:
182,192,19715,1,0,0:0:0:0:
475,192,19946,1,8,0:0:0:0:
329,192,20176,1,0,0:0:0:0:
256,192,20407,1,2,0:0:0:0:
182,192,20869,1,8,0:0:0:0:
36,192,21100,1,0,0:0:0:0:
329,192,21330,1,2,0:0:0:0:
182,192,21561,1,0,0:0:0:0:
475,192,21792,1,8,0:0:0:0:
329,192,22023,1,0,0:0:0:0:
475,192,22253,128,0,24100:0:0:0:0:
36,192,22253,1,2,0:0:0:0:
182,192,22484,1,0,0:0:0:0:
256,192,22715,1,8,0:0:0:0:
109,192,22946,1,2,0:0:0:0:
182,192,23407,1,2,0:0:0:0:
329,192,23638,1,8,0:0:0:0:
182,192,23869,1,0,0:0:0:0:
402,192,24100,128,0,25946:0:0:0:0:
36,192,24100,1,2,0:0:0:0:
256,192,24330,1,0,0:0:0:0:
109,192,24561,1,8,0:0:0:0:
182,192,24792,1,0,0:0:0:0:
36,192,25253,1,2,0:0:0:0:
256,192,25484,1,8,0:0:0:0:
182,192,25715,1,0,0:0:0:0:
329,192,25946,128,0,27792:0:0:0:0:
36,192,25946,1,2,0:0:0:0:
182,192,26176,1,0,0:0:0:0:
402,192,26407,1,8,0:0:0:0:
36,192,26638,1,0,0:0:0:0:
475,192,26869,1,2,0:0:0:0:
182,192,27100,1,2,0:0:0:0:
402,192,27330,1,8,0:0:0:0:
109,192,27561,1,0,0:0:0:0:
182,192,27792,128,2,29638:0:0:0:0:
475,192,27792,1,2,0:0:0:0:
36,192,28023,1,0,0:0:0:0:
329,192,28253,1,8,0:0:0:0:
36,192,28715,1,2,0:0:0:0:
402,192,28946,1,0,0:0:0:0:
329,192,29176,1,8,0:0:0:0:
475,192,29638,1,2,0:0:0:0:
256,192,29638,128,0,30330:0:0:0:0:
402,192,29869,1,2,0:0:0:0:
36,192,30100,1,8,0:0:0:0:
182,192,30330,128,0,31484:0:0:0:0:
475,192,30561,1,2,0:0:0:0:
329,192,30792,1,2,0:0:0:0:
36,192,31023,1,8,0:0:0:0:
329,192,31253,1,0,0:0:0:0:
256,192,31484,5,2,0:0:0:0:
402,192,31715,1,2,0:0:0:0:
109,192,31946,1,8,0:0:0:0:
182,192,32176,128,0,32638:0:0:0:0:
402,192,32407,1,2,0:0:0:0:
329,192,32638,128,0,33100:0:0:0:0:
36,192,32869,1,8,0:0:0:0:
182,192,33100,128,0,33330:0:0:0:0:
109,192,33330,128,0,34023:0:0:0:0:
475,192,33330,1,2,0:0:0:0:
329,192,33561,1,2,0:0:0:0:
402,192,33792,1,8,0:0:0:0:
36,192,34023,128,0,34946:0:0:0:0:
329,192,34253,1,2,0:0:0:0:
475,192,34484,1,2,0:0:0:0:
256,192,34715,1,8,0:0:0:0:
402,192,34946,128,0,36100:0:0:0:0:
109,192,35176,1,2,0:0:0:0:
182,192,35407,1,2,0:0:0:0:
256,192,35638,1,8,0:0:0:0:
109,192,35869,1,0,0:0:0:0:
182,192,36100,1,2,0:0:0:0:
109,192,36330,1,2,0:0:0:0:
329,192,36561,1,8,0:0:0:0:
475,192,36792,1,2,0:0:0:0:
36,192,37023,1,4,0:0:0:0:
182,192,37023,1,2,0:0:0:0:
256,192,37484,1,8,0:0:0:0:
36,192,37715,1,2,0:0:0:0:
36,192,38176,1,2,0:0:0:0:
256,192,38407,1,8,0:0:0:0:
182,192,38638,1,0,0:0:0:0:
109,192,38869,1,2,0:0:0:0:
256,192,38869,1,0,0:0:0:0:
329,192,39330,1,8,0:0:0:0:
109,192,39561,1,2,0:0:0:0:
109,192,40023,1,2,0:0:0:0:
329,192,40253,1,8,0:0:0:0:
256,192,40484,1,0,0:0:0:0:
182,192,40715,1,2,0:0:0:0:
329,192,40715,1,0,0:0:0:0:
402,192,41176,1,8,0:0:0:0:
182,192,41407,1,2,0:0:0:0:
182,192,41869,1,2,0:0:0:0:
402,192,42100,1,8,0:0:0:0:
329,192,42330,1,0,0:0:0:0:
256,192,42561,1,2,0:0:0:0:
402,192,42561,1,0,0:0:0:0:
475,192,43023,1,8,0:0:0:0:
256,192,43253,1,2,0:0:0:0:
256,192,43715,1,2,0:0:0:0:
475,192,43946,1,8,0:0:0:0:
329,192,44061,1,0,0:0:0:0:
36,192,44407,128,0,46253:0:0:0:0:
256,192,44407,1,2,0:0:0:0:
182,192,44869,1,8,0:0:0:0:
402,192,45330,1,2,0:0:0:0:
182,192,45792,1,8,0:0:0:0:
109,192,46253,128,2,48100:0:0:0:0:
329,192,46253,1,0,0:0:0:0:
475,192,46715,1,8,0:0:0:0:
256,192,47176,1,2,0:0:0:0:
402,192,47638,1,8,0:0:0:0:
182,192,48100,1,2,0:0:0:0:
329,192,48100,1,4,0:0:0:0:
182,192,48792,1,2,0:0:0:0:
329,192,48792,1,4,0:0:0:0:
182,192,49484,1,2,0:0:0:0:
329,192,49484,1,4,0:0:0:0:
109,192,49715,1,2,0:0:0:0:
402,192,49715,1,4,0:0:0:0:
182,192,51330,128,0,51792:0:0:0:0:
36,192,51792,1,4,0:0:0:0:
475,192,51792,1,2,0:0:0:0:
256,192,52023,1,2,0:0:0:0:
402,192,52253,1,8,0:0:0:0:
36,192,52715,1,2,0:0:0:0:
329,192,52715,1,0,0:0:0:0:
182,192,52946,1,2,0:0:0:0:
256,192,53176,1,8,0:0:0:0:
402,192,53638,1,2,0:0:0:0:
109,192,53638,1,0,0:0:0:0:
256,192,53869,1,2,0:0:0:0:
329,192,54100,1,8,0:0:0:0:
36,192,54561,1,2,0:0:0:0:
475,192,54561,1,0,0:0:0:0:
182,192,54792,1,2,0:0:0:0:
329,192,55023,1,8,0:0:0:0:
182,192,55253,1,0,0:0:0:0:
475,192,55484,1,2,0:0:0:0:
36,192,55484,1,0,0:0:0:0:
402,192,55715,1,2,0:0:0:0:
256,192,55946,1,8,0:0:0:0:
36,192,56407,1,2,0:0:0:0:
475,192,56407,1,0,0:0:0:0:
109,192,56638,1,2,0:0:0:0:
256,192,56869,1,8,0:0:0:0:
475,192,57330,1,2,0:0:0:0:
36,192,57330,1,0,0:0:0:0:
329,192,57561,1,2,0:0:0:0:
109,192,57792,1,8,0:0:0:0:
182,192,58253,1,2,0:0:0:0:
475,192,58253,1,0,0:0:0:0:
402,192,58484,1,2,0:0:0:0:
109,192,58715,1,8,0:0:0:0:
256,192,58946,1,0,0:0:0:0:
329,192,59176,1,2,0:0:0:0:
36,192,59176,1,0,0:0:0:0:
182,192,59407,1,2,0:0:0:0:
402,192,59638,1,8,0:0:0:0:
182,192,60100,1,2,0:0:0:0:
475,192,60100,1,0,0:0:0:0:
329,192,60330,1,2,0:0:0:0:
109,192,60561,1,8,0:0:0:0:
475,192,61023,1,2,0:0:0:0:
256,192,61023,1,0,0:0:0:0:
109,192,61253,1,2,0:0:0:0:
402,192,61484,1,8,0:0:0:0:
36,192,61946,1,2,0:0:0:0:
256,192,61946,1,0,0:0:0:0:
475,192,62176,1,2,0:0:0:0:
182,192,62407,1,8,0:0:0:0:
329,192,62638,1,0,0:0:0:0:
182,192,62869,1,2,0:0:0:0:
36,192,62869,128,0,63561:0:0:0:0:
256,192,63330,1,0,0:0:0:0:
329,192,63561,1,8,0:0:0:0:
475,192,63561,128,0,64253:0:0:0:0:
256,192,63792,1,0,0:0:0:0:
182,192,64253,1,2,0:0:0:0:
36,192,64253,128,0,64715:0:0:0:0:
402,192,64715,1,2,0:0:0:0:
109,192,65176,1,8,0:0:0:0:
256,192,65638,1,2,0:0:0:0:
329,192,65869,1,0,0:0:0:0:
182,192,66100,1,8,0:0:0:0:
329,192,66330,1,0,0:0:0:0:
475,192,66561,1,2,0:0:0:0:
109,192,66561,1,4,0:0:0:0:
329,192,66792,1,2,0:0:0:0:
182,192,67023,1,8,0:0:0:0:
36,192,67484,1,2,0:0:0:0:
402,192,67484,1,0,0:0:0:0:
182,192,67715,1,2,0:0:0:0:
329,192,67946,1,8,0:0:0:0:
475,192,68407,1,2,0:0:0:0:
36,192,68407,1,0,0:0:0:0:
182,192,68638,1,2,0:0:0:0:
329,192,68869,1,8,0:0:0:0:
109,192,69330,1,2,0:0:0:0:
475,192,69330,1,0,0:0:0:0:
329,192,69561,1,2,0:0:0:0:
256,192,69792,1,8,0:0:0:0:
109,192,70023,1,0,0:0:0:0:
475,192,70253,1,2,0:0:0:0:
329,192,70253,1,0,0:0:0:0:
182,192,70484,1,2,0:0:0:0:
36,192,70715,1,8,0:0:0:0:
182,192,71176,1,2,0:0:0:0:
402,192,71176,1,0,0:0:0:0:
109,192,71407,1,2,0:0:0:0:
329,192,71638,1,8,0:0:0:0:
475,192,72100,1,2,0:0:0:0:
256,192,72100,1,0,0:0:0:0:
182,192,72330,1,2,0:0:0:0:
109,192,72561,1,8,0:0:0:0:
36,192,73023,1,2,0:0:0:0:
475,192,73023,1,0,0:0:0:0:
329,192,73253,1,2,0:0:0:0:
109,192,73484,1,8,0:0:0:0:
256,192,73715,1,0,0:0:0:0:
402,192,73946,1,2,0:0:0:0:
36,192,73946,1,0,0:0:0:0:
182,192,74176,1,2,0:0:0:0:
329,192,74407,1,8,0:0:0:0:
182,192,74869,1,2,0:0:0:0:
475,192,74869,1,0,0:0:0:0:
402,192,75100,1,2,0:0:0:0:
36,192,75330,1,8,0:0:0:0:
475,192,75792,1,2,0:0:0:0:
109,192,75792,1,0,0:0:0:0:
329,192,76023,1,2,0:0:0:0:
182,192,76253,1,8,0:0:0:0:
36,192,76715,1,2,0:0:0:0:
256,192,76715,1,0,0:0:0:0:
402,192,76946,1,2,0:0:0:0:
109,192,77176,1,8,0:0:0:0:
329,192,77407,1,0,0:0:0:0:
109,192,77638,128,0,78330:0:0:0:0:
256,192,77638,1,2,0:0:0:0:
475,192,78100,1,0,0:0:0:0:
402,192,78330,128,0,79023:0:0:0:0:
256,192,78330,1,8,0:0:0:0:
36,192,78561,1,0,0:0:0:0:
256,192,79023,1,2,0:0:0:0:
109,192,79023,128,0,79484:0:0:0:0:
475,192,79484,1,2,0:0:0:0:
36,192,79484,1,0,0:0:0:0:
329,192,79715,1,2,0:0:0:0:
182,192,79946,1,8,0:0:0:0:
329,192,80176,1,0,0:0:0:0:
36,192,80407,1,2,0:0:0:0:
475,192,80407,1,0,0:0:0:0:
109,192,80753,1,2,0:0:0:0:
402,192,80753,1,0,0:0:0:0:
329,192,81100,1,2,0:0:0:0:
182,192,81100,1,0,0:0:0:0:
256,192,81330,128,0,82023:0:0:0:0:
36,192,81330,1,2,0:0:0:0:
109,192,81561,1,2,0:0:0:0:
402,192,81792,1,8,0:0:0:0:
182,192,82023,128,0,83176:0:0:0:0:
329,192,82253,1,2,0:0:0:0:
475,192,82484,1,2,0:0:0:0:
256,192,82715,1,8,0:0:0:0:
402,192,82946,1,0,0:0:0:0:
36,192,83176,1,2,0:0:0:0:
256,192,83407,1,2,0:0:0:0:
402,192,83638,1,8,0:0:0:0:
109,192,83869,128,0,84330:0:0:0:0:
475,192,84100,1,2,0:0:0:0:
329,192,84330,128,0,84792:0:0:0:0:
36,192,84561,1,8,0:0:0:0:
182,192,84792,128,0,85023:0:0:0:0:
36,192,85023,128,0,85715:0:0:0:0:
475,192,85023,1,2,0:0:0:0:
329,192,85253,1,2,0:0:0:0:
402,192,85484,1,8,0:0:0:0:
182,192,85715,128,0,86638:0:0:0:0:
329,192,85946,1,2,0:0:0:0:
475,192,86176,1,2,0:0:0:0:
36,192,86407,1,8,0:0:0:0:
402,192,86638,128,0,87792:0:0:0:0:
109,192,86869,1,2,0:0:0:0:
256,192,87100,1,2,0:0:0:0:
182,192,87330,1,8,0:0:0:0:
329,192,87561,1,0,0:0:0:0:
36,192,87792,1,2,0:0:0:0:
256,192,88023,1,2,0:0:0:0:
475,192,88253,1,8,0:0:0:0:
36,192,88253,1,0,0:0:0:0:
402,192,88484,1,2,0:0:0:0:
109,192,88484,1,0,0:0:0:0:
