osu file format v14

[General]
AudioFilename: Kawada Mami - PSI-Missing.mp3
AudioLeadIn: 0
PreviewTime: 51678
Countdown: 0
SampleSet: Soft
StackLeniency: 0.7
Mode: 3
LetterboxInBreaks: 0
SpecialStyle: 0
WidescreenStoryboard: 0

[Editor]
Bookmarks: 31139
DistanceSpacing: 0.8
BeatDivisor: 4
GridSize: 8
TimelineZoom: 1.3

[Metadata]
Title:PSI-missing(TV Size)
TitleUnicode:PSI-missing(TVサイズ)
Artist:Mami Kawada
ArtistUnicode:川田まみ
Creator:Takane6
Version:IN-dex
Source:とある魔術の禁書目録
Tags:Toaru Majutsu no Index Eternalie Shinzo- opening Kinsho Mokuroku
BeatmapID:695196
BeatmapSetID:311202

[Difficulty]
HPDrainRate:8
CircleSize:7
OverallDifficulty:7
ApproachRate:5
SliderMultiplier:1.4
SliderTickRate:1

[Events]
//Background and Video events
0,0,"bg.jpg",0,0
Video,0,"video.avi"
//Break Periods
//Storyboard Layer 0 (Background)
//Storyboard Layer 1 (Fail)
//Storyboard Layer 2 (Pass)
//Storyboard Layer 3 (Foreground)
//Storyboard Sound Samples

[TimingPoints]
100,461.538461538462,4,2,1,30,1,0
14866,-100,4,2,2,30,0,0
48099,-50,4,2,2,30,0,0
48215,-149.253731343284,4,2,2,30,0,0
48561,-100,4,2,2,30,0,0
48792,-50,4,2,2,30,0,0
48907,-149.253731343284,4,2,2,30,0,0
49253,-62.5,4,2,2,30,0,0
49369,-250,4,2,2,30,0,0
49484,-62.5,4,2,2,30,0,0
49600,-250,4,2,2,30,0,0
49715,-62.5,4,2,2,30,0,0
49830,-250,4,2,2,30,0,0
49946,-166.666666666667,4,2,2,30,0,0
51330,-100,4,2,2,30,0,0
51792,-100,4,2,1,30,0,1
81330,-100,4,2,1,30,0,0

[HitObjects]
36,192,100,5,0,0:0:0:0:
256,192,100,1,2,0:0:0:0:
402,192,100,1,2,0:0:0:0:
329,192,330,1,2,0:0:0:0:
475,192,330,1,2,0:0:0:0:
109,192,446,1,0,0:0:0:0:
256,192,561,1,2,0:0:0:0:
402,192,561,1,8,0:0:0:0:
109,192,792,1,0,0:0:0:0:
256,192,907,1,2,0:0:0:0:
402,192,907,1,2,0:0:0:0:
36,192,1023,1,0,0:0:0:0:
329,192,1023,1,2,0:0:0:0:
475,192,1023,1,2,0:0:0:0:
329,192,1253,1,2,0:0:0:0:
475,192,1253,1,2,0:0:0:0:
109,192,1369,1,0,0:0:0:0:
256,192,1484,1,8,0:0:0:0:
402,192,1484,1,8,0:0:0:0:
329,192,1600,1,2,0:0:0:0:
475,192,1600,1,2,0:0:0:0:
109,192,1715,1,0,0:0:0:0:
182,192,1830,1,0,0:0:0:0:
36,192,1946,1,0,0:0:0:0:
256,192,1946,1,2,0:0:0:0:
475,192,1946,1,2,0:0:0:0:
256,192,2176,1,2,0:0:0:0:
475,192,2176,1,2,0:0:0:0:
109,192,2292,1,0,0:0:0:0:
329,192,2407,1,8,0:0:0:0:
402,192,2407,1,8,0:0:0:0:
256,192,2523,1,0,0:0:0:0:
109,192,2638,1,0,0:0:0:0:
329,192,2753,1,2,0:0:0:0:
402,192,2753,1,2,0:0:0:0:
36,192,2869,1,0,0:0:0:0:
256,192,2869,1,2,0:0:0:0:
475,192,2869,1,2,0:0:0:0:
182,192,2984,1,0,0:0:0:0:
256,192,3100,1,2,0:0:0:0:
475,192,3100,1,2,0:0:0:0:
36,192,3100,1,0,0:0:0:0:
109,192,3215,1,0,0:0:0:0:
329,192,3330,1,8,0:0:0:0:
402,192,3330,1,8,0:0:0:0:
182,192,3330,1,0,0:0:0:0:
109,192,3561,1,0,0:0:0:0:
36,192,3792,1,0,0:0:0:0:
182,192,3792,1,2,0:0:0:0:
329,192,3792,128,0,3907:0:0:0:40:LR_HiHat Click.wav
475,192,3907,128,0,4023:0:0:0:40:LR_HiHat Click.wav
329,192,4023,128,0,4138:0:0:0:40:LR_HiHat Click.wav
182,192,4023,1,2,0:0:0:0:
109,192,4138,1,0,0:0:0:0:
475,192,4138,128,0,4253:0:0:0:40:LR_HiHat Click.wav
182,192,4253,1,0,0:0:0:0:
256,192,4253,128,0,4369:0:0:0:40:LR_HiHat Click.wav
36,192,4253,1,8,0:0:0:0:
402,192,4369,128,0,4484:0:0:0:40:LR_HiHat Click.wav
109,192,4484,1,0,0:0:0:0:
256,192,4484,128,0,4600:0:0:0:40:LR_HiHat Click.wav
402,192,4600,128,0,4715:0:0:0:40:LR_HiHat Click.wav
182,192,4600,1,0,0:0:0:0:
475,192,4715,1,0,0:0:0:0:
329,192,4715,1,2,0:0:0:0:
36,192,4715,128,0,4830:0:0:0:40:LR_HiHat Click.wav
182,192,4830,128,0,4946:0:0:0:40:LR_HiHat Click.wav
36,192,4946,128,0,5061:0:0:0:40:LR_HiHat Click.wav
329,192,4946,1,2,0:0:0:0:
402,192,5061,1,0,0:0:0:0:
182,192,5061,128,0,5176:0:0:0:40:LR_HiHat Click.wav
329,192,5176,1,0,0:0:0:0:
109,192,5176,128,0,5292:0:0:0:40:LR_HiHat Click.wav
475,192,5176,1,8,0:0:0:0:
256,192,5292,128,0,5407:0:0:0:40:LR_HiHat Click.wav
402,192,5407,1,0,0:0:0:0:
109,192,5407,128,0,5523:0:0:0:40:LR_HiHat Click.wav
256,192,5523,128,0,5638:0:0:0:40:LR_HiHat Click.wav
329,192,5523,1,0,0:0:0:0:
475,192,5638,1,2,0:0:0:0:
36,192,5638,1,2,0:0:0:0:
109,192,5869,1,2,0:0:0:0:
402,192,5869,1,2,0:0:0:0:
182,192,5984,1,2,0:0:0:0:
329,192,5984,1,2,0:0:0:0:
36,192,6100,1,0,0:0:0:0:
256,192,6100,1,8,0:0:0:0:
475,192,6100,1,8,0:0:0:0:
182,192,6330,1,0,0:0:0:0:
109,192,6446,1,2,0:0:0:0:
329,192,6446,1,2,0:0:0:0:
402,192,6561,1,0,0:0:0:0:
256,192,6676,1,8,0:0:0:0:
475,192,6676,1,8,0:0:0:0:
36,192,6676,1,0,0:0:0:0:
109,192,6792,1,2,0:0:0:0:
329,192,6792,1,2,0:0:0:0:
182,192,6907,1,0,0:0:0:0:
256,192,7023,1,0,0:0:0:0:
475,192,7023,128,0,7138:0:0:0:40:LR_HiHat Click.wav
36,192,7023,1,0,0:0:0:0:
402,192,7138,1,0,0:0:0:0:
182,192,7138,128,0,7253:0:0:0:40:LR_HiHat Click.wav
109,192,7253,1,0,0:0:0:0:
329,192,7253,128,0,7369:0:0:0:40:LR_HiHat Click.wav
256,192,7369,1,0,0:0:0:0:
36,192,7369,128,0,7484:0:0:0:40:LR_HiHat Click.wav
182,192,7484,1,2,0:0:0:0:
402,192,7484,1,2,0:0:0:0:
475,192,7484,128,0,8176:0:0:0:0:
256,192,7600,1,0,0:0:0:0:
109,192,7715,1,2,0:0:0:0:
329,192,7715,1,2,0:0:0:0:
182,192,7830,1,0,0:0:0:0:
256,192,7946,1,8,0:0:0:0:
402,192,7946,1,8,0:0:0:0:
36,192,7946,1,0,0:0:0:0:
109,192,8061,1,0,0:0:0:0:
329,192,8176,128,0,9330:0:0:0:0:
36,192,8176,1,2,0:0:0:0:
256,192,8292,1,0,0:0:0:0:
182,192,8407,1,2,0:0:0:0:
475,192,8407,1,2,0:0:0:0:
402,192,8523,1,0,0:0:0:0:
256,192,8638,1,2,0:0:0:0:
182,192,8638,1,2,0:0:0:0:
36,192,8753,1,0,0:0:0:0:
109,192,8869,1,0,0:0:0:0:
256,192,8869,1,8,0:0:0:0:
402,192,8869,1,8,0:0:0:0:
475,192,8984,1,0,0:0:0:0:
182,192,9100,1,2,0:0:0:0:
402,192,9100,1,2,0:0:0:0:
109,192,9215,1,0,0:0:0:0:
36,192,9330,1,2,0:0:0:0:
475,192,9330,1,2,0:0:0:0:
256,192,9446,1,0,0:0:0:0:
402,192,9561,1,2,0:0:0:0:
109,192,9561,1,2,0:0:0:0:
182,192,9676,1,0,0:0:0:0:
36,192,9792,1,0,0:0:0:0:
329,192,9792,1,8,0:0:0:0:
475,192,9792,1,8,0:0:0:0:
256,192,9907,1,0,0:0:0:0:
475,192,10023,128,0,10138:0:0:0:40:LR_HiHat Click.wav
109,192,10023,1,0,0:0:0:0:
182,192,10023,1,2,0:0:0:0:
329,192,10138,128,0,10253:0:0:0:40:LR_HiHat Click.wav
402,192,10253,128,2,10369:0:0:0:0:
36,192,10253,1,2,0:0:0:0:
256,192,10369,128,2,10484:0:0:0:0:
109,192,10484,128,2,10600:0:0:0:0:
329,192,10484,1,2,0:0:0:0:
402,192,10484,1,0,0:0:0:0:
36,192,10600,128,2,10715:0:0:0:0:
182,192,10715,128,2,10830:0:0:0:0:
475,192,10715,1,8,0:0:0:0:
329,192,10715,1,8,0:0:0:0:
109,192,10830,128,2,10946:0:0:0:0:
256,192,10946,128,2,11061:0:0:0:0:
36,192,10946,1,2,0:0:0:0:
475,192,10946,1,0,0:0:0:0:
182,192,11061,128,2,11176:0:0:0:0:
109,192,11176,128,0,11869:0:0:0:0:
36,192,11176,1,2,0:0:0:0:
329,192,11176,1,2,0:0:0:0:
256,192,11292,1,0,0:0:0:0:
182,192,11407,1,2,0:0:0:0:
402,192,11407,1,2,0:0:0:0:
329,192,11523,1,0,0:0:0:0:
256,192,11638,1,8,0:0:0:0:
36,192,11638,1,0,0:0:0:0:
475,192,11638,1,8,0:0:0:0:
182,192,11753,1,0,0:0:0:0:
256,192,11869,128,2,12792:0:0:0:0:
402,192,11869,1,2,0:0:0:0:
329,192,11984,1,0,0:0:0:0:
36,192,12100,1,2,0:0:0:0:
182,192,12100,1,2,0:0:0:0:
475,192,12215,1,0,0:0:0:0:
402,192,12330,1,2,0:0:0:0:
109,192,12330,1,2,0:0:0:0:
182,192,12446,1,0,0:0:0:0:
36,192,12561,1,0,0:0:0:0:
402,192,12561,1,8,0:0:0:0:
475,192,12561,1,8,0:0:0:0:
109,192,12676,1,0,0:0:0:0:
329,192,12676,1,0,0:0:0:0:
402,192,12792,128,2,13946:0:0:0:0:
182,192,12792,1,2,0:0:0:0:
109,192,12907,1,0,0:0:0:0:
36,192,13023,1,2,0:0:0:0:
256,192,13023,1,2,0:0:0:0:
182,192,13138,1,0,0:0:0:0:
329,192,13253,1,2,0:0:0:0:
109,192,13253,1,2,0:0:0:0:
256,192,13369,1,0,0:0:0:0:
329,192,13484,1,8,0:0:0:0:
36,192,13484,1,0,0:0:0:0:
475,192,13484,1,8,0:0:0:0:
109,192,13600,1,0,0:0:0:0:
182,192,13715,1,2,0:0:0:0:
329,192,13715,1,2,0:0:0:0:
256,192,13830,1,0,0:0:0:0:
475,192,13946,1,2,0:0:0:0:
109,192,13946,128,2,14061:0:0:0:0:
182,192,13946,1,0,0:0:0:0:
36,192,14061,128,2,14176:0:0:0:0:
329,192,14061,1,2,0:0:0:0:
182,192,14176,128,2,14292:0:0:0:0:
475,192,14176,1,2,0:0:0:0:
109,192,14292,128,2,14407:0:0:0:0:
329,192,14292,1,2,0:0:0:0:
402,192,14407,128,2,14523:0:0:0:0:
36,192,14407,1,8,0:0:0:0:
256,192,14407,1,8,0:0:0:0:
182,192,14523,1,2,0:0:0:0:
475,192,14523,128,2,14638:0:0:0:0:
329,192,14638,128,2,14753:0:0:0:0:
36,192,14638,1,2,0:0:0:0:
402,192,14753,128,2,14869:0:0:0:0:
182,192,14753,1,2,0:0:0:0:
36,192,14869,1,0,0:0:0:0:
109,192,14869,1,4,0:0:0:0:
475,192,14869,1,2,0:0:0:0:
475,192,15100,1,2,0:0:0:0:
182,192,15100,1,2,0:0:0:0:
475,192,15330,1,8,0:0:0:0:
182,192,15330,1,8,0:0:0:0:
182,192,15561,1,2,0:0:0:0:
329,192,15561,1,2,0:0:0:0:
36,192,15676,1,0,0:0:0:0:
329,192,15792,1,2,0:0:0:0:
475,192,15792,1,2,0:0:0:0:
182,192,15907,1,0,0:0:0:0:
475,192,16023,1,0,0:0:0:0:
329,192,16138,1,0,0:0:0:0:
36,192,16253,1,8,0:0:0:0:
182,192,16253,1,8,0:0:0:0:
36,192,16484,1,2,0:0:0:0:
256,192,16484,1,2,0:0:0:0:
36,192,16715,1,2,0:0:0:0:
329,192,16715,1,2,0:0:0:0:
256,192,16830,1,0,0:0:0:0:
182,192,16946,1,2,0:0:0:0:
475,192,16946,1,2,0:0:0:0:
109,192,17061,1,0,0:0:0:0:
329,192,17176,1,8,0:0:0:0:
36,192,17176,1,8,0:0:0:0:
182,192,17407,1,2,0:0:0:0:
402,192,17407,1,2,0:0:0:0:
109,192,17523,1,0,0:0:0:0:
256,192,17638,1,2,0:0:0:0:
475,192,17638,1,2,0:0:0:0:
182,192,17753,1,2,0:0:0:0:
402,192,17753,1,2,0:0:0:0:
329,192,17869,1,0,0:0:0:0:
256,192,17984,1,2,0:0:0:0:
36,192,17984,1,2,0:0:0:0:
109,192,18100,1,8,0:0:0:0:
329,192,18100,1,10,0:0:0:0:
182,192,18330,1,2,0:0:0:0:
402,192,18330,1,2,0:0:0:0:
109,192,18561,1,2,0:0:0:0:
475,192,18561,1,2,0:0:0:0:
256,192,18792,1,2,0:0:0:0:
36,192,18792,1,0,0:0:0:0:
182,192,19023,1,8,0:0:0:0:
402,192,19023,1,0,0:0:0:0:
109,192,19253,1,0,0:0:0:0:
182,192,19369,1,0,0:0:0:0:
256,192,19484,1,2,0:0:0:0:
402,192,19484,1,2,0:0:0:0:
475,192,19600,1,2,0:0:0:0:
36,192,19600,1,2,0:0:0:0:
329,192,19715,1,0,0:0:0:0:
109,192,19830,1,2,0:0:0:0:
256,192,19830,1,2,0:0:0:0:
36,192,19946,1,8,0:0:0:0:
402,192,19946,1,8,0:0:0:0:
182,192,20176,1,2,0:0:0:0:
329,192,20176,1,2,0:0:0:0:
109,192,20407,1,2,0:0:0:0:
402,192,20407,1,2,0:0:0:0:
182,192,20638,1,2,0:0:0:0:
256,192,20753,1,2,0:0:0:0:
109,192,20869,1,8,0:0:0:0:
402,192,20869,1,8,0:0:0:0:
256,192,21100,1,2,0:0:0:0:
475,192,21100,1,2,0:0:0:0:
182,192,21215,1,0,0:0:0:0:
109,192,21330,1,2,0:0:0:0:
402,192,21330,1,2,0:0:0:0:
182,192,21446,1,2,0:0:0:0:
329,192,21446,1,2,0:0:0:0:
256,192,21561,1,0,0:0:0:0:
36,192,21676,1,2,0:0:0:0:
475,192,21676,1,2,0:0:0:0:
109,192,21792,1,8,0:0:0:0:
402,192,21792,1,10,0:0:0:0:
182,192,22023,1,2,0:0:0:0:
329,192,22023,1,2,0:0:0:0:
402,192,22138,1,0,0:0:0:0:
256,192,22253,128,0,24100:0:0:0:0:
475,192,22253,1,2,0:0:0:0:
109,192,22253,1,0,0:0:0:0:
475,192,22484,1,2,0:0:0:0:
182,192,22484,1,0,0:0:0:0:
329,192,22715,1,8,0:0:0:0:
36,192,22715,1,2,0:0:0:0:
109,192,22946,1,0,0:0:0:0:
182,192,23061,1,0,0:0:0:0:
36,192,23176,1,2,0:0:0:0:
329,192,23176,1,0,0:0:0:0:
475,192,23292,1,0,0:0:0:0:
182,192,23292,1,2,0:0:0:0:
402,192,23407,1,0,0:0:0:0:
329,192,23523,1,0,0:0:0:0:
36,192,23638,1,2,0:0:0:0:
182,192,23638,1,8,0:0:0:0:
475,192,23753,1,0,0:0:0:0:
402,192,23869,1,0,0:0:0:0:
329,192,23984,1,0,0:0:0:0:
36,192,24100,1,0,0:0:0:0:
182,192,24100,1,2,0:0:0:0:
475,192,24100,128,0,25946:0:0:0:0:
402,192,24215,1,0,0:0:0:0:
109,192,24330,1,0,0:0:0:0:
329,192,24330,1,2,0:0:0:0:
256,192,24446,1,0,0:0:0:0:
182,192,24561,1,8,0:0:0:0:
402,192,24561,1,0,0:0:0:0:
256,192,24792,1,0,0:0:0:0:
109,192,24907,1,0,0:0:0:0:
182,192,25023,1,2,0:0:0:0:
402,192,25023,1,0,0:0:0:0:
329,192,25138,1,0,0:0:0:0:
36,192,25138,1,2,0:0:0:0:
182,192,25253,1,2,0:0:0:0:
402,192,25253,1,0,0:0:0:0:
109,192,25369,1,2,0:0:0:0:
256,192,25369,1,0,0:0:0:0:
36,192,25484,1,2,0:0:0:0:
329,192,25484,1,8,0:0:0:0:
256,192,25715,1,0,0:0:0:0:
109,192,25715,1,2,0:0:0:0:
182,192,25830,1,0,0:0:0:0:
109,192,25946,128,0,27792:0:0:0:0:
402,192,25946,1,2,0:0:0:0:
256,192,26061,1,0,0:0:0:0:
329,192,26176,1,2,0:0:0:0:
36,192,26176,1,0,0:0:0:0:
402,192,26292,1,0,0:0:0:0:
256,192,26407,1,8,0:0:0:0:
475,192,26407,1,0,0:0:0:0:
182,192,26638,1,0,0:0:0:0:
256,192,26753,1,0,0:0:0:0:
36,192,26869,1,0,0:0:0:0:
475,192,26869,1,2,0:0:0:0:
182,192,26984,1,0,0:0:0:0:
329,192,26984,1,2,0:0:0:0:
402,192,27100,1,0,0:0:0:0:
182,192,27215,1,0,0:0:0:0:
329,192,27215,1,2,0:0:0:0:
36,192,27330,1,0,0:0:0:0:
475,192,27330,1,8,0:0:0:0:
182,192,27446,1,0,0:0:0:0:
329,192,27561,1,0,0:0:0:0:
182,192,27676,1,0,0:0:0:0:
36,192,27792,128,0,29638:0:0:0:0:
402,192,27792,1,2,0:0:0:0:
475,192,27792,1,0,0:0:0:0:
256,192,27907,1,0,0:0:0:0:
329,192,27907,1,2,0:0:0:0:
182,192,28023,1,0,0:0:0:0:
109,192,28023,1,0,0:0:0:0:
329,192,28138,1,2,0:0:0:0:
402,192,28138,1,0,0:0:0:0:
182,192,28253,1,0,0:0:0:0:
256,192,28253,1,2,0:0:0:0:
109,192,28369,1,0,0:0:0:0:
182,192,28484,1,0,0:0:0:40:LR_HiHat Click.wav
256,192,28600,1,0,0:0:0:40:LR_HiHat Click.wav
329,192,28715,1,2,0:0:0:0:
402,192,28715,1,0,0:0:0:0:
475,192,28830,1,0,0:0:0:0:
329,192,28946,1,0,0:0:0:0:
109,192,28946,1,2,0:0:0:0:
182,192,29061,1,0,0:0:0:0:
256,192,29176,128,0,29638:0:0:0:0:
329,192,29176,1,8,0:0:0:0:
475,192,29176,1,0,0:0:0:0:
182,192,29292,1,0,0:0:0:0:
402,192,29407,1,0,0:0:0:0:
109,192,29523,1,0,0:0:0:0:
475,192,29638,128,0,30330:0:0:0:0:
329,192,29638,1,2,0:0:0:0:
182,192,29638,1,2,0:0:0:0:
402,192,29753,1,0,0:0:0:0:
329,192,29869,1,2,0:0:0:0:
109,192,29869,1,2,0:0:0:0:
256,192,29984,1,0,0:0:0:0:
182,192,30100,1,8,0:0:0:0:
402,192,30100,1,8,0:0:0:0:
36,192,30100,1,8,0:0:0:0:
329,192,30215,1,0,0:0:0:0:
256,192,30330,128,2,32176:0:0:0:0:
109,192,30330,1,2,0:0:0:0:
402,192,30446,1,0,0:0:0:0:
182,192,30561,1,2,0:0:0:0:
329,192,30561,1,2,0:0:0:0:
36,192,30676,1,0,0:0:0:0:
109,192,30792,1,2,0:0:0:0:
475,192,30792,1,2,0:0:0:0:
402,192,30907,1,0,0:0:0:0:
329,192,31023,1,8,0:0:0:0:
36,192,31023,1,0,0:0:0:0:
182,192,31023,1,8,0:0:0:0:
475,192,31138,1,0,0:0:0:0:
109,192,31253,1,2,0:0:0:0:
402,192,31253,1,2,0:0:0:0:
329,192,31369,1,0,0:0:0:0:
36,192,31484,1,2,0:0:0:0:
402,192,31484,1,2,0:0:0:0:
182,192,31600,1,0,0:0:0:0:
109,192,31715,1,2,0:0:0:0:
475,192,31715,1,2,0:0:0:0:
402,192,31830,1,0,0:0:0:0:
329,192,31946,1,8,0:0:0:0:
36,192,31946,1,8,0:0:0:0:
182,192,31946,1,0,0:0:0:0:
402,192,32061,1,0,0:0:0:0:
109,192,32176,1,2,0:0:0:0:
475,192,32176,128,2,32292:0:0:0:0:
182,192,32176,1,0,0:0:0:0:
329,192,32292,128,2,32407:0:0:0:0:
402,192,32407,128,2,32523:0:0:0:0:
36,192,32407,1,2,0:0:0:0:
256,192,32523,128,2,32638:0:0:0:0:
329,192,32638,128,2,32753:0:0:0:0:
109,192,32638,1,2,0:0:0:0:
402,192,32638,1,0,0:0:0:0:
182,192,32753,128,2,32869:0:0:0:0:
256,192,32869,128,2,32984:0:0:0:0:
36,192,32869,1,8,0:0:0:0:
475,192,32869,1,8,0:0:0:0:
109,192,32984,128,2,33100:0:0:0:0:
182,192,33100,128,2,33215:0:0:0:0:
402,192,33100,1,2,0:0:0:0:
256,192,33100,1,0,0:0:0:0:
36,192,33215,128,2,33330:0:0:0:0:
109,192,33330,128,0,34023:0:0:0:0:
329,192,33330,1,2,0:0:0:0:
475,192,33330,1,2,0:0:0:0:
182,192,33446,1,0,0:0:0:0:
256,192,33561,1,2,0:0:0:0:
402,192,33561,1,2,0:0:0:0:
329,192,33676,1,0,0:0:0:0:
36,192,33792,1,0,0:0:0:0:
256,192,33792,1,8,0:0:0:0:
475,192,33792,1,8,0:0:0:0:
402,192,33907,1,0,0:0:0:0:
182,192,34023,128,2,34946:0:0:0:0:
329,192,34023,1,2,0:0:0:0:
475,192,34138,1,0,0:0:0:0:
402,192,34253,1,2,0:0:0:0:
36,192,34253,1,2,0:0:0:0:
256,192,34369,1,0,0:0:0:0:
109,192,34484,1,2,0:0:0:0:
475,192,34484,1,2,0:0:0:0:
329,192,34600,1,0,0:0:0:0:
36,192,34715,1,0,0:0:0:0:
256,192,34715,1,8,0:0:0:0:
402,192,34715,1,8,0:0:0:0:
109,192,34830,1,0,0:0:0:0:
475,192,34946,128,2,36100:0:0:0:0:
329,192,34946,1,2,0:0:0:0:
256,192,35061,1,0,0:0:0:0:
36,192,35176,1,2,0:0:0:0:
182,192,35176,1,2,0:0:0:0:
402,192,35292,1,0,0:0:0:0:
256,192,35407,1,2,0:0:0:0:
109,192,35407,1,2,0:0:0:0:
329,192,35523,1,0,0:0:0:0:
182,192,35638,1,8,0:0:0:0:
36,192,35638,1,0,0:0:0:0:
402,192,35638,1,8,0:0:0:0:
109,192,35753,1,0,0:0:0:0:
256,192,35869,1,2,0:0:0:0:
329,192,35869,1,2,0:0:0:0:
36,192,35984,1,0,0:0:0:0:
402,192,36100,1,2,0:0:0:0:
109,192,36100,128,2,36215:0:0:0:0:
475,192,36215,1,2,0:0:0:0:
182,192,36215,128,2,36330:0:0:0:0:
402,192,36330,1,0,0:0:0:0:
109,192,36330,128,2,36446:0:0:0:0:
475,192,36446,1,2,0:0:0:0:
182,192,36446,128,2,36561:0:0:0:0:
256,192,36561,1,10,0:0:0:0:
402,192,36561,128,8,36676:0:0:0:0:
36,192,36561,1,2,0:0:0:0:
329,192,36676,128,2,36792:0:0:0:0:
109,192,36676,1,0,0:0:0:0:
36,192,36792,1,0,0:0:0:0:
402,192,36792,128,2,36907:0:0:0:0:
109,192,36907,1,2,0:0:0:0:
329,192,36907,128,2,37023:0:0:0:0:
475,192,37023,1,2,0:0:0:0:
36,192,37023,1,0,0:0:0:0:
256,192,37023,128,2,37715:0:0:0:0:
182,192,37253,1,2,0:0:0:0:
402,192,37253,1,2,0:0:0:0:
36,192,37484,1,0,0:0:0:0:
329,192,37484,1,8,0:0:0:0:
475,192,37484,1,8,0:0:0:0:
182,192,37715,128,0,38407:0:0:0:0:
402,192,37715,1,2,0:0:0:0:
109,192,37715,1,2,0:0:0:0:
329,192,37830,1,0,0:0:0:0:
475,192,37946,1,0,0:0:0:0:
402,192,38061,1,0,0:0:0:0:
329,192,38176,1,2,0:0:0:0:
109,192,38176,1,2,0:0:0:0:
256,192,38407,128,0,38869:0:0:0:0:
36,192,38407,1,0,0:0:0:0:
402,192,38407,1,8,0:0:0:0:
475,192,38407,1,8,0:0:0:0:
109,192,38523,1,0,0:0:0:0:
36,192,38638,1,2,0:0:0:0:
329,192,38638,1,2,0:0:0:0:
109,192,38753,1,2,0:0:0:0:
402,192,38753,1,2,0:0:0:0:
182,192,38869,128,2,39561:0:0:0:0:
475,192,38869,1,2,0:0:0:0:
36,192,39100,1,2,0:0:0:0:
402,192,39100,1,2,0:0:0:0:
109,192,39330,1,8,0:0:0:0:
329,192,39330,1,8,0:0:0:0:
475,192,39330,1,0,0:0:0:0:
256,192,39561,128,0,40253:0:0:0:0:
36,192,39561,1,2,0:0:0:0:
402,192,39561,1,2,0:0:0:0:
475,192,39676,1,0,0:0:0:0:
109,192,39792,1,0,0:0:0:0:
36,192,39907,1,0,0:0:0:0:
182,192,40023,1,2,0:0:0:0:
475,192,40023,1,2,0:0:0:0:
329,192,40253,128,0,40715:0:0:0:0:
36,192,40253,1,8,0:0:0:0:
109,192,40253,1,8,0:0:0:0:
402,192,40253,1,0,0:0:0:0:
475,192,40369,1,2,0:0:0:0:
182,192,40369,1,2,0:0:0:0:
256,192,40484,1,0,0:0:0:0:
109,192,40600,1,0,0:0:0:0:
182,192,40715,128,0,41407:0:0:0:0:
402,192,40715,1,2,0:0:0:0:
475,192,40715,1,2,0:0:0:0:
109,192,40946,1,2,0:0:0:0:
256,192,40946,1,2,0:0:0:0:
36,192,41176,1,0,0:0:0:0:
329,192,41176,1,8,0:0:0:0:
475,192,41176,1,8,0:0:0:0:
109,192,41407,128,0,42100:0:0:0:0:
402,192,41407,1,2,0:0:0:0:
256,192,41407,1,2,0:0:0:0:
329,192,41523,1,0,0:0:0:0:
182,192,41638,1,0,0:0:0:0:
475,192,41753,1,0,0:0:0:0:
256,192,41869,1,2,0:0:0:0:
402,192,41869,1,2,0:0:0:0:
329,192,41984,1,0,0:0:0:0:
402,192,42100,128,0,42330:0:0:0:0:
182,192,42100,1,8,0:0:0:0:
36,192,42100,1,8,0:0:0:0:
475,192,42100,1,0,0:0:0:0:
329,192,42330,128,0,42561:0:0:0:0:
36,192,42330,1,2,0:0:0:0:
182,192,42330,1,2,0:0:0:0:
109,192,42446,1,0,0:0:0:0:
256,192,42561,128,0,42792:0:0:0:0:
36,192,42561,1,2,0:0:0:0:
402,192,42561,1,2,0:0:0:0:
182,192,42792,128,0,43023:0:0:0:0:
475,192,42792,1,2,0:0:0:0:
329,192,42792,1,2,0:0:0:0:
109,192,43023,128,0,43253:0:0:0:0:
256,192,43023,1,8,0:0:0:0:
402,192,43023,1,8,0:0:0:0:
36,192,43253,128,0,43946:0:0:0:0:
182,192,43253,1,2,0:0:0:0:
329,192,43253,1,2,0:0:0:0:
402,192,43369,1,0,0:0:0:0:
256,192,43484,1,0,0:0:0:0:
329,192,43600,1,0,0:0:0:0:
182,192,43715,1,2,0:0:0:0:
402,192,43715,1,2,0:0:0:0:
475,192,43830,1,0,0:0:0:0:
109,192,43946,1,0,0:0:0:0:
402,192,43946,1,8,0:0:0:0:
256,192,43946,1,8,0:0:0:0:
182,192,44061,128,2,44407:0:0:0:0:
329,192,44061,1,2,0:0:0:0:
329,192,44407,128,0,46253:0:0:0:0:
36,192,44407,1,2,0:0:0:0:
256,192,44407,1,2,0:0:0:0:
109,192,44638,1,2,0:0:0:0:
402,192,44638,1,2,0:0:0:0:
182,192,44869,1,8,0:0:0:0:
475,192,44869,1,8,0:0:0:0:
36,192,44869,1,0,0:0:0:0:
256,192,45100,1,0,0:0:0:0:
182,192,45215,1,0,0:0:0:0:
109,192,45330,1,2,0:0:0:0:
402,192,45330,1,2,0:0:0:0:
256,192,45446,1,0,0:0:0:0:
182,192,45561,1,0,0:0:0:0:
109,192,45676,1,0,0:0:0:0:
36,192,45792,1,0,0:0:0:0:
256,192,45792,1,8,0:0:0:0:
475,192,45792,1,8,0:0:0:0:
109,192,46023,1,0,0:0:0:0:
182,192,46138,1,0,0:0:0:0:
475,192,46253,128,0,48100:0:0:0:0:
256,192,46253,1,2,0:0:0:0:
36,192,46253,1,2,0:0:0:0:
109,192,46484,1,2,0:0:0:0:
329,192,46484,1,2,0:0:0:0:
182,192,46715,1,8,0:0:0:0:
256,192,46715,1,8,0:0:0:0:
402,192,46715,1,0,0:0:0:0:
329,192,46946,1,0,0:0:0:0:
182,192,47061,1,0,0:0:0:0:
256,192,47176,1,2,0:0:0:0:
36,192,47176,1,2,0:0:0:0:
329,192,47292,1,0,0:0:0:0:
182,192,47407,1,0,0:0:0:0:
36,192,47523,1,0,0:0:0:0:
402,192,47638,1,8,0:0:0:0:
109,192,47638,1,0,0:0:0:0:
256,192,47638,1,8,0:0:0:0:
402,192,47869,1,2,0:0:0:0:
329,192,47869,1,2,0:0:0:0:
256,192,48100,5,4,0:0:0:0:
182,192,48100,1,8,0:0:0:0:
109,192,48100,1,8,0:0:0:0:
36,192,48100,1,2,0:0:0:0:
402,192,48561,1,0,0:0:0:0:
329,192,48792,1,4,0:0:0:0:
256,192,48792,1,8,0:0:0:0:
182,192,48792,1,8,0:0:0:0:
109,192,48792,1,2,0:0:0:0:
36,192,49253,1,0,0:0:0:0:
402,192,49484,1,4,0:0:0:0:
329,192,49484,1,8,0:0:0:0:
256,192,49484,1,8,0:0:0:0:
182,192,49484,1,2,0:0:0:0:
256,192,49715,1,2,0:0:0:0:
329,192,49715,1,8,0:0:0:0:
402,192,49715,1,8,0:0:0:0:
475,192,49715,1,4,0:0:0:0:
256,192,49946,128,0,51330:0:0:0:0:
475,192,51330,5,2,0:0:0:0:
36,192,51330,1,2,0:0:0:0:
329,192,51446,1,2,0:0:0:0:
182,192,51446,1,2,0:0:0:0:
475,192,51561,1,2,0:0:0:0:
36,192,51561,1,2,0:0:0:0:
329,192,51676,1,2,0:0:0:0:
182,192,51676,1,2,0:0:0:0:
475,192,51792,128,4,52715:0:0:0:0:
36,192,51792,1,2,0:0:0:0:
402,192,51792,1,2,0:0:0:0:
182,192,51907,1,0,0:0:0:0:
256,192,52023,1,2,0:0:0:0:
109,192,52023,1,2,0:0:0:0:
329,192,52138,1,0,0:0:0:0:
36,192,52253,1,0,0:0:0:0:
182,192,52253,1,8,0:0:0:0:
402,192,52253,1,8,0:0:0:0:
329,192,52369,1,0,0:0:0:0:
36,192,52484,1,2,0:0:0:0:
256,192,52484,1,2,0:0:0:0:
109,192,52600,1,0,0:0:0:0:
329,192,52715,128,0,53638:0:0:0:0:
182,192,52715,1,2,0:0:0:0:
402,192,52715,1,2,0:0:0:0:
36,192,52830,1,0,0:0:0:0:
109,192,52946,1,2,0:0:0:0:
475,192,52946,1,2,0:0:0:0:
182,192,53061,1,0,0:0:0:0:
256,192,53176,1,0,0:0:0:0:
402,192,53176,1,8,0:0:0:0:
475,192,53176,1,8,0:0:0:0:
109,192,53292,1,0,0:0:0:0:
182,192,53407,1,2,0:0:0:0:
36,192,53407,1,2,0:0:0:0:
256,192,53523,1,0,0:0:0:0:
109,192,53638,128,0,54561:0:0:0:0:
402,192,53638,1,2,0:0:0:0:
475,192,53638,1,2,0:0:0:0:
256,192,53753,1,0,0:0:0:0:
182,192,53869,1,2,0:0:0:0:
402,192,53869,1,2,0:0:0:0:
329,192,53984,1,0,0:0:0:0:
256,192,54100,1,8,0:0:0:0:
475,192,54100,1,8,0:0:0:0:
36,192,54100,1,0,0:0:0:0:
402,192,54215,1,0,0:0:0:0:
329,192,54330,1,2,0:0:0:0:
182,192,54330,1,2,0:0:0:0:
475,192,54446,1,0,0:0:0:0:
182,192,54561,128,0,55484:0:0:0:0:
256,192,54561,1,2,0:0:0:0:
36,192,54561,1,2,0:0:0:0:
402,192,54676,1,0,0:0:0:0:
329,192,54792,1,2,0:0:0:0:
36,192,54792,1,2,0:0:0:0:
402,192,54907,1,0,0:0:0:0:
475,192,55023,1,0,0:0:0:0:
256,192,55023,1,8,0:0:0:0:
109,192,55023,1,8,0:0:0:0:
402,192,55138,1,0,0:0:0:0:
329,192,55253,1,2,0:0:0:0:
36,192,55253,1,2,0:0:0:0:
256,192,55369,1,0,0:0:0:0:
475,192,55484,128,0,56407:0:0:0:0:
109,192,55484,1,2,0:0:0:0:
402,192,55484,1,2,0:0:0:0:
329,192,55600,1,0,0:0:0:0:
256,192,55715,1,2,0:0:0:0:
36,192,55715,1,2,0:0:0:0:
182,192,55830,1,0,0:0:0:0:
109,192,55946,1,0,0:0:0:0:
329,192,55946,1,8,0:0:0:0:
402,192,55946,1,8,0:0:0:0:
256,192,56061,1,0,0:0:0:0:
182,192,56176,1,2,0:0:0:0:
36,192,56176,1,2,0:0:0:0:
256,192,56292,1,0,0:0:0:0:
329,192,56407,128,0,57330:0:0:0:0:
109,192,56407,1,2,0:0:0:0:
402,192,56407,1,2,0:0:0:0:
182,192,56523,1,0,0:0:0:0:
36,192,56638,1,2,0:0:0:0:
256,192,56638,1,2,0:0:0:0:
109,192,56753,1,0,0:0:0:0:
182,192,56869,1,0,0:0:0:0:
402,192,56869,1,8,0:0:0:0:
475,192,56869,1,8,0:0:0:0:
109,192,56984,1,0,0:0:0:0:
256,192,57100,1,2,0:0:0:0:
36,192,57100,1,2,0:0:0:0:
402,192,57215,1,0,0:0:0:0:
182,192,57330,128,0,58253:0:0:0:0:
109,192,57330,1,2,0:0:0:0:
475,192,57330,1,2,0:0:0:0:
402,192,57446,1,0,0:0:0:0:
256,192,57561,1,2,0:0:0:0:
36,192,57561,1,2,0:0:0:0:
329,192,57676,1,0,0:0:0:0:
402,192,57792,1,8,0:0:0:0:
475,192,57792,1,0,0:0:0:0:
109,192,57792,1,8,0:0:0:0:
256,192,57907,1,0,0:0:0:0:
329,192,58023,1,2,0:0:0:0:
475,192,58023,1,2,0:0:0:0:
402,192,58138,1,0,0:0:0:0:
36,192,58253,128,0,59176:0:0:0:0:
329,192,58253,1,2,0:0:0:0:
109,192,58253,1,2,0:0:0:0:
475,192,58369,1,2,0:0:0:0:
182,192,58369,1,2,0:0:0:0:
256,192,58484,1,2,0:0:0:0:
402,192,58484,1,2,0:0:0:0:
329,192,58600,1,2,0:0:0:0:
182,192,58600,1,2,0:0:0:0:
109,192,58715,1,8,0:0:0:0:
256,192,58715,1,8,0:0:0:0:
475,192,58715,1,0,0:0:0:0:
402,192,58830,1,0,0:0:0:0:
256,192,58946,1,2,0:0:0:0:
475,192,58946,1,2,0:0:0:0:
402,192,59061,1,2,0:0:0:0:
182,192,59061,1,2,0:0:0:0:
109,192,59176,1,2,0:0:0:0:
329,192,59176,1,2,0:0:0:0:
256,192,59176,128,0,61023:0:0:0:0:
475,192,59292,1,0,0:0:0:0:
402,192,59407,1,2,0:0:0:0:
182,192,59407,1,2,0:0:0:0:
329,192,59523,1,0,0:0:0:0:
36,192,59638,1,8,0:0:0:0:
109,192,59638,1,8,0:0:0:0:
475,192,59638,1,0,0:0:0:0:
182,192,59753,1,0,0:0:0:0:
36,192,59869,1,2,0:0:0:0:
402,192,59869,1,2,0:0:0:0:
329,192,59984,1,0,0:0:0:0:
109,192,60100,1,2,0:0:0:0:
475,192,60100,1,2,0:0:0:0:
182,192,60215,1,0,0:0:0:0:
402,192,60330,1,2,0:0:0:0:
109,192,60330,1,2,0:0:0:0:
329,192,60446,1,0,0:0:0:0:
36,192,60561,1,8,0:0:0:0:
182,192,60561,1,8,0:0:0:0:
475,192,60561,1,0,0:0:0:0:
402,192,60676,1,0,0:0:0:0:
109,192,60792,1,2,0:0:0:0:
475,192,60792,1,2,0:0:0:0:
182,192,60907,1,0,0:0:0:0:
36,192,61023,1,2,0:0:0:0:
475,192,61023,1,2,0:0:0:0:
329,192,61023,128,0,62869:0:0:0:0:
402,192,61138,1,0,0:0:0:0:
109,192,61253,1,2,0:0:0:0:
182,192,61253,1,2,0:0:0:0:
256,192,61369,1,2,0:0:0:0:
402,192,61369,1,2,0:0:0:0:
182,192,61484,1,8,0:0:0:0:
36,192,61484,1,8,0:0:0:0:
475,192,61484,1,0,0:0:0:0:
256,192,61600,1,0,0:0:0:0:
109,192,61715,1,2,0:0:0:0:
402,192,61715,1,2,0:0:0:0:
182,192,61830,1,2,0:0:0:0:
256,192,61830,1,2,0:0:0:0:
36,192,61946,1,2,0:0:0:0:
475,192,61946,1,2,0:0:0:0:
256,192,62061,1,0,0:0:0:0:
109,192,62176,1,2,0:0:0:0:
402,192,62176,1,2,0:0:0:0:
182,192,62292,1,2,0:0:0:0:
475,192,62292,1,2,0:0:0:0:
256,192,62407,1,8,0:0:0:0:
36,192,62407,1,0,0:0:0:0:
402,192,62407,1,8,0:0:0:0:
182,192,62523,1,0,0:0:0:0:
475,192,62638,1,2,0:0:0:0:
109,192,62638,1,2,0:0:0:0:
182,192,62753,1,0,0:0:0:0:
36,192,62869,128,0,63561:0:0:0:0:
109,192,62869,1,2,0:0:0:0:
256,192,62869,1,2,0:0:0:0:
182,192,62984,1,2,0:0:0:0:
329,192,62984,1,2,0:0:0:0:
256,192,63100,1,2,0:0:0:0:
402,192,63100,1,2,0:0:0:0:
329,192,63215,1,2,0:0:0:0:
109,192,63330,1,2,0:0:0:0:
256,192,63330,1,8,0:0:0:0:
475,192,63330,1,8,0:0:0:0:
402,192,63446,1,2,0:0:0:0:
182,192,63561,128,0,64253:0:0:0:0:
329,192,63561,1,2,0:0:0:0:
475,192,63561,1,2,0:0:0:0:
256,192,63676,1,2,0:0:0:0:
402,192,63676,1,2,0:0:0:0:
109,192,63792,1,2,0:0:0:0:
475,192,63792,1,2,0:0:0:0:
36,192,63907,1,2,0:0:0:0:
402,192,63907,1,2,0:0:0:0:
256,192,64023,1,2,0:0:0:0:
475,192,64023,1,2,0:0:0:0:
402,192,64138,1,2,0:0:0:0:
109,192,64138,1,2,0:0:0:0:
256,192,64253,128,0,65638:0:0:0:0:
36,192,64253,1,8,0:0:0:0:
475,192,64253,1,8,0:0:0:0:
329,192,64253,1,0,0:0:0:0:
109,192,64369,1,0,0:0:0:0:
402,192,64484,1,2,0:0:0:0:
182,192,64484,1,2,0:0:0:0:
329,192,64600,1,2,0:0:0:0:
109,192,64600,1,2,0:0:0:0:
402,192,64715,1,2,0:0:0:0:
36,192,64715,1,2,0:0:0:0:
475,192,64830,1,2,0:0:0:0:
182,192,64830,1,2,0:0:0:0:
329,192,64946,1,2,0:0:0:0:
36,192,64946,1,2,0:0:0:0:
402,192,65061,1,2,0:0:0:0:
182,192,65061,1,2,0:0:0:0:
109,192,65176,1,8,0:0:0:0:
36,192,65176,1,8,0:0:0:0:
475,192,65176,1,0,0:0:0:0:
182,192,65292,1,0,0:0:0:0:
402,192,65407,1,2,0:0:0:0:
475,192,65407,1,0,0:0:0:0:
402,192,65523,1,2,0:0:0:0:
475,192,65523,1,0,0:0:0:0:
109,192,65638,128,0,65753:0:0:0:0:
329,192,65638,1,2,0:0:0:0:
36,192,65638,128,0,66561:0:0:0:0:
182,192,65753,128,0,65869:0:0:0:0:
402,192,65753,1,2,0:0:0:0:
256,192,65869,128,0,65984:0:0:0:0:
475,192,65869,1,2,0:0:0:0:
402,192,65984,1,2,0:0:0:0:
329,192,65984,128,0,66100:0:0:0:0:
256,192,66100,1,8,0:0:0:0:
109,192,66100,128,2,66215:0:0:0:0:
182,192,66215,128,0,66330:0:0:0:0:
329,192,66215,1,2,0:0:0:0:
256,192,66330,128,0,66446:0:0:0:0:
402,192,66330,1,2,0:0:0:0:
329,192,66446,128,0,66561:0:0:0:0:
475,192,66446,1,2,0:0:0:0:
109,192,66561,1,0,0:0:0:0:
256,192,66561,1,2,0:0:0:0:
402,192,66561,128,0,67484:0:0:0:0:
182,192,66676,1,0,0:0:0:0:
475,192,66792,1,2,0:0:0:0:
109,192,66792,1,2,0:0:0:0:
256,192,66907,1,0,0:0:0:0:
36,192,67023,1,8,0:0:0:0:
182,192,67023,1,8,0:0:0:0:
475,192,67023,1,0,0:0:0:0:
329,192,67138,1,0,0:0:0:0:
109,192,67253,1,2,0:0:0:0:
256,192,67253,1,2,0:0:0:0:
182,192,67369,1,0,0:0:0:0:
329,192,67484,128,0,68407:0:0:0:0:
36,192,67484,1,2,0:0:0:0:
475,192,67484,1,2,0:0:0:0:
182,192,67600,1,0,0:0:0:0:
256,192,67715,1,2,0:0:0:0:
109,192,67715,1,2,0:0:0:0:
402,192,67830,1,0,0:0:0:0:
182,192,67946,1,8,0:0:0:0:
36,192,67946,1,8,0:0:0:0:
475,192,67946,1,0,0:0:0:0:
256,192,68061,1,0,0:0:0:0:
402,192,68176,1,2,0:0:0:0:
109,192,68176,1,2,0:0:0:0:
256,192,68292,1,0,0:0:0:0:
109,192,68407,128,0,69330:0:0:0:0:
36,192,68407,1,2,0:0:0:0:
475,192,68407,1,2,0:0:0:0:
182,192,68523,1,0,0:0:0:0:
402,192,68638,1,2,0:0:0:0:
256,192,68638,1,2,0:0:0:0:
475,192,68753,1,0,0:0:0:0:
329,192,68869,1,8,0:0:0:0:
182,192,68869,1,8,0:0:0:0:
36,192,68869,1,0,0:0:0:0:
256,192,68984,1,0,0:0:0:0:
475,192,69100,1,2,0:0:0:0:
36,192,69100,1,2,0:0:0:0:
329,192,69215,1,0,0:0:0:0:
256,192,69330,128,0,70253:0:0:0:0:
182,192,69330,1,2,0:0:0:0:
402,192,69330,1,2,0:0:0:0:
36,192,69446,1,0,0:0:0:0:
109,192,69561,1,2,0:0:0:0:
475,192,69561,1,2,0:0:0:0:
402,192,69676,1,0,0:0:0:0:
329,192,69792,1,8,0:0:0:0:
182,192,69792,1,8,0:0:0:0:
36,192,69792,1,0,0:0:0:0:
402,192,69907,1,0,0:0:0:0:
109,192,70023,1,2,0:0:0:0:
475,192,70023,1,2,0:0:0:0:
329,192,70138,1,0,0:0:0:0:
475,192,70253,128,0,71176:0:0:0:0:
182,192,70253,1,2,0:0:0:0:
36,192,70253,1,2,0:0:0:0:
402,192,70369,1,0,0:0:0:0:
109,192,70484,1,2,0:0:0:0:
329,192,70484,1,2,0:0:0:0:
256,192,70600,1,0,0:0:0:0:
182,192,70715,1,8,0:0:0:0:
36,192,70715,1,0,0:0:0:0:
402,192,70715,1,8,0:0:0:0:
329,192,70830,1,0,0:0:0:0:
256,192,70946,1,2,0:0:0:0:
109,192,70946,1,2,0:0:0:0:
182,192,71061,1,0,0:0:0:0:
329,192,71176,128,0,72100:0:0:0:0:
36,192,71176,1,2,0:0:0:0:
402,192,71176,1,2,0:0:0:0:
256,192,71292,1,0,0:0:0:0:
109,192,71407,1,2,0:0:0:0:
475,192,71407,1,2,0:0:0:0:
182,192,71523,1,0,0:0:0:0:
36,192,71638,1,0,0:0:0:0:
256,192,71638,1,8,0:0:0:0:
402,192,71638,1,8,0:0:0:0:
109,192,71753,1,0,0:0:0:0:
475,192,71869,1,2,0:0:0:0:
182,192,71869,1,2,0:0:0:0:
402,192,71984,1,0,0:0:0:0:
182,192,72100,128,0,73023:0:0:0:0:
256,192,72100,1,2,0:0:0:0:
36,192,72100,1,2,0:0:0:0:
475,192,72215,1,0,0:0:0:0:
329,192,72330,1,2,0:0:0:0:
109,192,72330,1,2,0:0:0:0:
402,192,72446,1,0,0:0:0:0:
256,192,72561,1,8,0:0:0:0:
36,192,72561,1,0,0:0:0:0:
475,192,72561,1,8,0:0:0:0:
329,192,72676,1,0,0:0:0:0:
402,192,72792,1,2,0:0:0:0:
109,192,72792,1,2,0:0:0:0:
256,192,72907,1,0,0:0:0:0:
109,192,73023,1,2,0:0:0:0:
475,192,73023,1,0,0:0:0:0:
36,192,73023,128,2,73484:0:0:0:0:
402,192,73138,1,0,0:0:0:0:
182,192,73253,1,2,0:0:0:0:
329,192,73253,1,2,0:0:0:0:
256,192,73369,1,0,0:0:0:0:
109,192,73484,128,0,73946:0:0:0:0:
402,192,73484,1,8,0:0:0:0:
475,192,73484,1,8,0:0:0:0:
329,192,73600,1,0,0:0:0:0:
402,192,73715,1,2,0:0:0:0:
256,192,73715,1,2,0:0:0:0:
182,192,73830,1,0,0:0:0:0:
329,192,73830,1,0,0:0:0:0:
475,192,73946,1,2,0:0:0:0:
36,192,73946,1,2,0:0:0:0:
256,192,73946,128,0,74869:0:0:0:0:
329,192,74061,1,0,0:0:0:0:
182,192,74176,1,2,0:0:0:0:
402,192,74176,1,2,0:0:0:0:
109,192,74292,1,0,0:0:0:0:
36,192,74407,1,0,0:0:0:0:
329,192,74407,1,8,0:0:0:0:
475,192,74407,1,8,0:0:0:0:
182,192,74523,1,0,0:0:0:0:
109,192,74638,1,2,0:0:0:0:
475,192,74638,1,2,0:0:0:0:
402,192,74753,1,0,0:0:0:0:
475,192,74869,128,0,75215:0:0:0:0:
36,192,74869,1,2,0:0:0:0:
182,192,74869,1,2,0:0:0:0:
329,192,74984,1,0,0:0:0:0:
402,192,75100,1,2,0:0:0:0:
109,192,75100,1,2,0:0:0:0:
329,192,75215,128,0,75561:0:0:0:0:
182,192,75215,1,0,0:0:0:0:
36,192,75330,1,8,0:0:0:0:
109,192,75330,1,8,0:0:0:0:
402,192,75330,1,0,0:0:0:0:
256,192,75446,1,0,0:0:0:0:
182,192,75561,128,0,75792:0:0:0:0:
475,192,75561,1,2,0:0:0:0:
36,192,75561,1,2,0:0:0:0:
402,192,75676,1,0,0:0:0:0:
256,192,75792,128,0,76715:0:0:0:0:
329,192,75792,1,2,0:0:0:0:
36,192,75792,1,2,0:0:0:0:
109,192,75907,1,0,0:0:0:0:
182,192,76023,1,2,0:0:0:0:
475,192,76023,1,2,0:0:0:0:
402,192,76138,1,0,0:0:0:0:
329,192,76253,1,0,0:0:0:0:
36,192,76253,1,8,0:0:0:0:
109,192,76253,1,8,0:0:0:0:
182,192,76369,1,0,0:0:0:0:
36,192,76484,1,2,0:0:0:0:
475,192,76484,1,2,0:0:0:0:
402,192,76600,1,0,0:0:0:0:
109,192,76715,128,0,77638:0:0:0:0:
182,192,76715,1,2,0:0:0:0:
329,192,76715,1,2,0:0:0:0:
475,192,76830,1,0,0:0:0:0:
402,192,76946,1,2,0:0:0:0:
36,192,76946,1,2,0:0:0:0:
182,192,77061,1,0,0:0:0:0:
256,192,77176,1,8,0:0:0:0:
475,192,77176,1,0,0:0:0:0:
329,192,77176,1,8,0:0:0:0:
182,192,77292,1,0,0:0:0:0:
36,192,77407,1,2,0:0:0:0:
402,192,77407,1,2,0:0:0:0:
329,192,77523,1,0,0:0:0:0:
256,192,77638,128,0,79484:0:0:0:0:
475,192,77638,1,2,0:0:0:0:
36,192,77638,1,2,0:0:0:0:
402,192,77753,1,0,0:0:0:0:
36,192,77869,1,2,0:0:0:0:
329,192,77869,1,2,0:0:0:0:
109,192,77984,1,0,0:0:0:0:
402,192,78100,1,8,0:0:0:0:
182,192,78100,1,0,0:0:0:0:
475,192,78100,1,8,0:0:0:0:
36,192,78215,1,0,0:0:0:0:
329,192,78330,1,2,0:0:0:0:
109,192,78330,1,2,0:0:0:0:
182,192,78446,1,0,0:0:0:0:
109,192,78561,1,2,0:0:0:0:
475,192,78561,1,2,0:0:0:0:
402,192,78676,1,0,0:0:0:0:
329,192,78792,1,2,0:0:0:0:
182,192,78792,1,2,0:0:0:0:
475,192,78907,1,0,0:0:0:0:
402,192,79023,1,0,0:0:0:0:
36,192,79023,1,8,0:0:0:0:
109,192,79023,1,8,0:0:0:0:
329,192,79138,1,0,0:0:0:0:
182,192,79253,1,2,0:0:0:0:
475,192,79253,1,2,0:0:0:0:
402,192,79369,1,0,0:0:0:0:
36,192,79484,1,2,0:0:0:0:
475,192,79484,1,2,0:0:0:0:
109,192,79600,1,2,0:0:0:0:
402,192,79600,1,2,0:0:0:0:
182,192,79715,1,2,0:0:0:0:
329,192,79715,1,2,0:0:0:0:
182,192,79830,1,2,0:0:0:0:
329,192,79830,1,2,0:0:0:0:
36,192,79946,1,8,0:0:0:0:
475,192,79946,1,8,0:0:0:0:
256,192,79946,1,0,0:0:0:0:
182,192,80176,1,2,0:0:0:0:
402,192,80176,1,2,0:0:0:0:
109,192,80292,1,2,0:0:0:0:
329,192,80292,1,2,0:0:0:0:
256,192,80407,1,2,0:0:0:0:
36,192,80407,128,0,81330:0:0:0:0:
475,192,80407,128,2,80523:0:0:0:0:
402,192,80523,128,2,80638:0:0:0:0:
182,192,80523,1,2,0:0:0:0:
329,192,80638,128,2,80753:0:0:0:0:
109,192,80638,1,2,0:0:0:0:
256,192,80753,128,2,80869:0:0:0:0:
402,192,80753,1,2,0:0:0:0:
475,192,80869,128,8,80984:0:0:0:0:
329,192,80869,1,8,0:0:0:0:
402,192,80984,128,2,81100:0:0:0:0:
256,192,80984,1,2,0:0:0:0:
329,192,81100,128,2,81215:0:0:0:0:
182,192,81100,1,2,0:0:0:0:
256,192,81215,128,2,81330:0:0:0:0:
109,192,81215,1,2,0:0:0:0:
475,192,81330,128,2,82023:0:0:0:0:
182,192,81330,1,2,0:0:0:0:
402,192,81330,1,2,0:0:0:0:
329,192,81446,1,0,0:0:0:0:
182,192,81561,1,2,0:0:0:0:
256,192,81561,1,2,0:0:0:0:
402,192,81676,1,0,0:0:0:0:
329,192,81792,1,8,0:0:0:0:
36,192,81792,1,8,0:0:0:0:
109,192,81792,1,8,0:0:0:0:
256,192,81907,1,0,0:0:0:0:
182,192,82023,128,2,83869:0:0:0:0:
109,192,82023,1,2,0:0:0:0:
402,192,82138,1,0,0:0:0:0:
329,192,82253,1,2,0:0:0:0:
256,192,82253,1,2,0:0:0:0:
475,192,82369,1,0,0:0:0:0:
109,192,82484,1,2,0:0:0:0:
402,192,82484,1,2,0:0:0:0:
36,192,82600,1,0,0:0:0:0:
256,192,82715,1,8,0:0:0:0:
475,192,82715,1,0,0:0:0:0:
329,192,82715,1,8,0:0:0:0:
109,192,82830,1,0,0:0:0:0:
329,192,82946,1,2,0:0:0:0:
402,192,82946,1,2,0:0:0:0:
36,192,83061,1,0,0:0:0:0:
256,192,83176,1,2,0:0:0:0:
109,192,83176,1,2,0:0:0:0:
402,192,83292,1,0,0:0:0:0:
475,192,83407,1,2,0:0:0:0:
36,192,83407,1,2,0:0:0:0:
329,192,83523,1,0,0:0:0:0:
256,192,83638,1,0,0:0:0:0:
475,192,83638,1,8,0:0:0:0:
109,192,83638,1,8,0:0:0:0:
402,192,83753,1,0,0:0:0:0:
36,192,83869,1,2,0:0:0:0:
475,192,83869,128,2,83984:0:0:0:0:
109,192,83869,1,0,0:0:0:0:
329,192,83984,128,2,84100:0:0:0:0:
402,192,84100,128,2,84215:0:0:0:0:
182,192,84100,1,2,0:0:0:0:
256,192,84215,128,2,84330:0:0:0:0:
36,192,84330,1,2,0:0:0:0:
329,192,84330,128,2,84446:0:0:0:0:
475,192,84330,1,0,0:0:0:0:
182,192,84446,128,2,84561:0:0:0:0:
256,192,84561,128,2,84676:0:0:0:0:
402,192,84561,1,8,0:0:0:0:
36,192,84561,1,8,0:0:0:0:
109,192,84676,128,2,84792:0:0:0:0:
182,192,84792,128,2,84907:0:0:0:0:
402,192,84792,1,2,0:0:0:0:
329,192,84792,1,0,0:0:0:0:
36,192,84907,128,2,85023:0:0:0:0:
256,192,85023,1,2,0:0:0:0:
475,192,85023,1,2,0:0:0:0:
109,192,85023,128,0,85715:0:0:0:0:
402,192,85138,1,0,0:0:0:0:
329,192,85253,1,2,0:0:0:0:
182,192,85253,1,2,0:0:0:0:
475,192,85369,1,0,0:0:0:0:
36,192,85484,1,0,0:0:0:0:
256,192,85484,1,8,0:0:0:0:
402,192,85484,1,8,0:0:0:0:
329,192,85600,1,0,0:0:0:0:
256,192,85715,128,2,86638:0:0:0:0:
475,192,85715,1,2,0:0:0:0:
182,192,85715,1,0,0:0:0:0:
402,192,85830,1,0,0:0:0:0:
36,192,85946,1,2,0:0:0:0:
329,192,85946,1,2,0:0:0:0:
182,192,86061,1,0,0:0:0:0:
109,192,86176,1,2,0:0:0:0:
402,192,86176,1,2,0:0:0:0:
329,192,86292,1,0,0:0:0:0:
182,192,86407,1,8,0:0:0:0:
475,192,86407,1,8,0:0:0:0:
36,192,86407,1,0,0:0:0:0:
109,192,86523,1,0,0:0:0:0:
402,192,86638,128,2,87792:0:0:0:0:
329,192,86638,1,2,0:0:0:0:
475,192,86638,1,0,0:0:0:0:
182,192,86753,1,0,0:0:0:0:
256,192,86869,1,2,0:0:0:0:
36,192,86869,1,2,0:0:0:0:
475,192,86984,1,0,0:0:0:0:
329,192,87100,1,2,0:0:0:0:
109,192,87100,1,2,0:0:0:0:
256,192,87215,1,0,0:0:0:0:
36,192,87330,1,8,0:0:0:0:
475,192,87330,1,0,0:0:0:0:
182,192,87330,1,8,0:0:0:0:
329,192,87446,1,0,0:0:0:0:
256,192,87561,1,2,0:0:0:0:
109,192,87561,1,2,0:0:0:0:
36,192,87676,1,2,0:0:0:0:
182,192,87792,128,2,87907:0:0:0:0:
329,192,87792,128,2,87907:0:0:0:0:
36,192,87907,128,2,88023:0:0:0:0:
475,192,87907,128,2,88023:0:0:0:0:
329,192,88023,128,2,88138:0:0:0:0:
182,192,88023,128,2,88138:0:0:0:0:
402,192,88138,128,2,88253:0:0:0:0:
109,192,88138,128,2,88253:0:0:0:0:
36,192,88253,128,2,88369:0:0:0:0:
475,192,88253,128,2,88369:0:0:0:0:
256,192,88253,1,8,0:0:0:0:
182,192,88369,128,2,88484:0:0:0:0:
329,192,88369,128,2,88484:0:0:0:0:
36,192,88484,128,2,88600:0:0:0:0:
475,192,88484,128,2,88600:0:0:0:0:
109,192,88600,128,2,88715:0:0:0:0:
402,192,88600,128,2,88715:0:0:0:0:
