osu file format v5

[General]
AudioFilename: Mami Kawada - PSI-missing.mp3
AudioLeadIn: 0
PreviewTime: -1
Countdown: 0
SampleSet: Normal
StackLeniency: 0.7
Mode: 0
LetterboxInBreaks: 1
EditorBookmarks: 41011,44704,48396,52088,55781,59473,63165,66858,70550,74242,77819,81511,85203,88895,92588,96280,99972,103665,107357,111049,114742,118434
EditorDistanceSpacing: 1.20000004768372

[Metadata]
Title:PSI-Missing
Artist:Mami Kawada
Creator:Al-Azif
Version:Normal
Source:
Tags:

[Difficulty]
HPDrainRate:2
CircleSize:4
OverallDifficulty:5
SliderMultiplier:1.6
SliderTickRate:1

[Events]
//Background and Video events
1,0,"psi.avi"
0,0,"bg.jpg"
//Break Periods
2,78044,83562
//Storyboard Layer 0 (Background)
//Storyboard Layer 1 (Failing)
//Storyboard Layer 2 (Passing)
//Storyboard Layer 3 (Foreground)
//Storyboard Sound Samples
//Background Colour Transformations
3,100,128,128,128

[TimingPoints]
18858,461.538461538462,4,1,1,80,1,0
58781,-100,4,1,1,60,0,0
62819,-100,4,1,1,80,0,0
63165,-200,4,1,1,80,0,0
63858,-100,4,1,1,80,0,0
77819,461.538461538462,4,1,1,80,1,0
84275,-100,4,2,0,60,0,0
85083,-100,4,2,0,80,0,0
90737,-100,4,1,1,80,0,0
118329,-100,4,1,1,50,0,0

[Colours]
Combo1 : 185,0,0
Combo2 : 255,130,130
Combo3 : 255,91,91
Combo4 : 240,5,5

[HitObjects]
56,248,41011,2,0,B|120:152,1,80
144,112,41473,2,0,L|240:176,1,80
280,200,41934,2,0,L|216:296,1,80,0|0
192,336,42396,1,0
152,264,42627,1,0
192,192,42858,2,0,B|224:104|336:104,1,160
344,176,43550,2,0,B|384:256|488:232,1,160
136,64,44473,6,0,B|80:64,2,40
216,64,44934,1,0
296,64,45165,2,0,B|416:64,1,80
384,104,45511,2,0,L|408:160|504:160,1,120
304,160,46319,1,0
304,160,46550,2,0,L|304:328,1,160
224,320,47242,2,0,B|160:264|216:208|272:144|184:80,1,240,0|4
416,64,48396,6,0,B|336:120,1,80,0|0
416,160,48858,2,0,B|328:224,1,80,8|0
320,232,49204,2,0,B|320:368,1,120
240,320,49781,1,8
168,280,50011,1,0
104,232,50242,2,0,L|40:176|40:80,1,160,4|8
120,104,50934,2,0,L|208:104|280:176,1,160
312,216,51627,1,8
392,216,51858,6,0,L|464:216,2,40
352,144,52319,1,0
312,72,52550,2,0,L|208:72,1,80,8|0
192,72,52896,2,0,L|128:72|80:144,1,120
96,200,53473,1,8
96,280,53704,1,4
176,280,53934,1,4
336,280,54396,1,8
416,280,54627,1,4
256,240,55088,1,0
256,80,55550,1,0
256,192,55781,12,0,59011
72,160,62704,5,0
128,104,62934,1,0
208,80,63165,2,0,B|288:64|336:136,1,120,4|0
416,240,64319,1,0
368,304,64550,1,0
288,320,64781,1,0
208,320,65011,2,0,B|80:320,2,120
304,192,66165,6,0,B|416:192,2,80
224,192,66858,1,4
144,192,67088,1,0
144,192,67204,2,0,L|80:152|80:80,1,120
224,40,68011,2,0,B|344:40,1,80
384,40,68473,1,0
384,40,68704,5,0
480,168,69165,1,0
384,296,69627,1,0
288,168,70088,1,0
384,296,70550,5,4
304,296,70781,1,0
304,296,70896,2,0,B|192:296,1,80
184,296,71242,1,0
104,296,71473,1,0
104,64,71934,6,0,B|208:64,1,80
264,64,72396,2,0,B|416:64,2,120
224,136,73319,1,0
224,296,73781,1,0
384,296,74242,6,0,B|472:256|464:144,1,160,4|0
464,88,74934,1,0
304,88,75396,1,0
248,144,75627,1,4
192,200,75858,1,4
256,192,76088,12,4,77819
184,320,84742,6,0,B|352:320,1,160
424,320,85434,1,0
464,248,85665,1,8
424,176,85895,1,0
424,176,86011,1,0
376,112,86242,1,0
376,112,86357,1,0
312,160,86588,1,8
248,208,86818,1,0
192,264,87049,6,0,B|128:312|72:256,2,120,2|0|0
136,200,87972,2,0,B|80:152|16:208,2,120,2|0|0
192,264,88895,5,2
240,328,89126,1,2
240,328,89242,2,0,B|304:368|384:312,1,120,0|0
424,288,89818,1,2
424,288,89934,1,0
424,208,90165,1,0
424,208,90280,1,2
256,192,90742,12,4,92588
160,64,93049,5,0
160,64,93280,1,0
240,64,93511,2,0,B|368:64,2,120
200,128,94434,1,4
360,312,94895,5,0
360,312,95126,1,0
280,312,95357,2,0,B|152:312,2,120
320,240,96280,1,4
168,80,96742,6,0,B|168:184,1,80,0|0
224,216,97203,2,0,B|160:264|96:200,2,120
288,168,98126,2,0,B|344:120|416:176,2,120
344,224,99049,5,4
224,328,99511,1,0
104,224,99972,1,0
224,120,100434,1,0
344,224,100895,1,0
464,120,101357,1,0
464,120,101588,5,0
464,200,101818,6,0,B|464:328,2,120
384,224,102742,2,0,B|384:360,2,120
304,248,103665,1,0
144,280,104126,1,0
104,128,104588,1,0
264,96,105049,1,0
264,96,105280,1,4
264,96,105511,5,4
304,248,105972,1,0
464,200,106434,1,0
424,40,106895,2,0,B|328:40,1,80
264,40,107357,2,0,L|176:40|104:112,1,160
128,248,108280,2,0,L|216:248|288:184,1,160
240,120,108972,5,0
320,120,109203,2,0,L|456:120|448:128,1,120,4|0
440,240,109895,1,0
360,240,110126,2,0,L|224:240,1,120,0|0
120,240,110818,1,0
120,240,111049,5,4
192,96,111511,1,0
264,240,111972,1,0
336,96,112434,1,0
376,168,112665,1,0
416,240,112895,2,0,L|480:240,2,40,4|0|0
336,240,113357,2,0,L|256:240|192:328,1,160
88,304,114165,2,0,L|168:200,1,120
256,192,114742,12,4,118434
