osu file format v5

[General]
AudioFilename: Mami Kawada - Joint.mp3
AudioLeadIn: 0
PreviewTime: -1
Countdown: 1
SampleSet: Normal
StackLeniency: 0.7
Mode: 0
LetterboxInBreaks: 1

[Metadata]
Title:Joint
Artist:Mami Kawada
Creator:osuplayer111
Version:Easy
Source:Shakugan No Shana II
Tags:Mami Kawada

[Difficulty]
HPDrainRate:1
CircleSize:4
OverallDifficulty:3
SliderMultiplier:0.8
SliderTickRate:2

[Events]
//Background and Video events
0,0,"card01editedja0.jpg"
//Break Periods
2,88429,95456
//Storyboard Layer 0 (Background)
//Storyboard Layer 1 (Failing)
//Storyboard Layer 2 (Passing)
//Storyboard Layer 3 (Foreground)
//Storyboard Sound Samples
//Background Colour Transformations
3,100,0,0,0

[TimingPoints]
10210,333.333333333333,4,1,0,100,1

[Colours]
Combo1 : 0,0,0
Combo2 : 0,128,255
Combo3 : 255,0,0
Combo4 : 255,255,0

[HitObjects]
64,80,32876,1,0
64,208,33543,1,0
160,304,34209,1,0
288,304,34876,1,0
416,288,35543,1,0
432,160,36209,1,0
352,64,36876,1,0
448,80,38209,5,8
320,80,38876,1,8
416,176,39543,1,8
288,176,40210,2,2,B|400:320|352:384|576:176|560:160|80:336,1,640
80,208,43543,5,8
64,80,44210,1,8
192,80,44876,2,2,B|304:96|336:208|224:256,1,240
336,320,46543,1,8
144,320,47543,1,8
80,208,48210,1,8
144,96,48876,5,0
176,352,50210,1,8
144,224,50876,2,2,B|240:80|480:80|128:400|560:128|304:416|160:336|544:304|384:80|560:400|368:96|224:288,1,640
112,320,54210,5,0
80,224,54710,1,2
112,128,55210,1,8
176,112,55543,1,2
416,48,56876,1,0
416,144,57376,1,8
416,240,57876,1,2
96,288,59543,5,0
224,288,60210,1,2
352,256,60876,1,0
384,128,61543,1,0
272,192,62210,2,2,B|272:288|368:320|256:304|320:336|352:272|464:160,1,320
256,192,64210,12,0,65376
80,64,66710,5,2
240,64,67543,1,8
368,64,68210,1,8
368,128,68543,1,8
368,192,68876,1,8
320,112,69376,5,8
224,80,69876,2,0,L|192:160|272:208|288:176,1,200
192,224,71210,1,8
240,256,71543,2,0,B|336:352,1,120,2|0
320,176,72876,5,8
384,176,73210,2,2,B|416:272,1,80
288,224,74210,2,2,B|368:304|288:304,1,120
128,304,75543,1,0
128,208,76043,1,2
224,208,76543,1,2
64,112,77543,5,2
64,240,78210,1,8
176,288,78876,1,8
80,80,80043,6,2,B|208:80|80:240|288:256|368:96|432:272|352:320,1,440
416,192,82543,1,0
416,64,83209,1,0
320,144,83876,1,0
128,144,84876,1,2
128,240,85376,1,2
288,240,86209,1,0
256,192,86876,12,0,88209
48,336,96876,5,0
48,208,97543,1,0
160,272,98209,2,2,B|320:272|304:160|288:32,1,320
416,48,100209,1,0
416,176,100876,1,0
176,96,102209,6,2,B|176:288|176:288|336:288,1,320
432,288,104209,1,2
368,176,104876,1,8
400,48,105543,1,2
384,144,106043,1,8
48,48,107543,6,2,B|96:160|96:160|192:64|192:64|240:128,1,320
336,192,109543,1,8
400,80,110209,1,8
256,192,111543,5,0
400,304,112876,5,0
272,304,113543,1,0
144,304,114209,1,0
48,208,114876,1,0
144,112,115543,2,2,B|288:112|288:112|288:224|288:224|400:272|400:272|400:272,1,360
416,48,118209,5,8
368,160,118876,1,2
240,176,119543,1,8
48,352,120876,5,8
160,304,121543,1,2
208,272,121876,1,2
352,304,123543,5,8
224,304,124209,1,8
112,240,124876,1,8
144,112,125543,2,2,B|352:144|0:144|208:336|368:256|384:80|176:32,1,480
256,192,128209,12,0,129376
432,304,130876,5,2
304,304,131543,1,8
176,304,132209,1,8
80,80,133543,5,2
80,208,134209,1,8
96,336,134876,1,8
224,336,135543,1,8
96,336,136209,1,2
64,80,137543,5,2
320,80,138876,5,2
400,176,139543,1,8
352,288,140209,1,8
64,272,141543,5,2
192,272,142209,1,8
272,176,142876,1,8
208,32,144209,5,2
128,128,144876,1,8
160,256,145543,1,8
288,288,146209,1,8
240,160,146876,1,2
368,160,147543,2,2,B|448:304,1,160
320,320,148876,1,2
320,192,149543,1,8
208,240,150209,1,8
256,192,150876,12,4,152209
