osu file format v5

[General]
AudioFilename: Joint.mp3
AudioLeadIn: 3000
PreviewTime: -1
Countdown: 1
SampleSet: Normal

[Metadata]
Title:Joint
Artist:Mami Kawada
Creator:Zephyra
Version:Normal

[Difficulty]
HPDrainRate:3
CircleSize:6
OverallDifficulty:5
SliderMultiplier:2.3
SliderTickRate:1

[Events]
//Background and Video events
0,0,"shakugan no shana.png"
//Break Periods
2,90903,95661
2,152956,158345
//Storyboard Layer 0 (Background)
//Storyboard Layer 1 (Failing)
//Storyboard Layer 2 (Passing)
//Storyboard Layer 3 (Foreground)
//Storyboard Sound Samples
//Background Colour Transformations
3,100,81,81,127

[TimingPoints]
72,315.789473684211,4,1,0,100

[HitObjects]
224,128,2835,1,0
96,64,5519,1,0
96,64,5677,1,0
96,64,5835,1,0
64,64,10177,5,0
96,64,10493,1,0
96,64,10808,1,4
288,128,15545,1,0
256,128,15703,1,0
256,160,15861,1,0
224,192,16019,1,0
192,192,16177,1,4
160,224,20203,1,0
224,256,20519,1,0
288,224,20835,1,0
320,160,21150,1,0
384,128,21545,1,4
128,96,22808,5,0
192,160,23361,1,0
224,160,23677,1,0
224,192,23835,1,0
256,224,23993,1,0
192,256,24229,5,4
320,256,25493,1,0
384,224,26045,1,0
416,224,26361,1,0
416,192,26519,1,0
448,192,26677,1,0
480,192,26835,5,4
96,32,28256,1,0
128,96,28729,1,0
160,128,29045,1,0
160,160,29203,1,0
128,192,29361,1,0
128,192,29519,1,4
320,224,30861,5,0
128,288,31335,1,0
128,256,31729,1,0
96,288,31887,1,0
96,288,32045,1,4
256,160,32835,5,0
256,256,33229,1,0
160,256,33861,1,0
128,192,34335,1,0
64,160,34729,1,0
128,128,35045,1,0
96,64,35203,2,0,B|288:32|384:192|448:192,1,345
224,128,38203,5,0
160,224,38914,1,0
288,224,39545,1,0
416,128,40256,5,4
352,160,40572,1,0
288,192,40887,1,0
224,224,41203,1,0
160,256,41519,1,0
128,192,41835,1,0
64,192,42150,1,0
64,256,42466,1,0
192,128,42861,1,4
256,128,44203,5,0
192,192,45229,1,4
96,224,45545,1,4
64,160,45861,2,0,B|256:64|320:128|320:256|256:320|64:288,1,517.5
224,224,48861,5,0
224,224,49019,1,0
224,224,49177,1,0
224,224,49335,1,0
224,288,49887,5,0
160,288,50203,1,0
160,288,50361,1,0
192,192,51466,5,0
352,160,52177,1,0
352,224,52414,1,0
224,256,52729,1,0
160,288,53045,2,0,L|160:64|193:64|193:64,1,230
128,128,54150,5,0
160,160,54545,1,0
128,192,54703,1,0
96,192,55177,1,0
96,160,55572,1,0
128,160,55729,1,0
320,96,56835,5,0
352,96,57150,1,0
352,96,57308,1,0
352,128,57703,1,0
96,192,59519,5,0
128,192,59835,1,0
128,192,59993,1,0
160,192,60466,5,0
160,224,60861,1,0
160,256,61019,1,0
128,256,61335,1,0
96,256,61493,1,0
160,128,62203,5,0
256,160,62835,1,0
352,128,63466,1,0
160,224,64177,5,0
160,224,64335,1,0
160,224,64493,1,0
160,224,64650,1,0
160,224,65045,5,0
160,224,65203,1,0
160,224,65361,1,4
256,160,66703,5,0
128,192,67572,1,0
128,192,67729,1,0
128,192,67887,1,0
128,192,68045,1,0
288,160,69387,5,0
160,192,70335,1,0
160,192,70572,1,0
160,192,70729,1,0
288,256,71203,1,0
320,256,71519,1,0
352,256,71835,1,0
352,256,71993,1,0
256,192,72624,12,0,76493
320,192,77361,1,4
224,288,79177,1,0
128,256,79335,1,0
160,160,79966,5,0
192,160,80361,1,0
192,160,80519,1,0
192,160,80835,1,0
192,160,80993,1,0
192,160,81150,1,0
256,96,81308,1,0
288,128,81861,5,0
288,160,82177,1,0
320,192,82493,1,0
288,192,82729,1,0
288,288,83519,5,0
256,288,83835,1,0
224,288,83993,1,0
192,128,84703,5,0
192,128,84861,1,0
192,192,85177,1,0
192,192,85335,1,0
192,224,86519,1,0
192,224,86677,1,0
192,256,87229,1,0
192,256,87545,1,0
192,288,87861,1,0
192,288,88019,1,0
160,160,96861,5,0
160,160,97019,1,0
160,160,97177,1,0
160,160,97335,1,0
256,192,97808,5,0
256,192,98124,1,0
256,192,98361,1,0
192,224,98677,1,0
192,224,98993,1,0
64,224,99150,2,0,L|257:16|480:352,1,632.5
192,160,102150,5,0
192,160,102308,1,0
192,160,102545,1,0
192,160,102703,1,0
320,192,103177,5,0
320,192,103493,1,0
320,192,103650,1,0
288,96,104045,1,0
288,96,104203,1,0
192,96,104835,5,0
192,192,105466,1,0
352,320,106019,1,4
160,160,107519,5,0
160,160,107677,1,0
160,160,107914,1,0
160,160,108072,1,0
320,192,108545,5,0
288,224,108861,1,0
288,224,109019,1,0
192,256,109335,1,0
160,256,109729,1,0
160,256,109887,1,0
224,160,112887,5,0
224,160,113045,1,0
224,160,113203,1,0
224,160,113361,1,0
224,160,113914,5,0
224,160,114229,1,0
224,160,114387,1,0
384,192,114703,1,0
384,224,114861,1,0
192,256,115572,5,0
128,128,116045,1,0
128,128,116203,1,0
128,128,116361,1,0
224,128,116677,1,0
320,224,117072,1,0
160,128,118177,5,0
160,128,118493,1,0
160,128,118650,1,0
320,128,119203,1,0
320,128,119519,1,0
320,128,119677,1,0
192,224,120861,5,0
192,224,121177,1,0
192,224,121335,1,0
192,224,121808,1,0
128,96,123466,1,0
160,96,123782,1,0
192,96,124098,1,0
288,128,124493,1,0
256,160,124887,1,0
224,192,125045,1,0
64,192,125282,1,0
64,128,125519,1,0
320,96,126150,1,0
224,256,126861,1,0
64,96,127493,1,0
320,192,128124,1,0
224,128,128519,1,0
224,128,128677,1,0
160,192,128993,1,0
160,192,129150,1,0
160,192,129387,1,0
256,160,130650,5,0
128,192,131519,1,0
128,192,131676,1,0
128,192,131834,1,0
128,192,131992,1,0
288,160,133334,1,0
160,192,134203,1,0
160,192,134361,1,0
160,192,134519,1,0
160,192,134677,1,0
288,256,135150,1,0
320,256,135466,1,0
352,256,135861,1,0
352,256,136019,1,0
256,192,136571,12,0,140440
320,192,141308,1,4
224,288,143203,1,0
128,256,143361,1,0
160,160,144072,5,0
192,160,144387,1,0
192,160,144545,1,0
192,160,144861,1,0
192,160,145019,1,0
192,160,145176,1,0
352,192,145334,1,0
288,128,145887,5,0
288,160,146203,1,0
320,192,146519,1,0
288,192,146677,1,0
288,288,147545,5,0
256,288,147861,1,0
224,288,148019,1,0
192,128,148729,5,0
192,128,148887,1,0
192,192,149203,1,0
192,192,149361,1,0
192,224,150545,5,0
192,224,150703,1,0
192,256,151255,1,0
192,256,151571,1,0
192,288,151887,1,0
192,288,152045,1,0
192,160,160256,5,0
416,224,160729,1,0
320,256,161203,1,0
224,224,161677,1,0
256,160,162150,1,0
160,160,162545,1,0
224,96,162861,5,0
352,160,163335,1,0
224,288,163887,1,0
160,224,164361,1,0
128,128,164835,1,0
224,96,165150,1,0
256,160,167519,5,0
256,160,167835,1,4
96,128,170203,5,0
64,192,170598,2,4,L|480:192,3,402.5
224,128,172887,1,4
224,128,173203,1,4
480,288,173519,2,4,L|480:96|192:32|32:160|224:320|224:288,2,920
224,128,177150,5,4
224,128,177387,1,4
224,128,177545,1,4
384,320,177861,1,4
384,320,178019,1,4
192,288,178414,1,4
288,224,178729,1,4
288,224,179045,1,4
288,224,179203,1,4
192,160,180861,5,4
192,160,181177,1,4
192,160,181335,1,4
320,128,181650,1,4
320,128,181887,1,4
320,224,182519,1,4
320,224,182677,1,4
128,128,183545,5,4
256,96,183861,1,4
256,96,184019,1,4
320,192,184492,1,4
320,192,184650,1,4
224,224,185203,1,4
224,224,185361,1,4
96,160,185835,1,4
256,96,186229,1,4
256,96,186387,1,4
288,160,187887,5,4
288,160,188045,1,4
288,160,188203,1,4
160,128,189387,1,4
224,96,189703,1,4
224,96,189861,1,4
256,160,191519,5,4
192,224,191835,1,4
192,224,191993,1,4
352,224,193177,1,4
352,224,193335,1,4
192,96,194519,5,4
192,96,194677,1,4
288,256,195861,1,4
288,256,196019,1,4
288,256,196493,1,4
288,256,196808,1,4
288,256,196966,1,4
160,128,198229,5,4
160,128,198545,1,4
160,128,198703,1,4
160,128,199177,1,4
160,128,199493,1,4
160,128,199650,1,4
320,160,200203,5,4
224,256,200835,1,4
96,96,201466,1,4
352,128,202177,1,4
256,224,202808,5,4
256,224,202966,1,4
256,224,203203,1,4
256,224,203361,1,4
256,224,203835,1,4
256,224,203993,1,4
224,192,205493,5,4
320,192,206124,1,4
416,192,206835,1,4
320,192,207466,1,4
256,160,208177,1,4
256,160,208808,1,4
256,160,209519,5,4
256,160,209835,1,4
256,160,210229,1,4
32,160,210782,2,4,C|192:32|384:192|288:320|64:288|385:91|385:91,3,1265
256,192,216229,12,4,221203
192,128,222150,1,4
192,128,222545,1,4
192,128,222703,1,4
320,224,223493,1,4
256,128,224203,1,4
224,192,224835,1,4
288,128,225545,1,4
192,224,226177,1,4
96,160,226887,2,4,C|480:128|288:352|32:256|160:64|352:32|416:160|96:224|320:288|448:224|128:192,2,2587.5
160,128,237545,1,4
160,128,237703,1,4
160,128,238019,1,4
160,128,238335,1,4
160,128,238493,1,4
