osu file format v7

[General]
AudioFilename: Shakugan_no_Shana_II_-_Joint_TV_Size.mp3
AudioLeadIn: 3000
PreviewTime: 67026
Countdown: 0
SampleSet: Soft
StackLeniency: 0.7
Mode: 0
LetterboxInBreaks: 1

[Editor]
DistanceSpacing: 2
BeatDivisor: 4
GridSize: 8

[Metadata]
Title:Joint (TV Size)
Artist:Mami Kawada
Creator:osuplayer111
Version:Hard
Source:Shakugan no Shana II OP
Tags:Anime ignorethis xxheroxx orioncomet Kuroneko-sHerald youngdow DJPop

[Difficulty]
HPDrainRate:7
CircleSize:5
OverallDifficulty:8
SliderMultiplier:1.6
SliderTickRate:0.5

[Events]
//Background and Video events
Video,-128,"JOINT.mpg"
0,0,"shana.jpg"
//Break Periods
//Storyboard Layer 0 (Background)
//Storyboard Layer 1 (Fail)
//Storyboard Layer 2 (Pass)
//Storyboard Layer 3 (Foreground)
//Storyboard Sound Samples
Sample,45544,0,"soft-hitclap.wav",80
Sample,51544,0,"soft-hitclap.wav",80
Sample,52211,0,"soft-hitclap.wav",80
//Background Colour Transformations
3,100,163,162,255

[TimingPoints]
545,333.333333333333,4,2,1,70,1,0
1545,-200,4,2,1,70,0,0
2044,-100,4,2,1,70,0,0
3211,-100,4,1,1,70,0,0
3378,-100,4,2,1,70,0,0
4211,-200,4,2,1,70,0,0
4711,-100,4,2,1,70,0,0
5878,-100,4,1,1,70,0,0
6378,-100,4,2,1,70,0,0
6878,-200,4,2,1,70,0,0
7378,-100,4,2,1,70,0,0
10461,-100,4,1,1,70,0,0
10628,-100,4,2,1,70,0,0
10794,-100,4,1,1,70,0,0
11044,-100,4,2,1,70,0,0
11211,-100,4,2,1,86,0,0
20628,-100,4,1,1,16,0,0
20794,-100,4,1,1,30,0,0
20961,-100,4,1,1,45,0,0
21128,-100,4,1,1,60,0,0
21294,-100,4,1,1,75,0,0
21461,-100,4,1,1,85,0,0
21628,-100,4,1,1,93,0,0
21794,-100,4,1,1,80,0,0
24378,-100,4,2,1,80,0,0
24711,-100,4,1,1,80,0,0
27128,-100,4,2,1,80,0,0
27294,-100,4,1,1,80,0,0
29794,-100,4,2,1,80,0,0
29961,-100,4,1,1,80,0,0
31711,-100,4,2,1,80,0,0
31878,-100,4,1,1,80,0,0
32044,-100,4,2,1,80,0,0
32211,-100,4,1,1,80,0,0
32544,-100,4,2,1,80,0,0
35711,-100,4,1,1,80,0,0
38378,-100,4,2,1,80,0,0
40378,-100,4,1,1,80,0,0
43211,-100,4,2,1,80,0,0
46544,-100,4,1,1,80,0,0
49044,-100,4,2,1,80,0,0
53711,-100,4,1,1,80,0,0
53860,333.333333333333,4,1,1,80,1,0
54378,-200,4,2,1,80,0,0
56378,-100,4,1,1,80,0,0
57044,-200,4,2,1,80,0,0
58378,-100,4,1,1,80,0,0
59693,-200,4,2,1,80,0,0
61526,-100,4,2,1,80,0,0
67026,-100,4,1,1,80,0,1
70943,-200,4,1,1,80,0,1
71526,-100,4,1,1,80,0,1
76859,-100,4,1,1,80,0,0
77109,-100,4,1,1,20,0,0
77276,-100,4,1,1,50,0,0
77443,-100,4,1,1,70,0,0
77693,-100,4,1,1,80,0,1
78943,-200,4,1,1,80,0,1
80193,-100,4,1,1,80,0,1
81609,-200,4,1,1,80,0,1
82193,-100,4,1,1,80,0,1
86943,-200,4,1,1,80,0,1
87526,-100,4,1,1,80,0,1
88359,-100,4,1,1,80,0,0

[Colours]
Combo1 : 255,255,255
Combo2 : 255,0,0

[HitObjects]
56,192,545,2,0,B|160:192,1,80,2|0
216,192,878,2,0,B|320:192,1,80,2|0
376,192,1211,1,2
456,192,1378,1,0
456,32,1711,2,2,B|360:32,1,80,2|0
312,80,2211,5,2
256,24,2378,1,0
200,80,2545,1,2
256,136,2711,2,0,B|256:224,2,80
200,80,3211,6,0,B|112:80,1,80
312,80,3545,2,0,B|416:80,1,80,2|0
256,136,3878,1,2
256,216,4045,1,0
256,376,4378,2,2,B|256:280,1,80,2|0
256,216,4878,5,2
192,176,5044,1,0
256,136,5211,1,2
320,176,5378,1,0
256,136,5544,2,0,B|256:48,1,80
176,32,5878,6,0,B|80:32,1,80
336,32,6211,2,0,B|432:32,1,80
256,56,6544,2,0,B|256:152,1,80,2|0
256,296,7044,2,2,B|256:200,1,80,2|0
256,136,7544,5,2
256,136,7711,1,0
256,136,7878,1,2
256,136,8044,1,0
256,136,8211,6,0,B|256:48,2,80,0|0|2
200,192,8711,1,0
312,192,8878,1,2
168,192,9044,1,0
344,192,9211,1,2
256,248,9378,1,0
256,248,9711,6,0,B|256:344,2,80,0|2|0
200,192,10211,1,2
256,136,10378,1,0
312,192,10545,1,0
256,136,10711,1,0
256,136,10878,2,0,B|256:48,2,80,0|0|4
200,192,11378,6,0,B|112:192,1,80,0|8
312,192,11711,2,0,B|408:192,1,80,0|8
176,256,12045,2,0,B|88:256,1,80,0|8
336,256,12378,2,0,B|424:256,1,80,0|8
152,320,12711,2,0,B|56:320,1,80,0|8
360,320,13045,2,0,B|456:320,1,80,0|8
256,296,13378,1,0
256,216,13545,1,8
256,136,13711,1,0
200,192,13878,6,0,B|112:192,1,80,8|0
312,192,14211,2,0,B|408:192,1,80,8|0
176,128,14545,2,0,B|88:128,1,80,8|0
336,128,14878,2,0,B|424:128,1,80,8|0
152,64,15211,2,0,B|56:64,1,80,8|0
360,64,15545,2,0,B|456:64,1,80,8|0
256,136,15878,1,8
256,216,16045,1,0
256,296,16211,1,8
184,256,16378,5,8
328,256,16545,1,4
256,216,16711,2,0,B|184:176,1,80,0|8
256,216,17045,2,0,B|256:128,1,80,0|8
256,216,17378,2,0,B|336:176,1,80,0|8
328,256,17711,1,0
256,296,17878,1,8
184,256,18045,1,0
184,256,18211,6,0,B|96:256,1,80,8|0
256,144,18545,2,0,B|256:56,1,80,8|4
328,256,18878,2,0,B|424:256,1,80,8|4
256,144,19211,1,4
184,256,19378,1,0
328,256,19545,1,8
256,216,19711,1,0
256,216,19878,1,8
256,216,20044,1,0
256,216,20211,1,8
256,216,20378,1,4
256,24,20711,5,0
256,40,20878,1,0
256,56,21044,1,0
256,72,21211,1,0
256,88,21378,1,0
256,104,21544,1,0
256,120,21711,1,0
256,136,21878,6,0,B|256:232,1,80
256,296,22211,1,8
96,296,22544,1,0
96,136,22878,1,8
96,136,23044,1,8
216,24,23378,1,0
296,24,23544,1,8
256,96,23711,2,0,B|256:184,1,80
256,256,24044,1,0
256,256,24211,1,8
256,256,24544,5,4
104,304,24878,1,8
104,304,25044,1,0
104,144,25378,1,0
104,144,25544,1,8
104,144,25711,1,8
320,40,26211,2,0,B|416:40,1,80,8|0
472,72,26544,2,0,B|472:160,1,80
472,232,26878,1,8
472,232,27044,1,0
472,232,27211,5,4
336,312,27544,2,0,B|160:312,1,160,8|0
96,312,28044,1,0
96,312,28211,1,8
96,312,28378,1,8
96,80,28878,1,8
160,24,29044,1,0
216,80,29211,1,0
280,24,29378,1,0
280,24,29544,6,0,B|448:24,2,160,8|4|8
160,24,30461,2,0,B|112:24,1,40,0|8
64,152,30878,1,0
64,232,31044,1,8
136,192,31211,1,0
216,192,31378,1,8
304,192,31544,6,0,B|400:192,1,80,8|4
464,192,31878,2,0,B|368:192,1,80,8|4
384,112,32211,1,8
384,272,32378,1,8
384,192,32544,1,4
256,312,33211,5,2
192,360,33378,1,0
128,312,33544,1,8
64,360,33711,2,0,B|-8:232|64:120,1,240,0|8
184,40,34544,1,2
256,80,34711,1,0
328,40,34878,1,8
256,80,35044,2,0,B|288:144|232:192|264:264,1,160,0|0
256,320,35544,1,8
352,192,35878,6,0,B|448:192,1,80
432,192,36211,1,8
160,192,36544,2,0,B|64:192,1,80
80,192,36878,1,8
256,40,37211,2,0,B|256:136,1,80
256,344,37544,2,0,B|256:248,1,80,8|0
256,192,37878,1,0
256,192,38044,1,0
256,192,38211,1,8
128,96,38544,6,0,B|216:96,1,80,2|0
256,32,38878,1,8
304,96,39044,2,0,B|416:192|320:328,1,240,0|8
176,352,39878,1,2
104,320,40045,2,0,B|32:256,1,80,0|8
40,184,40378,1,0
80,112,40545,2,0,B|136:40,1,80
208,48,40878,5,8
256,112,41045,1,0
304,48,41211,1,0
256,200,41545,2,0,B|256:288,2,80,8|0|0
256,360,42211,1,8
256,360,42378,1,0
144,248,42711,2,0,B|80:176,1,80,0|8
368,136,43045,2,0,B|432:208,1,80,0|4
256,192,43545,5,8
256,32,43878,2,0,B|88:32,1,160,2|8
32,80,44378,2,0,B|32:256,1,160
32,320,44878,1,8
192,352,45211,1,2
256,304,45378,2,0,B|256:136,1,160
368,32,46045,1,0
448,32,46211,2,0,B|504:104|448:192,1,160,8|0
392,232,46711,5,0
392,232,46878,1,8
256,144,47211,1,0
256,144,47378,1,0
256,144,47545,1,8
128,232,47878,1,0
128,232,48045,2,0,B|16:232,2,80,0|8|0
256,320,48711,1,0
256,320,48878,1,8
256,144,49211,6,0,B|256:56,2,80,2|0|8
256,224,49711,2,0,B|144:160|16:232,1,240,0|8
136,344,50545,1,2
136,344,50711,1,0
296,344,51045,1,0
296,344,51211,2,0,B|440:336|480:192,1,240,2|0
480,128,51878,2,0,B|400:32|400:32|272:32,1,240,2|0
208,32,52545,1,0
184,112,52711,2,0,B|120:272,2,160,0|2|0
480,192,53860,5,4
32,192,54193,1,4
256,192,54526,5,2
256,272,54860,1,0
256,312,55026,2,0,B|312:358|372:308,1,120,2|2
408,248,55860,2,0,B|408:192,1,40,2|0
256,32,56526,5,4
256,352,56860,1,4
256,192,57193,5,2
192,144,57526,1,0
192,144,57693,2,0,B|64:144,1,120,2|2
480,192,58693,5,8
424,128,58860,1,8
368,72,59026,1,8
312,16,59193,1,4
256,168,59526,1,4
192,312,59859,6,0,B|96:312,1,80,2|0
72,312,60359,1,2
72,192,60859,2,0,B|72:104,1,80,2|0
72,72,61359,1,2
176,32,61693,5,0
176,32,61859,2,0,B|352:32,1,160,2|8
336,352,62526,2,0,B|160:352,1,160,2|8
32,272,63193,2,0,B|32:96,1,160,2|8
480,112,63859,2,0,B|480:288,1,160,2|8
256,88,64526,5,2
360,192,64693,1,0
256,296,64859,1,8
152,192,65026,1,0
256,192,65359,1,0
256,192,65526,1,8
256,192,65693,1,2
256,192,66026,12,4,67026
64,128,67359,5,0
112,64,67526,2,0,B|208:64,1,80,8|0
256,112,67859,1,0
400,64,68026,2,0,B|296:64,1,80,0|8
448,120,68359,1,0
256,352,68859,1,8
256,352,69026,2,0,B|256:256,3,80,0|0|0|8
200,216,69693,6,0,B|104:216,1,80,4|0
48,192,70026,1,0
120,152,70193,2,0,B|208:152,1,80,8|0
256,96,70526,1,0
312,152,70693,2,0,B|400:152,1,80,0|8
464,192,71026,2,0,B|464:320,1,120,0|8
304,336,71859,5,0
256,272,72026,1,0
216,200,72193,1,8
168,136,72359,1,4
112,288,72693,1,0
112,288,72859,1,8
400,96,73193,6,0,B|352:32|352:32|264:32,1,160,0|8
256,112,73693,2,0,B|288:176|240:208|264:288,1,160
256,352,74193,1,8
256,352,74359,1,0
256,352,74526,2,0,B|152:352,1,80
104,312,74859,1,8
48,256,75026,2,0,B|48:160,1,80
48,96,75359,1,0
48,96,75526,5,8
48,96,75693,1,0
48,96,75859,2,0,B|112:40,1,80
192,40,76193,1,8
256,88,76359,1,0
256,88,76693,1,0
320,40,76859,1,8
448,136,77193,1,0
448,136,77359,1,0
448,136,77526,1,0
448,136,77693,6,0,B|488:208|488:208|448:296,1,160,4|0
384,320,78193,1,8
320,280,78359,1,0
256,320,78526,2,0,B|184:360|184:360|96:304,1,160,0|8
48,280,79026,2,0,B|48:144,1,120,0|8
104,104,79693,2,0,B|216:24,1,120,0|8
256,96,80359,6,0,B|256:264,1,160,4|0
200,312,80859,1,8
256,368,81026,1,0
312,312,81192,1,0
256,256,81359,2,0,B|256:160,1,80,0|8
256,96,81693,2,0,B|320:56|384:104,1,120,0|8
496,192,82526,5,0
432,240,82693,1,0
368,192,82859,1,8
304,240,83026,1,4
176,336,83359,1,0
96,336,83526,1,8
24,192,83859,6,0,B|104:48,1,160,0|8
176,32,84359,1,0
336,32,84693,2,0,B|424:32,1,80,0|8
480,80,85026,2,0,B|480:168,1,80
448,320,85526,1,8
376,352,85693,2,0,B|288:352,1,80,4|0
256,280,86026,1,0
256,280,86193,1,8
256,200,86359,5,0
256,200,86526,2,0,B|256:104,1,80
256,40,86859,1,8
256,40,87026,2,0,B|128:40,1,120,4|8
40,168,87859,1,0
40,328,88193,1,8
40,328,88359,1,0
256,288,88526,5,0
256,144,88693,1,0
464,192,89026,1,0
352,80,89193,1,0
48,192,89526,1,0
176,80,89693,1,0
