osu file format v5

[General]
AudioFilename: Mami Kawada - Hishoku no Sora.mp3
AudioLeadIn: 0
PreviewTime: -1
Countdown: 1
SampleSet: Normal
StackLeniency: 0.7
Mode: 0
LetterboxInBreaks: 1

[Metadata]
Title:Hishoku no Sora
Artist:Mami Kawada
Creator:kioukiou
Version:Normal
Source:
Tags:

[Difficulty]
HPDrainRate:5
CircleSize:5
OverallDifficulty:5
SliderMultiplier:1.4
SliderTickRate:4

[Events]
//Background and Video events
0,0,"Syana_1.jpg"
//Break Periods
2,18064,28203
2,88712,99382
2,137374,159761
//Storyboard Layer 0 (Background)
//Storyboard Layer 1 (Failing)
//Storyboard Layer 2 (Passing)
//Storyboard Layer 3 (Foreground)
//Storyboard Sound Samples
//Background Colour Transformations
3,100,163,162,255

[TimingPoints]
488,710.059171597633,4,1,0,100,1
158121,710.059171597633,4,2,0,100,1
184748,710.059171597633,4,1,0,100,1

[HitObjects]
256,192,6168,1,0
256,192,6345,1,0
256,192,6523,1,0
320,168,6878,2,2,B|288:127|222:127|192:168,1,140
352,304,8653,1,2
280,304,9008,1,2
208,304,9363,1,2
136,304,9718,2,0,B|136:144,1,140
136,96,10783,1,0
136,96,10961,1,0
304,40,11848,6,0,B|392:40,2,70
232,40,12914,1,0
200,184,13624,2,0,B|256:184,1,35
304,184,14156,1,0
304,184,14334,1,0
384,296,15044,6,0,B|296:296,1,70
240,296,15754,1,0
168,296,16109,1,0
96,296,16464,2,0,B|96:208,1,70
168,224,17174,1,0
240,224,17529,1,0
240,152,17884,1,4
256,192,29422,5,0
184,192,29777,2,0,B|136:136|192:88,1,105
248,72,30665,1,0
320,72,31020,1,0
320,72,31198,1,0
392,72,31553,1,0
312,184,32263,6,0,B|352:160|408:160|432:208,1,105
368,240,33150,2,0,B|336:280|288:264,1,70
240,264,33860,1,0
240,264,34038,1,0
168,264,34393,1,0
168,192,34748,2,2,B|168:128,3,35
472,328,37056,5,0
416,288,37411,1,0
360,248,37766,1,0
304,200,38121,2,2,B|248:152,3,70
200,200,39541,1,0
144,240,39896,1,0
88,192,40251,1,0
88,192,40428,1,0
88,192,40606,1,0
88,120,40961,6,0,B|136:80|184:80|216:136,1,140
208,200,42026,1,0
208,272,42381,1,0
208,272,42559,2,0,B|248:320|296:280,1,70
360,168,43801,2,0,B|354:80|256:128,1,140
208,176,44866,1,0
168,120,45221,2,0,B|144:80,1,35
104,32,45754,1,0
256,192,46109,12,0,46819
96,336,48416,5,0
168,336,48772,1,0
240,336,49127,1,0
288,280,49482,2,2,B|336:232|320:192,1,70
288,160,50192,1,0
216,160,50547,1,0
144,160,50902,1,0
80,160,51257,1,0
88,232,51612,5,0
144,272,51967,2,0,B|209:307|280:264,1,140
248,200,53032,2,0,B|312:160|384:200,1,140
384,264,54097,1,0
456,272,54452,1,0
456,200,54807,1,0
384,192,55162,2,0,B|360:120,1,70
288,128,55872,1,0
216,128,56227,2,0,B|168:128,1,35
128,304,57292,6,0,B|192:248,1,70
240,288,58002,2,0,B|176:344,1,70
256,344,58712,1,0
328,344,59067,1,0
400,344,59422,1,0
400,272,59777,2,0,B|440:248|416:184,1,70
360,208,60487,1,0
288,208,60843,1,0
216,208,61198,1,0
144,208,61553,1,0
72,208,61908,2,0,B|56:184|88:152,1,35
208,64,62973,5,0
208,64,63150,1,0
208,64,63328,1,0
256,112,63683,2,0,B|288:144|248:184,1,70
184,176,64393,1,0
184,248,64748,1,0
184,320,65103,1,0
256,320,65458,2,0,B|304:344|352:304,1,70
320,248,66168,1,0
312,176,66523,2,2,B|272:104|376:32,1,140
416,56,67588,1,0
416,56,67766,1,0
240,48,68653,6,2,B|192:104|112:32,1,140
120,104,69718,2,2,B|184:64|272:112,1,140
232,168,70783,1,0
176,208,71138,1,0
120,248,71493,1,0
112,320,71848,2,0,B|176:360|256:320,2,140
112,320,73446,1,0
240,200,74334,5,0
296,152,74689,1,0
352,192,75044,2,0,B|296:248,1,70
248,288,75754,1,0
200,240,76109,1,0
152,192,76464,1,0
96,144,76819,2,2,B|112:104|152:64|224:80,1,140
216,144,77884,2,2,B|264:208|344:152,1,140
392,112,78949,1,0
392,112,79127,1,0
288,256,80014,6,0,B|240:304|176:248,1,105
136,216,80902,1,0
136,216,81079,1,0
48,104,81789,2,0,B|80:48|176:56,1,140
312,64,83209,1,0
264,112,83564,1,0
216,168,83919,1,0
280,200,84274,1,0
328,144,84630,1,0
376,88,84985,1,0
432,128,85340,6,0,B|496:184,1,70
440,224,86050,1,0
392,272,86405,2,0,B|384:320|328:312,1,70
296,328,87115,2,2,B|240:360|120:296|152:144,1,280
96,88,100606,6,0,B|56:136|120:224,1,140
168,168,101671,1,0
216,216,102026,1,0
264,160,102381,1,0
304,216,102736,1,0
392,104,103446,1,0
440,152,103801,2,0,B|464:176|464:216|432:248,1,105
433,246,104511,1,0
392,304,104866,2,0,B|336:352|272:304,1,105
224,296,105754,2,2,B|196:280|208:240,3,35
328,112,108061,6,0,B|292:65|240:88,1,70,0|0
200,96,108772,1,0
128,96,109127,1,0
72,144,109482,1,0
72,144,109659,1,4
480,224,111967,5,0
432,272,112322,2,0,B|384:312|320:248,1,105
304,200,113209,1,0
352,152,113564,1,0
296,104,113919,1,0
120,104,114807,2,2,B|64:160|120:200,2,105
184,120,116227,1,0
184,120,116405,1,0
232,168,116760,1,0
256,192,117115,12,0,117825
440,136,119422,2,2,B|416:72|320:56,1,140
344,128,120488,2,2,B|296:152|224:112|208:56,1,140
160,48,121553,1,0
88,48,121908,1,0
128,144,122440,6,0,B|50:197|136:296,1,175
200,304,123683,1,0
272,304,124038,1,0
344,304,124393,2,0,B|368:264|328:208,1,70
272,232,125103,1,0
272,160,125458,1,0
344,160,125813,2,2,B|400:136|392:88,1,70
328,88,126523,2,2,B|341:42|400:48,1,70
448,48,127233,1,0
448,48,127411,1,0
280,88,128298,6,0,B|186:26|152:120,1,140
112,152,129363,1,0
136,216,129718,1,0
176,272,130073,2,0,B|216:304|256:264,1,70
208,208,130783,2,0,B|256:184|296:232,1,70
328,256,131493,1,0
368,312,131848,2,0,B|440:312|456:224|408:152|384:144,1,210
391,148,133091,1,0
256,192,133979,12,0,137174
256,192,160961,1,0
184,192,161316,1,0
112,192,161671,2,2,B|72:160|120:112,1,70
168,96,162381,1,0
240,96,162736,1,0
312,96,163091,2,2,B|384:96,2,70
96,264,165221,6,0,B|128:320|176:288,1,70
296,144,166641,2,0,B|280:104|232:120,1,70
336,304,168061,1,0
264,304,168416,1,0
192,304,168771,2,0,B|144:272|120:184|224:112,1,210
206,125,170014,1,4
288,56,170547,2,0,B|328:32|376:72,1,70
354,57,171079,1,4
360,304,172322,5,0
288,304,172677,1,0
224,328,173032,2,0,B|184:336|152:272|184:216,1,140
240,176,174097,1,0
192,128,174452,1,0
240,80,174807,2,0,B|240:40,1,35
392,320,176582,5,0
392,248,176937,1,0
392,248,177115,1,0
216,240,178002,1,0
216,168,178357,2,0,B|136:168,1,70
72,168,179067,1,0
72,96,179422,1,0
144,96,179777,1,0
216,96,180132,2,2,B|240:56|304:48|360:64|400:104,2,175
256,192,182263,12,0,184748
224,112,185103,6,2,B|176:144|184:184,2,70
224,112,185990,1,0
224,112,186168,1,0
224,112,186345,1,0
56,288,187588,2,0,B|104:336|192:280,1,140
128,240,188653,2,0,B|192:192|280:232,1,140
320,256,189718,1,0
320,256,189895,1,0
352,80,190783,6,0,B|288:80,3,35
248,80,191671,1,0
248,80,191848,1,0
112,120,192558,2,2,B|160:160,1,35
184,192,193091,1,0
184,192,193268,1,0
240,320,193978,6,0,B|312:360|376:312,1,140
400,248,195043,1,0
400,176,195398,1,0
400,176,195576,1,0
272,56,196463,2,0,B|224:24|200:80,1,70
160,104,197174,1,0
160,104,197351,1,0
120,104,197529,1,0
120,104,197706,1,0
216,320,198949,6,0,B|312:296|296:192,1,140
248,176,200014,1,0
208,120,200369,1,0
264,72,200724,1,0
296,128,201079,2,0,B|344:128,1,35
408,280,202144,1,0
408,280,202321,1,0
408,280,202499,1,0
408,280,202676,2,0,B|264:280,1,140
128,280,203919,2,0,B|88:224|168:160,1,140
296,104,205339,5,0
224,96,205694,2,0,B|157:18|72:104,2,175
288,128,207824,1,0
288,128,208002,1,0
288,128,208179,1,0
288,200,208534,1,0
216,200,208890,1,0
144,200,209245,2,2,B|168:272|256:280|336:256,1,210
392,232,210665,1,0
440,184,211020,1,0
416,120,211375,2,2,B|368:48|272:48,2,140
392,256,213505,6,0,B|336:288|264:224,1,140
208,176,214570,1,0
208,32,215280,1,0
208,32,215458,1,0
136,32,215813,1,0
136,32,215990,1,0
56,144,216700,2,0,B|112:96|192:120,3,140
160,184,219185,5,0
160,184,219363,1,0
160,184,219540,1,0
96,208,219895,2,2,B|144:272|240:208,1,140
272,264,220961,1,0
280,192,221316,1,0
208,184,221671,2,2,B|240:88|336:88|344:184,1,210
344,248,223091,1,0
416,256,223446,1,0
416,184,223801,1,0
416,184,223978,1,0
304,80,224866,6,0,B|280:40|224:40|184:88,1,140
96,280,226641,2,0,B|128:336|176:336|224:272,1,140
176,152,228061,1,0
176,152,228239,1,0
176,152,228416,2,0,B|320:152,2,140
104,152,230191,1,0
32,152,230546,1,0
32,224,230901,1,0
40,296,231256,2,2,B|87:345|141:348|192:296,4,140
