osu file format v5

[General]
AudioFilename: Mami Kawada - Hishoku no Sora.mp3
AudioLeadIn: 0
PreviewTime: -1
Countdown: 1
SampleSet: Normal
StackLeniency: 0.7
Mode: 0
LetterboxInBreaks: 1

[Metadata]
Title:Hishoku no Sora
Artist:Mami Kawada
Creator:kioukiou
Version:Hard
Source:
Tags:

[Difficulty]
HPDrainRate:7
CircleSize:5
OverallDifficulty:6
SliderMultiplier:1.4
SliderTickRate:2

[Events]
//Background and Video events
0,0,"Syana_1.jpg"
//Break Periods
2,18064,28203
2,88712,99382
2,137356,157612
//Storyboard Layer 0 (Background)
//Storyboard Layer 1 (Failing)
//Storyboard Layer 2 (Passing)
//Storyboard Layer 3 (Foreground)
//Storyboard Sound Samples
//Background Colour Transformations
3,100,163,162,255

[TimingPoints]
133,355.029585798817,4,1,0,100,1
158121,355.029585798817,4,2,0,100,1
184748,355.029585798817,4,1,0,100,1

[HitObjects]
56,192,6168,1,0
56,192,6346,1,0
56,192,6523,1,0
168,112,6878,2,0,B|136:80|96:120,3,70
320,328,8653,1,0
448,272,9008,1,0
432,128,9363,2,0,B|384:48|328:48|352:248|296:248|232:152,2,280
432,128,10961,1,0
88,40,11848,5,0
88,112,12026,1,0
88,184,12204,1,0
88,256,12381,1,0
224,256,12736,1,0
152,256,12914,1,0
360,64,13624,1,2
288,64,13801,1,2
424,64,14156,1,2
496,64,14334,1,2
408,328,15044,5,0
408,328,15221,1,0
408,328,15399,2,0,C|312:320|344:246|218:251|288:168,1,420
352,144,16641,2,2,C|448:152|389:31|475:45|296:104,1,490
144,152,29422,6,0,C|144:240,1,70
72,224,29777,2,0,C|72:128,1,70
192,88,30310,1,0
264,88,30488,1,0
336,88,30665,1,0
328,224,31020,1,0
256,224,31198,1,0
392,224,31553,1,0
112,272,32263,5,0
64,216,32440,1,0
176,128,32795,1,0
232,176,32973,1,0
280,224,33150,1,0
336,176,33328,1,0
280,224,33505,1,0
384,128,33860,5,0
328,80,34038,1,0
432,176,34393,1,0
328,272,34748,1,2
272,312,34925,1,2
224,256,35103,1,2
176,200,35280,1,2
344,104,37056,6,2,B|312:48|280:48|224:128,1,140
208,248,37766,2,2,B|256:312|296:312|328:240,1,140
448,208,38476,1,0
448,208,38653,1,0
176,48,40961,5,0
176,120,41138,1,0
248,120,41316,1,0
248,192,41493,2,0,B|248:288,1,70
248,336,41848,1,0
328,336,42026,1,0
328,184,42381,1,0
328,256,42559,1,0
328,104,42914,1,0
32,352,43801,5,0
88,304,43979,1,0
152,264,44156,1,0
216,224,44334,2,0,B|296:160,1,70
232,112,44689,1,0
176,56,44866,1,0
328,56,45221,1,0
400,56,45399,1,0
248,56,45754,1,0
256,192,46109,12,0,46641
416,88,48417,1,0
280,120,48772,1,0
312,256,49127,1,0
176,280,49482,2,2,C|397:285|252:154|456:112,1,630
328,40,51434,1,0
184,40,51967,1,0
112,40,52144,1,0
40,40,52322,2,2,C|56:152|189:173|102:90|136:248|296:248,1,700
464,32,54807,5,0
464,104,54985,1,0
392,104,55162,1,0
392,240,55517,1,0
248,248,55872,1,0
248,104,56227,1,0
248,176,56405,1,0
40,296,57292,2,0,C|104:216,1,70
152,248,57647,2,0,C|200:328,1,70,0|0
328,312,58180,1,0
400,312,58357,1,0
80,48,59777,5,0
208,104,60133,1,0
96,200,60488,1,0
120,336,60843,2,0,C|112:256|224:304|224:200|344:208,1,420
328,208,62085,1,0
456,48,62973,5,0
456,120,63150,1,0
456,192,63328,1,0
336,120,63683,2,0,B|288:88|248:144,1,70
264,192,64038,2,0,B|304:232|344:192,1,70
112,144,65458,5,0
32,32,65813,1,0
112,144,66168,1,0
32,32,66523,2,2,B|136:40|173:59|12:156|40:187|67:222|264:104|280:120|296:136|256:240,1,420
267,207,67766,1,2
440,64,68653,5,0
368,64,68831,1,0
296,64,69008,1,0
224,64,69186,2,0,B|224:168,1,70
152,136,69541,1,0
152,64,69718,1,0
152,344,70428,2,0,B|232:344,1,70
360,344,70961,1,0
288,344,71138,1,0
464,128,71848,5,0
464,128,72026,1,0
464,128,72204,2,2,C|408:64|344:208|288:104|240:152,1,420
254,132,73446,1,2
40,240,74334,5,0
40,312,74511,1,0
104,280,74689,1,0
240,280,75044,1,0
312,280,75221,1,0
240,280,75399,1,0
312,280,75576,1,0
408,56,76819,6,0,C|336:24|288:80,1,140
408,144,77529,1,0
296,64,77884,2,0,C|208:32|214:143|259:111|120:80,1,420
120,80,79127,1,0
64,336,80014,5,0
112,288,80192,1,0
152,344,80369,1,0
200,296,80547,1,0
304,184,80902,2,0,C|232:136,1,70
480,344,81789,2,0,C|480:264,1,70
472,120,82322,1,0
392,120,82499,1,0
80,112,83209,1,0
152,112,83387,1,0
232,112,83564,2,2,C|232:272,3,140
256,192,85340,12,0,88535
120,208,100606,1,0
168,264,100783,2,0,C|264:224,1,70
304,208,101138,1,0
376,192,101316,2,0,B|408:168|384:128,1,70
304,120,101671,2,0,B|272:136|240:88,1,70
144,32,102026,1,0
64,32,102204,1,0
216,32,102559,1,0
480,312,103446,5,0
328,320,103801,2,2,B|256:320,1,70
176,320,104156,2,2,B|264:320,1,70
256,240,104511,1,0
256,88,104866,1,0
256,88,105044,1,0
256,240,105399,1,0
112,176,105754,2,8,B|120:216|176:224,1,70
208,160,106109,2,8,B|208:112|144:120,1,70
472,56,108061,5,0
320,56,108417,1,0
168,56,108772,1,0
168,208,109127,1,0
320,208,109482,2,0,B|232:208,1,70
64,296,111967,5,0
144,296,112144,1,0
144,216,112322,1,0
224,216,112499,1,0
296,216,112677,2,0,B|328:192|296:144,1,70
240,128,113032,2,0,B|224:88|296:72,1,70
352,80,113387,1,0
352,0,113564,1,0
200,8,113919,1,0
432,312,114807,5,0
432,232,114985,1,0
352,224,115162,2,2,B|272:224,1,70
200,224,115517,2,2,B|296:224,1,70
270,224,115872,2,0,B|272:136,1,70
272,72,116227,1,0
272,72,116405,1,0
272,224,116760,1,4
256,192,117115,12,0,117825
440,48,119422,6,0,C|352:56|416:128|320:176,1,280
232,56,120488,2,2,C|168:24|112:72,4,140
376,232,122440,1,0
224,232,122795,1,0
224,232,122973,1,0
224,232,123150,1,0
224,232,123328,2,0,C|134:162|163:144|144:280,3,280
280,328,125813,5,0
336,272,125990,1,0
392,224,126168,1,0
416,72,126523,1,0
264,72,126878,1,0
112,72,127233,1,0
184,72,127411,1,0
464,336,128298,6,0,C|368:336,1,70
312,336,128653,1,0
232,336,128831,1,0
80,336,129186,2,0,C|168:336,1,70
424,160,130783,1,0
360,32,131138,1,0
240,112,131493,1,0
320,224,131848,2,2,C|198:135|225:329|101:287|304:232,1,700
256,192,133979,12,0,137174
128,136,158831,2,0,B|96:176|144:200,8,70
424,56,160961,1,0
344,56,161138,1,0
344,128,161316,1,0
264,128,161493,2,0,B|264:352,1,210
112,336,162381,1,0
120,184,162736,1,0
112,336,163091,1,0
120,184,163446,1,0
120,256,163623,1,0
360,80,165221,6,2,B|400:112|384:216,2,140
48,80,166641,1,2
48,80,166819,1,2
120,80,166996,1,2
120,80,167174,1,2
440,296,168061,2,0,B|368:344|288:296,1,140
176,224,168771,2,2,B|224:160|328:184,3,140
301,179,170014,1,0
464,336,170547,1,2
312,336,170902,1,2
312,336,171079,1,2
424,40,172322,5,0
344,40,172499,1,0
264,40,172677,1,0
184,40,172854,2,0,B|424:40,1,210
400,192,173742,1,0
248,192,174097,1,0
96,192,174452,1,0
248,192,174807,1,0
168,192,174984,1,0
344,272,176582,6,2,B|288:344|192:264,1,140
219,284,177115,1,2
256,192,179422,1,2
256,192,179600,1,2
256,192,179777,1,2
256,192,179955,2,2,L|208:192|208:128|320:128|320:256|144:256|144:56|328:56,1,910
256,192,182618,12,0,184748
120,200,185103,1,0
176,144,185280,1,0
232,88,185458,1,0
360,168,185813,2,0,B|321:161|280:216,1,70
288,272,186168,2,0,B|280:312|232:296,1,70
472,48,187588,1,0
320,48,187943,1,0
168,48,188298,1,0
320,48,188653,2,0,C|202:83|369:156|184:168|336:296,1,700
184,328,190783,5,0
136,272,190961,1,0
80,216,191138,1,0
32,152,191316,2,0,C|200:152,1,140
172,152,191848,1,0
464,56,192558,1,0
384,56,192736,2,0,C|296:56,3,70
176,328,193978,1,0
240,280,194156,1,0
192,216,194333,2,0,C|296:352,5,140
344,192,196463,5,0
264,192,196641,1,0
184,192,196819,1,0
184,40,197174,1,0
184,112,197351,1,0
264,112,197529,1,0
264,184,197706,1,0
64,328,198949,1,0
216,328,199304,1,0
368,328,199659,1,0
216,328,200014,2,0,B|216:32,2,280
120,32,202144,6,0,B|184:96,1,70
224,32,202499,2,0,B|160:88,1,70
160,232,203032,1,0
160,152,203209,1,0
464,168,203919,1,0
384,168,204097,1,0
232,168,204452,1,0
312,168,204629,1,0
56,344,205339,5,0
112,296,205517,1,0
168,240,205694,2,0,B|288:120,5,140
376,256,207824,1,0
376,176,208002,1,0
376,96,208179,1,0
224,96,208534,1,2
304,96,208712,1,2
376,96,208890,1,2
456,96,209067,1,2
48,168,210310,6,0,B|112:104|200:152,1,140
304,224,211020,1,0
256,192,211375,12,0,212795
432,80,213505,1,0
352,80,213682,1,0
272,80,213860,1,0
192,80,214037,2,2,B|192:184,1,70
112,152,214392,2,2,B|112:72,1,70
272,344,215280,1,0
192,344,215458,1,0
344,344,215813,1,0
424,344,215990,1,0
208,120,216700,5,0
208,120,216878,1,0
208,120,217055,2,0,B|360:120,3,140
348,120,218298,1,0
32,344,219185,2,0,B|72:288|112:312,1,70
87,304,219540,1,0
208,208,219895,1,0
208,128,220073,1,0
280,128,220250,2,0,B|280:232,1,70
424,112,221671,5,0
312,216,222026,1,0
192,112,222381,1,0
256,192,222736,12,0,224511
80,112,224866,5,0
120,176,225043,1,0
168,232,225221,2,0,B|224:160,1,70
312,56,225753,1,0
264,120,225931,1,0
472,344,226641,1,0
408,296,226819,1,0
408,144,227174,1,0
464,192,227351,1,0
168,272,228061,5,0
216,216,228239,1,0
272,160,228416,2,2,B|128:160,3,140
424,72,230191,1,0
376,136,230369,1,0
328,72,230546,1,0
288,136,230724,1,0
232,80,230901,1,0
112,176,231256,2,0,B|344:176,1,210
376,224,231966,2,2,C|320:128|264:320|192:128|104:320|64:216,1,840
